#TITLE:NIGHT OF FIRE;
#SUBTITLE:(FOR CHRISTMAS MIX);
#ARTIST:NIKO;
#TITLETRANSLIT:;
#SUBTITLETRANSLIT:;
#ARTISTTRANSLIT:;
#GENRE:;
#CREDIT:Telperion;
#BANNER:NOF_FCM-bn.png;
#BACKGROUND:NOF_FCM-bg.png;
#LYRICSPATH:;
#CDTITLE:;
#MUSIC:NOF_FCM.ogg;
#OFFSET:-0.194;
#SAMPLESTART:54.235;
#SAMPLELENGTH:24.117;
#SELECTABLE:YES;
#DISPLAYBPM:77.535:155.070;
#BPMS:0.000=77.535,20.000=38.768,21.000=155.070;
#STOPS:;
#BGCHANGES:;
#KEYSOUNDS:;

//---------------dance-single - Telperion----------------
#NOTES:
     dance-single:
     Telperion:
     Hard:
     8:
     0.526,0.486,0.350,0.170,0.048:
0000
0000
0000
0000
,
0000
0000
0000
0000
,
0000
0000
0000
0000
,
1000
0100
1000
0100
0010
0001
0010
0001
,
0100
0001
0100
0000
0010
1000
0100
0000
0010
0000
0000
0010
0000
0000
0010
0000
,
1001
0000
0001
1000
0001
0000
0100
0001
,
1000
0000
0100
1000
0100
0010
0001
0010
,
0001
0000
0100
0001
1000
0000
0010
1000
,
0001
0000
0100
0001
0100
0010
0100
1000
,
0100
0000
0010
1000
0001
0000
0010
0100
,
1000
0000
0001
0100
0001
0100
0010
1000
,
0010
0000
0100
0001
0010
0000
0100
1000
,
0010
0000
0000
0000
0200
0000
0000
0001
0000
0000
0010
0000
0000
1000
0000
0000
,
0310
0000
0010
0100
0001
0100
0010
0100
,
0001
0000
0010
0100
1000
0100
0010
0001
,
0100
0000
0001
0010
0001
0000
0100
1000
,
0100
0000
0001
0010
0100
1000
0001
0010
,
0100
0000
1000
0010
0100
0010
1000
0100
,
0010
0000
0001
0010
0100
0010
0001
1000
,
0001
0000
0011
0010
0100
0000
0001
0100
,
0001
0000
0000
0000
0200
0000
0000
0010
0000
0000
1300
0000
0000
0010
0000
0000
,
0100
0000
0110
0000
0010
1000
0000
1100
,
0000
0011
0000
0001
0010
0100
1000
0000
,
1000
0000
0002
1000
0003
0000
2000
0001
,
3000
0000
0001
1000
0001
1000
0010
0100
,
0001
0000
1001
0000
0001
0100
0000
0101
,
0000
1010
0000
0010
1000
0100
0010
0001
,
0100
0022
0033
2010
,
0000
3001
0000
1000
0100
0010
0001
0001
,
0000
1100
0110
0022
,
0033
0000
0001
0010
0100
1000
0010
0100
,
1000
0000
0000
1000
0100
0010
1000
0001
,
0010
0100
0000
0100
0010
0000
0010
0000
,
0000
0101
0110
2020
,
3030
0000
1000
0010
0100
1000
0100
0001
,
1000
0000
0000
1000
0100
0010
0001
1000
,
0100
0010
0000
0010
0100
0000
0110
0000
,
0000
1010
0110
0202
,
0303
0000
0001
0100
0010
0100
1000
0100
,
0010
0000
1000
0010
0100
0001
1000
0010
,
0100
0001
0000
0001
0010
0000
0010
0000
,
0000
0011
0110
2002
,
3003
0000
1000
0100
0010
0100
0100
1000
,
0010
0000
0100
0001
0001
0010
0100
1000
,
0001
1001
0000
1001
1000
0100
0011
0000
,
1100
0000
1001
0001
0100
0000
0010
1000
,
0001
0000
0100
0001
0100
0010
1000
0010
,
1000
0000
0001
0010
0100
0000
0100
0010
,
0001
0000
0100
0001
0010
0100
1000
0000
,
1000
0000
0101
0100
0010
0000
1000
0010
,
0100
0000
0001
0100
0010
1000
0001
0100
,
0010
0000
1000
0100
0010
0000
0001
0100
,
0010
0000
0000
0000
1200
0000
0000
0010
0000
0000
0301
0000
0000
0100
0000
0000
,
0010
0001
0011
0000
1100
0000
0010
1001
;

//---------------dance-single - Telperion----------------
#NOTES:
     dance-single:
     Telperion:
     Medium:
     5:
     0.423,0.400,0.446,0.127,0.000:
0000
0000
0000
0000
,
0000
0000
0000
0000
,
0000
0000
0000
0000
,
1000
0100
1000
0000
0001
0100
0001
0000
,
0010
0100
0010
0100
2000
0000
3002
0000
,
0103
0000
0110
0000
1000
0000
0001
0100
,
0010
0000
0110
0000
0001
0000
1000
0100
,
0010
0000
0011
0000
1000
0000
0001
0100
,
0010
1010
0001
0011
,
1000
0000
0010
1000
0100
0000
0110
0000
,
1100
0000
0001
0100
0010
0000
0110
0000
,
0101
0000
0001
0010
0100
0000
1001
0000
,
1100
2002
0000
0000
,
3003
0000
0001
0000
0100
0000
1000
0100
,
0010
1010
0100
0011
,
0010
0200
0000
0300
,
0000
0000
0100
0010
0001
0000
0001
1000
,
0001
0000
1000
0000
0100
0000
0001
0100
,
0010
0011
0100
1010
,
0001
0000
0102
0000
0000
0000
0103
0001
,
1000
1100
0000
0000
,
0000
0000
0100
0000
0010
0001
0000
0001
,
0000
1000
0000
1000
0010
1000
0001
0000
,
0001
1010
0000
0011
,
0000
1010
0011
1010
,
1010
0000
0100
0000
0010
1000
0000
1000
,
0000
0001
0000
0001
0010
0001
0100
0001
,
0010
0110
0000
1001
,
0000
0110
0000
0010
0100
0010
0100
0000
,
0000
0201
0010
1300
,
0000
0000
1000
0000
0100
0000
0010
0100
,
0010
0000
1000
0000
0100
0000
0010
0100
,
0010
0001
0000
0000
0001
0000
1000
0000
,
0000
1200
0010
0301
,
0000
0000
0001
0000
0100
0000
0010
0100
,
0010
0000
0001
0000
0100
0000
0010
1000
,
0100
0010
0000
0010
0100
0000
0110
0000
,
1001
1020
0100
0031
,
0000
0000
0001
0000
0010
0000
0100
0010
,
0100
0000
0001
0000
0010
0000
0100
0010
,
0100
1000
0000
0000
1000
0000
0001
0000
,
1000
0021
0100
1030
,
0000
0000
1000
0000
0010
0000
0100
0010
,
0100
0000
1000
0000
0010
0000
0100
0001
,
0100
0010
0000
0010
1000
0100
0010
0000
,
0000
0000
0110
0000
0001
0000
1000
0100
,
0010
0000
0110
0000
1000
0000
0001
0100
,
0010
0000
1010
0000
0001
0000
0001
0010
,
0100
0000
1000
0100
1000
0100
0010
0000
,
0000
0000
0010
0001
0010
0000
0011
0000
,
1001
0000
0010
1000
0001
0000
0011
0000
,
1001
0000
0010
0100
0010
0000
0010
0001
,
1000
0000
2010
0000
0000
3002
0000
0000
,
1003
0100
0010
0000
0010
0000
1001
1000
;

//---------------dance-single - Telperion----------------
#NOTES:
     dance-single:
     Telperion:
     Easy:
     3:
     0.218,0.285,0.244,0.000,0.000:
0000
0000
0000
0000
,
0000
0000
0000
0000
,
0000
0000
0000
0000
,
1000
0000
0001
0000
,
0100
0000
0010
0000
,
0110
0001
0000
1000
,
0000
0001
1000
0001
,
1000
0100
0000
0100
,
0000
0010
0100
0010
,
0100
1000
0000
1000
,
0000
0001
1000
0001
,
1000
0010
0000
0010
,
0000
0100
0000
0000
,
0000
0110
0000
0000
,
0000
0001
0000
1000
,
0000
1001
0000
0000
,
0000
0010
0010
0010
,
0100
0110
0000
0000
,
0000
0001
0000
1000
,
0000
1001
0000
0000
,
0000
0100
0100
0100
,
0010
0110
0000
0001
,
0000
0010
0000
1000
,
0000
0011
0000
0011
,
0000
0010
0010
0010
,
0000
0001
0000
1000
,
0000
0010
0000
0001
,
0000
1000
0000
0001
,
0000
0000
0000
0000
,
0000
0110
0110
0110
,
0000
0001
0000
0100
,
0000
1000
0000
0010
,
0000
0100
0000
0000
,
0000
0110
0110
0110
,
0000
1000
0000
0100
,
0000
0001
0000
0010
,
0000
1000
0000
0000
,
0000
0110
0110
0110
,
0000
0001
0000
0001
,
0000
0100
0000
0100
,
0000
1000
0000
0000
,
0000
0110
0110
1001
,
0000
0001
1000
0001
,
0000
1000
0001
1000
,
0000
0010
0010
0010
,
0010
0010
0000
0100
,
0000
0010
1000
0010
,
1000
0001
0000
0001
,
0000
0010
0001
0010
,
0010
0001
0000
1000
,
0000
0001
1000
0001
,
1000
0010
0000
0010
,
0000
0100
0100
0010
,
0010
0110
1001
0110
;

//---------------dance-single - Telperion----------------
#NOTES:
     dance-single:
     Telperion:
     Beginner:
     1:
     0.077,0.143,0.000,0.000,0.000:
0000
0000
0000
0000
,
0000
0000
0000
0000
,
0000
0000
0000
0000
,
0000
0000
0000
0000
,
0000
0000
0000
0000
,
0000
1000
0000
0000
,
0000
0000
0000
0000
,
0000
0001
0000
0000
,
0000
0000
0000
0000
,
0000
1000
0000
0000
,
0000
0000
0000
0000
,
0000
0010
0000
0000
,
0000
0000
0000
0000
,
0000
0100
0000
0000
,
0000
0100
0000
0100
,
0000
0100
0000
0000
,
0000
0000
0000
0000
,
0000
0001
0000
0000
,
0000
0010
0000
0010
,
0000
0010
0000
0000
,
0000
0000
0000
0000
,
0000
0100
0000
0000
,
0000
1000
0000
0000
,
0000
0001
0000
0001
,
0000
0001
0000
0000
,
0000
1000
0000
0000
,
0000
0100
0000
0000
,
0000
0010
0000
0000
,
0000
0000
0000
0000
,
0000
0001
0001
0001
,
0000
0000
0000
0000
,
0000
1000
0000
0000
,
0000
0100
0000
0000
,
0000
1000
1000
1000
,
0000
0000
0000
0000
,
0000
0001
0000
0000
,
0000
0100
0000
0000
,
0000
0010
0010
0010
,
0000
0000
0000
0000
,
0000
0100
0000
0000
,
0000
0001
0000
0000
,
0000
0010
0010
0010
,
0000
0000
0000
0000
,
0000
0100
0000
0000
,
0000
1000
1000
1000
,
1000
1000
0000
0000
,
0000
0000
0000
0000
,
0000
0001
0000
0000
,
0000
0000
0000
0000
,
0000
0010
0000
0000
,
0000
0000
0000
0000
,
0000
0100
0000
0000
,
0000
0100
0000
0000
,
0000
0010
0010
0010
;

//---------------dance-double - Telperion----------------
#NOTES:
     dance-double:
     Telperion:
     Hard:
     8:
     0.514,0.544,0.223,0.244,0.048:
00000000
00000000
00000000
00000000
,
00000000
00000000
00000000
00000000
,
00000000
00000000
00000000
00000000
,
10000000
01000000
00100000
00010000
10000000
01000000
00100000
00001000
,
00000100
00000000
00000010
00000000
00010000
00000000
00001000
00000000
00000100
00000000
00000000
00000100
00000000
00000000
00000100
00000000
,
00001001
00000000
00000001
00000010
00000100
00000000
00001000
00000100
,
00000001
00000000
00000001
00000100
00000010
00000100
00001000
00000100
,
00010000
00000000
00000100
00010000
00001000
00000000
01000000
00001000
,
00010000
00000000
00100000
10000000
01000000
00100000
00010000
10000000
,
00010000
00000000
00010000
00100000
01000000
00000000
10000000
00100000
,
00010000
00000000
00010000
00100000
01000000
00100000
10000000
01000000
,
00010000
00000000
00001000
00000100
00000001
00000000
00001000
00000001
,
00001000
00000000
00000000
00000000
00000100
00000000
00000000
00000010
00000000
00000000
00000001
00000000
00000000
00000100
00000000
00000000
,
00001000
00010000
00002000
00000000
00203000
00000000
02300000
00000000
,
13000000
00000000
10000000
01000000
00010000
00001000
00010000
00100000
,
01000000
00100000
10000000
00000000
10000000
00000000
00010000
10000000
,
00010000
00000000
00010000
00100000
01000000
00010000
00001000
00100000
,
00001000
00020000
00030200
00000320
,
00000031
00000000
00000001
00000100
00001000
00010000
00001000
00000010
,
00000100
00000010
00000001
00000000
00000001
00000000
00001000
00000001
,
00001000
00000000
00000000
00000000
00000001
00000000
00000000
00000100
00000000
00000000
00001000
00000000
00000000
00010000
00000000
00000000
,
01000000
10000000
00100000
00000000
01000000
00010000
00000000
00010000
,
00100000
01000000
00000000
01000000
10000000
00100000
01000000
00010000
,
01000000
00000000
00002000
00010000
00003000
00000000
20000000
00010000
,
30000000
00000000
00001000
00010000
00010000
00010000
00000000
00001000
,
00000100
00000001
00000010
00000000
00000100
00001000
00000000
00001000
,
00000100
00000010
00000000
00000010
00000001
00000100
00000010
00000100
,
00000001
00000021
00000130
00011000
,
00000000
01100000
00000000
00100000
10000000
01000000
00100000
00100000
,
00000000
10010000
00011000
00002002
,
00003003
00000000
00000000
00000001
00000100
00001000
00010000
01000000
,
10000000
00000000
00000000
10000000
00100000
00010000
00001000
00000100
,
00000001
00000010
00000000
00000010
00000001
00000010
00001000
00000010
,
00000001
00001001
00011000
20020000
,
30030000
00000000
00000000
10000000
01000000
00010000
00001000
00000100
,
00000001
00000000
00000000
00000001
00000010
00001000
00010000
01000000
,
10000000
00100000
01000000
00100000
00010000
00100000
10000000
01000000
,
00100000
01000000
00100000
01000000
00100000
00000000
00000000
00000000
00011000
00000000
00000000
00000000
00002002
00000000
00000000
00000000
,
00003003
00000000
00000000
00000001
00000100
00001000
00010000
00100000
,
01000000
00000000
00000000
01000000
00001000
00100000
01000000
00010000
,
00000100
00000010
00000000
00000010
00000001
00000100
00001000
00000100
,
00000001
00001001
00011000
20020000
,
30030000
00000000
00000000
10000000
01000000
00010000
00001000
00000100
,
00000010
00000000
00000000
00000010
00010000
00000100
00000010
00001000
,
00100000
01000000
00000000
01000000
10000000
00100000
00010000
00000000
,
00011000
00200200
00300300
00000000
,
00000000
00000000
00001000
00010000
00000100
00000010
00000100
00001000
,
00000001
00000000
00000100
00000100
00000010
00000000
00001000
00000100
,
00000010
00000000
00000100
00010000
00001000
01000000
00100000
00000000
,
01100000
00000000
20020000
00000000
30030000
00000000
00010000
01000000
,
00100000
00000000
00010000
00001000
00010000
01000000
00100000
00010000
,
10000000
00000000
10000000
01000000
00010000
00000000
01000000
00100000
,
00001000
00000000
00000000
00000000
00010000
00000000
00000000
00000010
00000000
00000000
00000100
00000000
00000000
00001000
00000000
00000000
,
00000001
00000100
00000010
00000000
00000110
00000000
00002002
00000000
,
00003003
00000000
00000000
00000000
;

//---------------dance-double - Telperion----------------
#NOTES:
     dance-double:
     Telperion:
     Medium:
     4:
     0.321,0.401,0.265,0.138,0.000:
00000000
00000000
00000000
00000000
,
00000000
00000000
00000000
00000000
,
00000000
00000000
00000000
00000000
,
00001000
00001000
00000001
00000001
,
00000100
00000010
00001000
00000100
,
00010000
00001000
00001000
00010000
,
00010000
01000000
10000000
00100000
,
00010000
00001000
00001000
00010000
,
00010000
00000100
00000010
00000001
,
00000100
00001000
00001000
00010000
,
00010000
00001000
00000100
00000001
,
00000010
00000100
00000100
00010000
,
00001000
00022000
00000000
00000000
,
00033000
00011000
00000000
00000000
,
00000000
00100000
00000000
01000000
,
00000000
10000000
01000000
00010000
,
01000000
10000000
00100000
00010000
,
00001000
00011000
00000000
00000000
,
00000000
00000100
00000000
00000010
,
00000000
00000001
00000100
00001000
,
00000100
00000010
00001000
00000100
,
00010000
00011000
00000000
00001000
,
00000000
00101000
00000000
00100000
,
00000000
00110000
00000000
11000000
,
00000000
00110000
00010000
01010000
,
00000000
00100000
10000000
01000000
,
00000000
00100000
00001000
01000000
,
00000000
01100000
00000000
01001000
,
00000000
00011000
00000000
00010000
00001000
00010000
00001000
00001000
,
00000000
00010100
00001000
00002002
,
00003003
00000001
00000010
00001000
,
00000010
00000001
00000100
00001000
,
00000100
00000010
00010000
00001000
,
00000000
01001000
00010000
20020000
,
30030000
10000000
01000000
00010000
,
01000000
10000000
00100000
00010000
,
00002000
00100000
00010000
00103000
,
00000000
00101000
00010000
20020000
,
30030000
10000000
01000000
00010000
,
00010000
00001000
00000100
00000001
,
00000001
00000100
00000010
00010000
,
00000000
00010010
00001000
00002002
,
00003003
00000001
00000100
00001000
,
00001000
00010000
01000000
10000000
,
10000000
00010000
00000000
00000000
00000000
00000000
01000000
00000000
,
01100000
10010000
10000000
00010000
,
00010000
00100000
01000000
00010000
,
01000000
00100000
00100000
00001000
,
00001000
00010000
00000100
00001000
,
00000001
00001000
00001000
00000001
,
00000001
00000010
00000100
00000001
,
00000100
00000010
00000100
00001000
,
00000100
00010000
00001000
00000100
,
00001000
00011000
00101000
00020020
,
00030030
00000000
00000000
00000000
;

//---------------dance-double - Telperion----------------
#NOTES:
     dance-double:
     Telperion:
     Easy:
     2:
     0.135,0.171,0.011,0.000,0.000:
00000000
00000000
00000000
00000000
,
00000000
00000000
00000000
00000000
,
00000000
00000000
00000000
00000000
,
00000000
00000000
00000000
00000000
,
00000000
00000000
00000000
00000000
,
00000000
10000000
00000000
00010000
,
00000000
00100000
00000000
01000000
,
00000000
00100000
00000000
00001000
,
00000000
00010000
00000000
00000000
,
00000000
00001000
00000000
00010000
,
00000000
00000010
00000000
00000100
,
00000000
00000001
00000000
00001000
,
00000000
00000001
00000000
00000000
,
00000000
00000010
00000000
00000100
,
00000000
00000010
00000000
00000100
,
00000000
00001000
00000000
00000000
,
00000000
00001000
00000000
00000000
,
00000000
00000100
00000000
00010000
,
00000000
00000100
00000000
00010000
,
00000000
00001000
00000000
00000000
,
00000000
00001000
00000000
00000000
,
00000000
01000000
00000000
00001000
,
00000000
01000000
00000000
00100000
,
00000000
01000000
00000000
10000000
,
00000000
01000000
00000000
00000000
,
00000000
00010000
00000000
10000000
,
00000000
00010000
00000000
00100000
,
00000000
01000000
00000000
01000000
,
00000000
01000000
00000000
00000000
,
00000000
10000000
01000000
10000000
,
00000000
00010000
00000000
00010000
,
00000000
01000000
00000000
01000000
,
00000000
00001000
00000000
00000000
,
00000000
00010000
00001000
00010000
,
00000000
00000100
00000000
00000100
,
00000000
00001000
00000000
00001000
,
00000000
00000001
00000000
00000000
,
00000000
00001000
00000001
00001000
,
00000000
00000010
00000000
00000010
,
00000000
00010000
00000000
00010000
,
00000000
00001000
00000000
00000000
,
00000000
00010000
00001000
00010000
,
00000000
00001000
00000000
00001000
,
00000000
00100000
00000000
00100000
,
00000000
01000000
00000000
00000000
,
00000000
10000000
00000000
00010000
,
00000000
01000000
00000000
00000000
,
00000000
00010000
00000000
10000000
,
00000000
01000000
00000000
00000000
,
00000000
00100000
00000000
00001000
,
00000000
00010000
00000000
00000000
,
00000000
00000010
00000000
00010000
,
00000000
00001000
00000000
00001000
,
00000000
00010000
00001000
00011000
;

//---------------dance-single - ITG-style----------------
#NOTES:
     dance-single:
     ITG-style:
     Edit:
     11:
     -1.000,-1.000,-1.000,-1.000,-1.000:
0000
0000
0000
0000
,
0000
0000
0000
0000
,
0000
0000
0000
0000
,
1000
0001
0001
0010
0010
0100
0100
1000
,
1000
0000
0010
0000
0100
0000
0001
0000
1000
0000
0010
0000
0100
0000
0001
0000
0010
0000
0000
0100
0000
0000
1000
0000
0000
0001
0000
0000
1000
0000
0010
0000
,
0200
0000
0000
0000
0000
0000
0000
0000
0000
0000
0000
0000
0000
0000
0000
0300
0100
0000
0000
0000
0000
0000
0000
0000
0001
0000
0000
0000
0000
0000
0000
0000
0001
0000
0000
0000
0010
0000
0000
0000
0001
0000
0000
0000
1000
0000
0000
0000
0010
0000
0000
0000
1000
0000
0000
0000
0001
0000
0000
0000
0010
0000
0000
0000
,
0000
0010
0001
0100
0010
0100
0000
0100
1000
0000
1000
0100
0000
0100
0010
0000
,
1000
0010
1000
0000
0001
0000
0010
0000
0010
0001
0010
0100
1000
0010
1000
0100
,
0000
0100
1000
0010
0100
0001
0000
0001
0010
0000
0010
0100
0000
0100
0010
0000
,
0100
0010
0001
0000
1000
0000
1000
0000
0001
1000
0001
0100
0010
0100
0001
1000
,
0000
1000
0100
0010
0001
0000
0001
0100
0001
0000
1000
0001
0000
0100
0001
0000
,
1000
0001
1000
0000
0100
0000
0100
0000
0100
1000
0100
0010
0001
1000
0010
1000
,
0000
0001
0100
0010
1000
0000
0000
1100
0000
0000
0011
0000
0000
1100
0000
0000
,
1010
0001
0011
0001
0010
0100
1000
0010
,
0100
0000
0110
0010
1000
0100
0110
0100
,
1000
0000
0001
0000
0010
0000
0010
0000
0001
0010
0001
0000
1000
0100
0010
0001
,
0000
0001
0100
0010
100M
0100
0100
M001
0100
0100
100M
0100
0100
M001
0100
0100
,
100M
0100
0010
0000
0011
0000
0001
0000
0100
0000
0010
0000
1000
0000
0001
0000
,
0100
0000
0110
0100
0001
0010
0110
0010
,
0001
0000
0100
0000
0001
0000
0001
0000
1000
0010
1000
0000
1000
0100
0010
0001
,
0000
0001
0010
0100
1000
0000
0000
0011
0000
0000
1100
0000
0000
0101
0000
0000
,
1010
0100
0110
0010
1000
1000
0001
0100
,
0001
0001
0010
0010
0100
0100
1000
0001
,
1000
0000
1100
0010
0001
0000
0101
0010
,
1000
0000
1100
1000
0010
0001
0000
0001
,
0010
0000
0000
0000
0000
0000
0000
0000
0010
0000
0000
0000
0000
0000
0000
0000
0110
0000
0000
0000
0000
0000
0000
0000
0010
0000
0000
0000
0000
0000
0000
0000
0100
0000
0000
0000
0000
0000
0000
0000
0200
0000
0000
0000
0000
0000
0000
0000
0000
0000
0000
0000
0000
0000
0000
0300
0120
0000
0000
0000
0000
0000
0000
0000
,
0000
0000
0000
0000
0000
0000
0000
0030
2010
0000
0000
0000
0000
0000
0000
0000
0000
0000
0000
0000
0000
0000
0000
3000
1000
0000
0000
0000
0000
0000
0000
0000
0100
0000
0000
0000
0000
0000
0000
0000
0100
0000
0000
0000
0000
0000
0000
0000
0010
0000
0000
0000
0000
0000
0000
0000
0010
0000
0000
0000
0000
0000
0000
0000
,
0001
1001
M00M
0202
,
0000
1010
0303
0101
0100
0101
0010
1001
,
0000
0000
2200
0000
0010
3300
1101
0000
,
0000
0000
0001
0100
0010
1000
1100
0010
,
0011
0000
0000
0001
0010
0001
0101
0010
,
1000
0021
0000
0031
0010
0100
1000
0100
,
0010
0000
0202
0000
0010
0303
1101
0000
,
0000
0000
0000
1000
0100
0010
0011
1000
,
1100
0000
0000
0001
0100
0010
1000
0001
,
0100
0110
0000
0010
1000
0100
0010
0010
,
0001
0000
0000
0000
1000
0000
0000
0000
0001
0000
0000
0000
1000
0000
0000
0000
0001
0000
0000
0000
0000
0000
0000
0000
0000
0000
0000
0000
0000
0000
0000
0000
0202
0000
0000
0000
0000
0000
0000
0000
0000
0000
0000
0000
0000
0000
0000
0303
1101
0000
0000
0000
0000
0000
0000
0000
0000
0000
0000
0000
0000
0000
0000
0000
,
0000
0000
0000
0000
0001
0000
1000
0001
1000
0000
0100
1000
0100
0000
0010
0000
,
0011
0000
0000
0000
0100
0000
0001
1000
0001
0000
0100
0001
0100
0000
0010
0000
,
1000
1010
0000
0001
0001
0010
0110
1000
,
1001
0000
0000
0000
0000
0000
0000
0000
0000
0000
0000
0000
0000
0000
0000
0000
1000
0000
0000
0000
0000
0000
0000
0000
0000
0000
0000
0000
0000
0000
0000
0000
2200
0000
0000
0000
0000
0000
0000
0000
0000
0000
0000
0000
0000
0000
0000
3300
1101
0000
0000
0000
0000
0000
0000
0000
0001
0000
0000
0000
0000
0000
0000
0000
,
0000
0000
0000
0000
1000
0000
0100
1000
0100
0000
1000
0001
1000
0000
0001
0100
,
0001
0000
0010
0100
1000
0000
0001
0100
0001
0000
1000
0010
0100
0000
1000
0100
,
0010
1001
0000
0011
0011
0100
1100
0000
,
0101
0000
0000
0000
1001
0000
0001
0000
1000
0100
1000
0001
0100
0001
1000
0100
,
0000
0100
0010
0001
1000
0100
0100
M001
0100
0100
100M
0100
0100
M001
0100
0100
,
1000
0100
1000
0000
0001
0000
0001
0000
0010
0001
0010
0000
0100
1000
0001
0010
,
0000
0010
0001
1000
0001
0100
0100
100M
0100
0100
M001
0100
0100
100M
0100
0100
,
0001
1000
0001
0000
1000
0000
0010
0000
0010
1000
0010
0000
0100
0001
0010
0100
,
0000
0100
0010
0001
1000
0010
0010
M001
0010
0010
100M
0010
0010
M001
0010
0010
,
1000
0010
1000
0000
0100
0000
0010
0000
0010
0001
0100
0000
0100
0001
1000
0010
,
0000
0010
1000
0100
0010
0001
1000
0010
1000
0100
1000
0001
0100
0001
0010
0001
,
1000
0010
1000
0100
0010
0000
0000
0000
0110
0000
0000
0000
1100
0000
0022
0000
,
0033
0000
0000
0000
;
