#TITLE:NESmas;
#SUBTITLE:;
#ARTIST:Matt Wilson;
#TITLETRANSLIT:;
#SUBTITLETRANSLIT:;
#ARTISTTRANSLIT:;
#CREDIT:;
#BANNER:;
#BACKGROUND:;
#LYRICSPATH:;
#CDTITLE:;
#MUSIC:nesmas.ogg;
#OFFSET:-0.020;
#SAMPLESTART:76.525;
#SAMPLELENGTH:17.720;
#SELECTABLE:YES;
#BPMS:0.000=160.000,228.000=106.700,268.000=213.200;
#STOPS:;
#BGCHANGES:;

//---------------dance-single - ----------------
#NOTES:
     dance-single:
     :
     Hard:
     9:
     0.686,0.831,0.306,0.567,0.364: // measure 1
0000
0000
0000
0000
0000
0000
1000
0010
,  // measure 2
0001
0000
0001
0010
1000
0000
1000
0010
,  // measure 3
1000
0010
0100
0001
0100
0000
0000
0010
,  // measure 4
1000
0000
0001
0100
0001
0100
0001
0000
,  // measure 5
2200
0000
0000
0000
3300
0000
1000
0100
,  // measure 6
0010
0000
0001
0010
0100
0000
1000
0001
,  // measure 7
1000
0100
0010
0001
0010
0000
0000
0100
,  // measure 8
1000
0000
0001
0100
0010
0100
0001
0000
,  // measure 9
0220
0000
0330
0000
0000
0000
0001
1000
,  // measure 10
0001
0000
1000
0100
1000
0000
0001
0010
,  // measure 11
0100
1000
0100
0010
0001
0000
0000
1002
,  // measure 12
0000
0000
0103
0010
1000
0010
0000
2010
,  // measure 13
0000
0000
0001
0001
3001
1000
0001
1000
,  // measure 14
0100
0001
0100
1000
0010
0001
0010
0100
,  // measure 15
0001
0100
1000
0100
0010
1000
0010
0001
,  // measure 16
0010
0100
0010
0001
0010
1000
1000
0010
,  // measure 17
0010
0100
0001
1000
0010
1000
0010
0100
,  // measure 18
0002
0000
1003
0100
2000
0000
3100
0010
,  // measure 19
0001
0010
1000
0010
0200
0000
0300
0100
,  // measure 20
2000
0000
3001
1000
0010
0100
0001
0000
,  // measure 21
0022
0000
0033
0000
0000
0000
0001
1000
,  // measure 22
0001
0000
0100
0010
0100
0000
0001
1000
,  // measure 23
0001
0100
0010
1000
0010
0000
0000
1000
,  // measure 24
0020
0000
0130
0001
1000
0001
0100
0000
,  // measure 25
0202
0000
0000
0000
0303
0000
0001
0010
,  // measure 26
0001
0000
1000
0010
1000
0000
0001
0100
,  // measure 27
1000
0100
0010
1000
0100
0000
0000
0202
,  // measure 28
0303
0000
0001
1000
0001
0100
0000
0202
,  // measure 29
0303
0000
0010
1000
0100
0010
0001
0010
,  // measure 30
0001
0010
0100
1000
0100
0010
0001
0100
,  // measure 31
0001
1000
0100
0010
0200
0000
0300
0000
,  // measure 32
0220
0000
0330
0000
2002
3003
2200
3300
,  // measure 33
1001
1000
0001
1000
0001
0010
0100
0010
,  // measure 34
0100
2000
3020
0230
,  // measure 35
0302
0023
0230
2300
,  // measure 36
3100
0010
0110
0000
2002
0000
0000
0000
,  // measure 37
0000
0000
0000
3003
0000
0000
0000
0000
0000
1000
0010
1000
,  // measure 38
0010
0000
0000
0001
0100
0001
0100
0000
0000
0010
1000
0010
,  // measure 39
1000
0000
0000
1000
0010
0100
0001
0000
0000
0001
0100
0010
,  // measure 40
1000
0000
0000
1000
0010
0100
0001
0000
0000
0001
0010
0100
,  // measure 41
1000
0000
0000
0100
0010
0001
0100
0000
0000
0010
0100
0010
,  // measure 42
1000
0010
1000
0010
0100
0001
0100
0010
1000
0010
0100
0001
,  // measure 43
0100
0010
1000
0100
0010
0100
0010
0100
1000
0010
1000
0010
,  // measure 44
1000
0001
1000
0010
1000
0010
0100
0001
0100
0001
1000
0001
,  // measure 45
0100
0001
0100
0001
1000
0010
0100
0001
0100
0010
1000
0010
,  // measure 46
2000
3200
0302
0203
,  // measure 47
2300
0000
0000
3020
0000
0000
0230
0000
0000
0301
0000
0200
,  // measure 48
0000
0000
0310
1000
0000
1000
0010
0000
0000
0000
0000
2000
,  // measure 49
0000
0000
3100
0010
0000
0010
0001
0000
0000
0000
0000
2000
,  // measure 50
0000
0000
3100
0010
0000
0010
0100
0000
0000
1000
0010
1000
,  // measure 51
0010
1000
0100
1000
0100
0010
0001
0010
0100
2000
0000
0000
,  // measure 52
3001
0000
0000
0001
1000
0001
1000
0000
0000
0100
1000
0100
,  // measure 53
1000
0000
0000
0100
0010
0100
0010
0000
0000
0001
0100
0010
,  // measure 54
0100
0000
0000
0001
0010
0100
1000
0000
0000
0010
0100
0001
,  // measure 55
1000
0000
0000
0001
0010
0100
0010
0000
0000
0001
0100
0010
,  // measure 56
1000
0000
0000
0100
0010
0100
0010
0001
0010
0100
1000
0100
,  // measure 57
1000
0010
0100
0001
0100
0001
2000
0000
0000
3020
0000
0000
,  // measure 58
0130
0000
0001
1000
0100
0010
0001
0010
,  // measure 59
0011
0001
0100
0001
0202
0303
0000
0001
,  // measure 60
0011
0100
1000
0100
0010
0100
0010
0001
,  // measure 61
0011
0001
1000
0100
1100
0000
0000
0001
,  // measure 62
1001
0100
1000
0010
0001
0100
0010
0100
,  // measure 63
1000
0010
0100
0001
0200
0000
1000
1000
,  // measure 64
1000
0000
0301
0010
0100
1000
0010
0100
,  // measure 65
0001
0000
0000
0000
0000
0001
0010
0000
0010
0100
0000
0000
1100
0000
0000
0000
0000
0000
1000
0000
0000
0010
0000
0000
,  // measure 66
0100
0001
0100
0010
2002
0000
0000
0000
,  // measure 67
0000
0000
0000
0000
0000
3003
0000
0000
,  // measure 68
2002
0000
3003
0000
2100
0000
0000
3100
,  // measure 69
0020
0000
0030
1100
,  // measure 70
2002
3003
0220
0330
,  // measure 71
2200
0000
3300
0002
,  // measure 72
1003
0010
0100
0001
0000
0001
0100
0000
,  // measure 73
0010
1000
0010
0100
0000
0000
0001
0000
,  // measure 74
1000
0010
0100
0001
0100
0010
1000
1000
,  // measure 75
0000
0001
0001
0000
0000
0000
1100
0000
,  // measure 76
0110
0011
0101
0110
,  // measure 77
1010
1001
0011
0110
,  // measure 78
0200
2300
3020
0230
,  // measure 79
0302
2003
3001
0100
,  // measure 80
0100
0000
0100
0000
0100
0000
0010
1000
,  // measure 81
0020
0000
0000
0000
0000
0000
0130
0001
,  // measure 82
0100
0000
0100
0000
0100
0000
0001
1000
,  // measure 83
0020
0000
0000
0000
0030
0000
0100
1000
,  // measure 84
0010
0100
0001
0100
0010
1000
0010
0100
,  // measure 85
0001
1000
0010
0100
0001
0100
0010
1000
,  // measure 86
1100
0000
1001
0000
,  // measure 87
2002
0000
0000
3003
;

//---------------dance-single - ----------------
#NOTES:
     dance-single:
     :
     Medium:
     7:
     0.555,0.565,0.253,0.651,0.119:
0000
0000
0000
1000
,
1100
0010
0011
1001
,
1000
0001
1000
0100
0020
0000
0000
0100
,
0130
0000
0001
0100
0001
0100
0001
0000
,
2002
0000
0000
0000
3003
0000
1000
1000
,
0010
0000
0100
0100
0001
0000
0101
0000
,
0001
0100
0010
1000
0002
0000
0000
0103
,
0010
0000
1000
0010
0100
0001
1000
0000
,
0002
0003
0000
0021
,
0031
0000
1200
0000
1300
0000
0001
0100
,
0010
0000
0010
1000
0001
0000
0000
0002
,
0000
0000
0103
0010
1000
0010
0000
2000
,
0000
0000
0001
0001
3001
1000
0001
0010
,
0001
0000
0001
1000
0001
0000
1000
0010
,
0100
0001
0100
0010
1000
0000
0000
0002
,
0000
0000
0013
0100
1000
0100
0000
0020
,
0000
0000
0031
0100
0001
0100
0010
1000
,
0002
0000
1003
0010
2000
0000
3100
0010
,
0100
0001
0010
0100
2000
0000
0000
3100
,
1000
0000
0001
1000
0010
0100
0001
0000
,
0022
0000
0033
0000
0000
0000
0001
0010
,
0001
0000
0010
0001
0010
0000
0001
0010
,
0001
1000
0010
1000
0010
0000
0000
1000
,
0001
0000
0100
0001
1000
0001
0100
0000
,
0202
0000
0000
0000
0303
0000
0001
0010
,
0001
0000
1000
0010
1000
0000
0001
0010
,
0100
1000
0100
1000
0001
0000
0000
0200
,
0300
0000
0010
1000
0010
0100
0000
0001
,
0000
0000
1000
1000
0010
0001
0100
0001
,
1000
0010
0001
0000
0001
0010
1000
0000
,
1000
0010
0001
0010
0200
0000
0300
0000
,
0002
0000
0000
0003
1001
0000
1100
0000
,
2002
0000
3003
0000
,
0000
2000
3020
0230
,
0302
0023
0230
2300
,
3100
0010
0001
0000
2002
0000
0000
0000
,
0000
3003
0000
0000
,
0000
0002
2003
3020
,
0230
0302
0203
0320
,
1030
0001
0100
0000
2002
0000
0000
0000
,
0000
0000
0000
3003
0000
0000
0000
0000
0000
0010
1000
0010
,
0100
0000
0100
0001
0000
0100
0010
0000
1000
0010
0000
0100
,
0001
0000
0100
0010
0000
0010
1000
0000
1000
0100
0000
0100
,
0010
0000
0010
0001
0000
0001
0010
0000
0100
0010
0000
0001
,
0100
0000
0001
1000
0000
0010
1000
0000
0010
0100
0000
0010
,
2000
3200
0302
0203
,
2300
0000
0000
3020
0000
0000
0230
0000
0000
0301
0000
0200
,
0000
0000
0310
1000
0000
1000
0010
0000
0000
0000
0000
2000
,
0000
0000
3100
0010
0000
0010
0001
0000
0000
0000
0000
2000
,
0000
0000
3100
0010
0000
0010
0100
0000
0000
1000
0000
1000
,
0010
0000
0010
0100
0000
0100
0001
0000
0001
2000
0000
0000
,
3002
0203
2300
3200
,
0320
2030
3200
0310
,
0110
0011
2002
0000
,
0000
3003
0011
0011
,
2002
0000
0000
0000
,
3003
0000
0000
0000
,
0100
0000
0001
1000
0100
0010
0001
0010
,
0001
0010
0100
1000
0001
0000
0000
0001
,
0010
0100
1000
0100
0010
0100
0010
0001
,
0010
0001
1000
0100
0010
0000
0000
0001
,
0001
0100
1000
0100
0010
0001
0010
0100
,
1000
0010
0100
0001
0100
0000
0010
1000
,
0010
0000
0100
0010
0001
0100
0010
0100
,
0001
0000
0100
0010
0100
0000
0001
0010
,
0100
1000
0100
0010
2002
0000
0000
0000
,
0000
0000
0000
0000
0000
3003
0000
0000
,
2002
0000
3003
0000
1100
0000
0000
0100
,
0020
0000
0030
1100
,
2002
3003
0220
0330
,
2200
0000
3300
0002
,
1003
0000
1000
0001
0000
0001
0100
0000
,
0010
0000
0000
1010
0000
0000
0001
0000
,
1000
0010
0100
0101
,
0000
1010
0000
0000
0000
0000
1000
0000
,
0100
0010
0001
0100
,
0010
1000
0010
0100
,
0002
2003
3020
0230
,
0302
2003
3001
0100
,
0100
0000
0100
0000
0100
0000
0010
1000
,
0020
0000
0000
0000
0000
0000
0130
0001
,
0100
0000
0100
0000
0100
0000
0001
1000
,
0020
0000
0030
1000
,
0010
0100
0000
0001
,
0100
0000
0010
1000
,
1100
0000
1001
0000
,
2002
0000
0000
3003
;

//---------------dance-single - ----------------
#NOTES:
     dance-single:
     :
     Easy:
     5:
     0.352,0.432,0.184,0.153,0.011:
0000
0000
0000
1000
,
1000
0100
0100
0010
,
0010
0001
0001
0000
,
1000
0010
0100
0001
,
2002
3003
0000
0001
,
0001
0010
0010
0100
,
1000
0010
0100
0000
,
0001
0100
0010
1000
,
2020
0000
0030
3000
0000
0000
0001
0000
,
1000
0100
1000
0010
,
0100
0000
0001
0000
1000
0000
0000
1001
,
0000
0000
0100
0000
1000
0000
0000
1100
,
0000
0001
0010
0100
,
0100
0010
0010
0100
,
0100
0000
0010
0000
0010
0000
0000
0011
,
0000
0000
1000
0000
0100
0000
0000
1100
,
0000
0001
0010
0100
,
1000
0010
0100
0001
,
0010
0100
1000
0000
,
2000
0001
0010
0001
,
3010
0000
0000
0001
,
0101
0001
0101
0100
,
1000
0100
1000
0000
0100
0000
0000
0000
,
0010
0000
0001
0000
1000
0010
0100
0000
,
0001
0000
0000
1000
,
0001
0010
0100
1000
,
0010
0000
0100
0000
0001
0000
0000
1001
,
0000
0000
0100
0000
0010
0000
0000
0110
,
0000
0001
0001
0010
,
0010
0100
0100
1000
,
1000
0001
0001
0000
,
1100
0000
0011
1100
,
1001
0000
0000
0000
,
1000
0100
0010
0001
,
0010
0100
1000
0010
,
0100
0010
0100
0000
0220
0000
0000
0000
,
0000
0330
0000
0000
,
0000
0001
0010
0100
,
1000
0100
0010
0001
,
0010
0001
0010
0000
0022
0000
0000
0000
,
0000
0033
0000
0000
,
1000
1000
0100
0100
,
0010
0010
0001
0001
,
0100
0010
1000
0000
1000
0000
0100
0000
,
0010
0001
0010
0100
,
1000
0100
0010
0001
,
0100
0000
0000
0001
0000
0000
1000
0000
0000
0010
0000
1000
,
0000
0000
0000
0010
0000
0000
0100
0000
0000
0000
0000
0001
,
0000
0000
0000
1000
0000
0000
0001
0000
0000
0000
0000
0010
,
0000
0100
1000
0000
,
0001
1000
0100
0010
,
0000
0010
0010
0100
,
0100
1000
1000
0001
,
1000
0001
1000
0000
2002
0000
0000
0000
,
0000
0000
3003
0000
1000
0100
1000
0000
,
2200
0000
0000
0000
,
0000
0000
3300
0000
,
0100
0000
0010
0000
0001
0100
0001
0000
,
1000
0010
2020
3030
,
1000
0000
0100
0000
0010
0001
0100
0000
,
0010
1000
2020
3030
,
0001
0010
0100
0000
1000
0001
0010
0000
,
0100
1000
0100
0010
0001
0000
1000
0010
,
0100
0000
0001
0100
0010
0000
1000
0000
,
0001
0000
1000
0001
1001
0000
0100
1000
,
0100
1000
0200
0000
,
0000
0000
0000
0300
,
1000
0000
0010
0000
,
0100
0000
0000
0001
,
0100
0000
0010
0000
,
1000
0000
0000
0001
,
0100
0000
0000
1000
,
0010
0000
0000
0001
,
0100
0000
0000
0000
,
0000
0000
0000
1000
,
0010
1000
0010
0100
,
0001
1000
0001
0010
,
0001
0010
0001
0010
,
0100
0010
0100
1000
,
0010
0100
0001
0010
,
0100
0000
0000
1000
,
0010
0100
0001
0010
,
0100
0000
0000
1000
,
0010
1000
0000
0010
,
0010
0000
1000
0001
,
1001
0000
1001
0000
,
2002
0000
0000
3003
;

//---------------dance-single - ----------------
#NOTES:
     dance-single:
     :
     Beginner:
     3:
     0.186,0.332,0.038,0.023,0.000:
0000
0000
0000
0000
,
0001
0000
1000
0000
,
0001
0001
0001
0000
,
0100
0000
0010
0010
,
0010
0000
0000
0000
,
1000
0000
0001
0000
,
0100
0100
0100
0000
,
0010
0000
1000
1000
,
1000
0000
0000
0000
,
0001
0000
1000
0000
,
0010
0000
0100
0000
,
0000
0000
0001
0000
,
0000
0000
0010
0000
,
0100
0000
1000
0000
,
0001
0001
0001
0000
,
0000
0000
0000
0000
,
0000
1000
0000
0000
,
0001
0000
0000
0000
,
1000
1000
1000
0000
,
0100
0000
0010
0010
,
0010
0000
0000
0000
,
0001
0000
0000
0000
,
1000
1000
1000
0000
,
0010
0000
0100
0100
,
0100
0000
0000
0000
,
0001
0000
1000
0000
,
0010
0010
0010
0000
,
0000
0000
0100
0000
,
0000
0000
0001
0001
,
0001
0000
1000
0000
,
0001
0000
1000
0000
,
1001
0000
0110
0110
,
0110
0000
0000
0000
,
0000
0001
0001
0000
,
1000
0000
0001
0000
,
0010
0010
0010
0000
,
0000
0000
0000
0000
,
0000
0100
0100
0100
,
0100
0100
0100
0100
,
0100
0100
0100
0000
,
0000
0000
0000
0000
,
0000
0001
0001
0000
,
1000
0000
0001
0000
,
1000
1000
1000
0000
,
0000
0000
0000
0000
,
0000
0001
0001
0000
,
0100
0000
0010
0000
,
0000
0000
0100
0000
,
0000
0000
0100
0000
,
0000
0000
0001
0000
,
0000
0000
0000
0000
,
0000
1000
1000
1000
,
1000
1000
1000
1000
,
1000
1000
1000
0000
,
0000
0000
0001
0001
,
0001
0000
0000
0000
,
0000
0000
0000
0000
,
1000
0000
0001
0000
,
0010
0000
0100
0000
,
1000
0000
0001
0000
,
1000
0000
0001
0000
,
1000
1000
1000
0000
,
0100
0100
0100
0000
,
0010
0000
0010
0000
,
0001
0001
0001
0000
,
2000
0000
0000
0000
,
0000
0000
3000
0000
,
0001
0000
1000
0000
,
0010
0000
0000
0100
,
0100
0000
0001
0000
,
1000
0000
0000
0001
,
0001
0000
0000
1000
,
1000
0000
0000
0100
,
0100
0000
0000
0000
,
0000
0000
0000
0010
,
0010
0000
0010
0000
,
0010
0010
0010
0000
,
0001
0000
0001
0000
,
0001
0001
0001
0000
,
1000
0000
1000
0000
,
1000
0000
0000
0000
,
0010
0000
0100
0000
,
0010
0000
0000
0000
,
1000
0000
0000
0001
,
0000
0000
1000
0000
,
0010
0000
0100
0000
,
2002
0000
0000
3003
;
