#TITLE:Memory of Snow;
#SUBTITLE:(UK HARDCORE ReMIX);
#ARTIST:nmk;
#TITLETRANSLIT:;
#SUBTITLETRANSLIT:;
#ARTISTTRANSLIT:Tsukasa;
#GENRE:;
#CREDIT:Frozen_Heat/Azn_Punk_07/GuardianFrozen;
#MENUCOLOR:#0a9cd2;
#BANNER:Memory of Snow (UK HARDCORE ReMIX)-bn.png;
#BACKGROUND:Memory of Snow (UK HARDCORE ReMIX)-bg.png;
#LYRICSPATH:;
#CDTITLE:!cdtitle.png;
#MUSIC:Memory of Snow (UK HARDCORE ReMIX).mp3;
#OFFSET:-1.911;
#SAMPLESTART:39.320;
#SAMPLELENGTH:15.000;
#SELECTABLE:YES;
#LISTSORT:;
#BPMS:0.000=173.000;
#STOPS:;
#TICKCOUNT:0.000=2;
#BGCHANGES:;
#KEYSOUNDS:;
#ATTACKS:;

//---------------dance-single - ----------------
#NOTES:
     dance-single:
     :
     Hard:
     8:
     0.579,0.573,0.275,0.095,0.066: // measure 1
0000
0000
0000
0000
,  // measure 2
1000
0100
0000
0100
1000
0010
0000
0010
,  // measure 3
0100
0000
0001
0000
0000
0000
0001
0000
0010
0000
0000
1000
0000
0000
0010
0000
,  // measure 4
0001
0100
0000
0100
0010
1000
0000
1000
,  // measure 5
0100
0000
0001
0000
0000
0000
0001
0000
0100
0000
0000
0010
0000
0000
0001
0000
,  // measure 6
1000
0010
0000
0010
0001
0100
0000
0100
,  // measure 7
0001
0000
1000
0000
0000
0000
1000
0000
0100
0000
0000
0001
0000
0000
0010
0000
,  // measure 8
1000
0100
0000
0100
1000
0001
0000
0001
,  // measure 9
0100
0010
0000
0010
0100
1000
0001
1000
,  // measure 10
0002
0000
0000
2000
0003
3001
0010
2000
,  // measure 11
0000
0002
3000
1003
0010
0002
2000
3003
,  // measure 12
1001
0000
0000
0000
0101
0000
0000
0000
0010
0000
0000
0010
0000
0000
1000
0000
,  // measure 13
0100
0010
0100
0000
1000
0010
0001
0000
,  // measure 14
0010
0000
0100
0001
0100
0000
0010
1000
,  // measure 15
0001
0101
1000
1100
,  // measure 16
0010
0001
0010
0001
0100
0000
0010
1000
,  // measure 17
0001
0011
0100
1100
,  // measure 18
2002
0000
0000
3003
,  // measure 19
0010
0000
0100
0000
0010
0000
0100
0000
0001
1000
0001
0000
0000
0000
0000
0000
,  // measure 20
1100
0000
1001
0000
1010
0000
0001
0100
,  // measure 21
0000
0001
0010
0100
0000
1000
0001
1000
,  // measure 22
0100
0000
1100
0000
0011
0000
1000
0001
,  // measure 23
0000
0101
0000
1010
0000
1001
0000
0100
,  // measure 24
0010
0001
1000
0010
0000
1000
0100
1000
,  // measure 25
0100
0011
0100
1010
,  // measure 26
1001
0001
1000
0001
1000
0001
1000
0001
,  // measure 27
0010
0100
0010
0100
1000
0010
0100
0001
,  // measure 28
0010
0000
0001
0000
0000
0100
0000
0000
1000
0000
0000
0100
0000
0000
0010
0000
,  // measure 29
1000
0000
0000
0100
0000
0000
0010
0000
0001
0000
0000
0000
0100
0000
0001
0000
,  // measure 30
1000
0000
1000
0100
0001
0000
0100
0000
,  // measure 31
1000
0001
0100
1000
0100
0000
0010
1000
,  // measure 32
0100
0000
0000
0100
0000
0000
0100
0000
1000
0000
0000
0000
1010
0000
0000
0000
,  // measure 33
0100
0000
0000
0100
0000
0000
0100
0000
0001
0000
0000
0000
0011
0000
0000
0000
,  // measure 34
1000
0000
0001
0000
0100
0000
0010
1000
,  // measure 35
0100
0000
0010
0000
0001
0100
1000
0100
,  // measure 36
0020
1000
0000
0100
,  // measure 37
0000
0001
0000
0130
,  // measure 38
1001
0000
0110
0000
1000
0100
0010
0000
,  // measure 39
0100
0010
0001
0000
0001
0010
0100
0000
,  // measure 40
1001
0000
0110
0000
0001
0100
0010
0000
,  // measure 41
0100
0010
1000
0000
1000
0010
0100
0000
,  // measure 42
1001
0000
0110
0000
0001
0010
0100
0000
,  // measure 43
1000
0010
0100
0000
0010
1000
0001
0000
,  // measure 44
1001
0000
0110
0000
0001
0100
1000
0000
,  // measure 45
0010
1000
0100
0010
0001
1000
0001
0100
,  // measure 46
0001
0000
0010
0100
1000
0000
0010
0000
,  // measure 47
0001
0000
0000
0010
0000
0000
1000
0000
0001
0000
0000
0000
1000
0000
0100
0000
,  // measure 48
1000
0000
0010
0100
0001
0000
0010
0000
,  // measure 49
1000
0000
0000
0010
0000
0000
0001
0000
1000
0000
0000
0000
0010
0000
0100
0000
,  // measure 50
0001
0000
0000
0000
1000
0000
0000
0000
0001
0000
0000
0100
0000
0000
1000
0000
,  // measure 51
0100
0000
0000
0010
0000
0000
0100
0000
0001
0000
0000
0000
0010
0000
0100
0000
,  // measure 52
1000
0010
0001
0010
,  // measure 53
1000
0100
1000
0100
0010
0001
0010
0001
,  // measure 54
0100
0000
0010
1000
0000
0010
1000
0000
,  // measure 55
0100
0000
0010
0001
0100
0001
0010
0000
,  // measure 56
0100
0000
0010
0001
0000
0100
0001
0000
,  // measure 57
0010
0000
0100
1000
0010
1000
0100
0000
,  // measure 58
1000
0000
0010
0001
0000
0010
0100
0001
,  // measure 59
0000
0001
1000
0000
1000
0100
0010
0000
,  // measure 60
0001
0000
0100
0001
0000
0001
0010
0100
,  // measure 61
1000
0001
1000
0001
0010
0100
0000
0000
,  // measure 62
0110
0000
0001
0010
0000
1000
0010
0001
,  // measure 63
0000
1000
0000
0001
0100
1000
0000
0100
,  // measure 64
0010
0000
1000
0100
0000
0001
0100
1000
,  // measure 65
0000
0010
0000
0001
0010
1000
0001
0100
,  // measure 66
1000
0100
0010
0100
1000
0100
0010
0100
,  // measure 67
1000
0100
0001
0100
1000
0100
0001
0100
,  // measure 68
0010
1000
0100
0010
0001
0100
0010
1000
,  // measure 69
0001
0010
1000
0010
0001
0100
1000
0100
,  // measure 70
0002
0000
0000
0000
,  // measure 71
0000
0000
0000
0000
,  // measure 72
0003
0000
0000
0000
;

//---------------dance-single - ----------------
#NOTES:
     dance-single:
     :
     Challenge:
     10:
     0.826,0.944,0.171,0.057,0.727: // measure 1
0000
0000
0000
0000
,  // measure 2
0010
0000
0010
0000
0000
0010
0100
0000
0001
0000
0001
0000
0000
0001
1000
0000
,  // measure 3
0100
0000
0100
0000
0000
0100
0010
0000
0001
0000
0000
1000
0000
0000
0001
0000
,  // measure 4
0100
0000
0100
0000
0000
0100
0010
0000
1000
0000
1000
0000
0000
1000
0001
0000
,  // measure 5
0010
0000
0010
0000
0000
0010
0100
0000
1000
0000
0000
0001
0000
0000
1000
0000
,  // measure 6
0010
0000
0010
0000
0000
0010
0100
0000
1000
0000
1000
0000
0000
1000
0001
0000
,  // measure 7
0010
0000
0010
0000
0000
0010
0100
0000
0001
0000
0000
0010
0000
0000
1000
0000
,  // measure 8
0010
0010
0001
0001
1000
1000
0010
0010
,  // measure 9
0100
0010
0100
0010
0100
0010
0100
0010
1000
0001
1000
0001
1000
0001
1000
0001
,  // measure 10
2000
0000
0000
3200
0000
0301
0010
2000
,  // measure 11
0000
3020
0000
0031
0100
0010
1001
0000
,  // measure 12
0010
0000
0001
0000
0100
0000
0010
0000
1000
0100
0000
0100
0000
0000
0010
0000
,  // measure 13
0001
0100
0000
0100
0000
0000
0001
1000
0000
0001
1000
0000
0100
0000
0010
0000
,  // measure 14
0001
0000
0100
0000
1000
0000
0100
0000
0010
0100
0000
0010
0000
0000
1000
0000
,  // measure 15
0001
0000
0000
0001
0010
0000
0000
0010
0100
0000
0000
0100
1000
0000
0000
1000
,  // measure 16
0100
0000
0001
0000
0100
0010
0000
0010
0000
0000
0001
0000
1000
0000
0001
0000
,  // measure 17
1000
0000
0000
1000
0010
0000
0000
0010
0001
0000
0000
0001
0010
0000
0000
0010
,  // measure 18
0200
0001
0010
0001
,  // measure 19
0310
0000
1000
0000
0010
0000
1000
0000
0001
1000
0001
0000
0000
0000
0000
0000
,  // measure 20
0010
0000
0100
0000
1000
0000
0010
0000
0101
0000
0000
1001
0000
0000
0101
0000
,  // measure 21
0010
0000
1000
0100
0000
0000
1000
0100
0010
0000
0001
0000
0100
0000
0001
0000
,  // measure 22
0000
0000
0001
0000
1000
0000
0001
0000
0010
0000
0100
0010
0000
0100
0010
0000
,  // measure 23
0100
0000
0000
0100
1000
0000
0000
1000
0010
0000
0000
0010
0001
0000
0000
0001
,  // measure 24
0010
0000
0100
0000
0001
0000
1000
0100
0000
1000
0100
0000
0010
0000
0001
0100
,  // measure 25
0001
0000
0000
0001
0010
0000
0000
0010
0100
0000
0000
0100
1000
0000
0000
1000
,  // measure 26
0010
0001
1000
0100
0001
1000
0010
0001
,  // measure 27
0010
1000
0010
1000
0100
1000
0100
1000
0100
0010
0100
0010
0001
0100
0001
0100
,  // measure 28
0010
0000
1010
0000
0000
1001
0000
0000
0011
0000
0000
1001
0000
0000
0110
0000
,  // measure 29
0001
0000
1000
0100
0000
0100
1000
0000
0001
0000
0100
0000
1000
0000
0100
0010
,  // measure 30
0100
0000
0010
0000
1000
0000
0001
0010
0001
0000
0100
0001
0000
0001
0010
0000
,  // measure 31
0100
0000
1000
0000
0001
0100
0001
0100
0010
0000
1000
0000
0100
0000
0010
0100
,  // measure 32
1000
0000
0100
0010
0000
0100
0010
0000
0001
0000
1000
0000
0010
0000
0001
0000
,  // measure 33
0110
0000
0000
1010
0000
0000
0101
0000
0011
0000
0100
0000
1000
0000
0100
0000
,  // measure 34
0010
0000
0001
0000
0100
0000
0001
0000
0010
0000
0001
0000
0100
0000
0001
0010
,  // measure 35
0100
0000
0000
0100
1000
0000
0000
1000
0010
0000
0000
0010
0001
0000
0000
0001
,  // measure 36
0100
1000
0100
1000
0000
0010
1000
0010
,  // measure 37
0000
0000
0001
0000
0010
0000
0001
0000
0000
0000
0000
0000
0010
0100
0010
0100
,  // measure 38
0010
0000
0000
1000
0100
0000
0000
0100
0010
0000
0000
0001
0000
0000
0100
0000
,  // measure 39
0010
0000
0000
1000
0000
0000
0001
0000
0010
0000
1000
0000
0010
0001
0010
0001
,  // measure 40
0010
0000
0000
0100
1000
0000
0000
1000
0010
0000
0000
0000
0011
0000
0000
0000
,  // measure 41
1010
0000
0000
0001
0000
0000
1000
0000
0100
0000
0000
0000
1000
0010
1000
0010
,  // measure 42
1000
0000
0000
0100
0010
0000
0000
0010
0001
0000
0000
0100
0000
0000
1000
0000
,  // measure 43
0100
0000
0000
0010
0000
0000
1000
0000
0001
0000
0010
0000
0001
1000
0001
1000
,  // measure 44
0001
0000
0000
0001
0100
0000
0000
0100
0010
0000
0000
0000
1010
0000
0000
0000
,  // measure 45
0101
0000
0010
0000
0100
0000
0010
0000
1000
0001
1000
0000
0000
0000
0001
1000
,  // measure 46
0001
0000
0010
0100
1000
0000
0010
0000
0100
0000
0100
0001
0000
0001
0010
0000
,  // measure 47
0100
0000
0100
1000
0000
1000
0010
0000
0010
0000
0001
0000
1000
0100
1000
0100
,  // measure 48
0010
0000
0010
1000
0000
1000
0001
0000
0010
0000
0001
0100
0000
0100
0001
0000
,  // measure 49
0010
0000
0100
0001
0000
0001
0100
0000
1000
0000
0010
0000
0001
0010
0001
0010
,  // measure 50
0001
0000
0010
0100
0000
0100
0001
0000
1000
0000
0100
0010
0000
0010
0100
0000
,  // measure 51
1000
0000
0010
1000
0000
1000
0010
0000
0100
0000
0001
0000
0010
0100
0010
0100
,  // measure 52
0010
0001
1000
0010
0100
0001
0010
1000
,  // measure 53
0010
0100
0010
0100
0010
0100
0010
0100
1000
0001
1000
0001
1000
0001
1000
0001
,  // measure 54
0100
0000
0100
0010
1000
0010
0100
0001
,  // measure 55
0010
1000
0010
0100
1000
0001
0100
0000
,  // measure 56
0010
0000
1000
0010
0001
0010
0100
0001
,  // measure 57
0010
0100
1000
0010
1000
0001
0100
0000
,  // measure 58
0001
0000
0010
1000
0001
0100
1000
0001
,  // measure 59
0100
1000
0010
1000
0001
0010
0100
0000
,  // measure 60
1000
0000
0001
0100
0001
0010
1000
0010
,  // measure 61
0100
0000
1000
0000
0001
0000
0100
0000
0010
1000
0100
0000
0000
0000
0000
0000
,  // measure 62
0011
0000
0001
0100
0000
0100
1000
0100
,  // measure 63
0000
0010
0000
1000
0100
0001
1000
0010
,  // measure 64
0001
0000
0001
1000
0000
1000
0010
0001
,  // measure 65
0000
0010
0000
1000
0001
0010
0100
1000
,  // measure 66
0001
0001
0100
0100
0010
0010
1000
1000
,  // measure 67
0100
0100
0010
0010
0001
0001
1000
1000
,  // measure 68
0010
1000
0010
1000
0001
0100
0001
0100
0001
0010
0001
0010
0100
1000
0100
1000
,  // measure 69
0001
1000
0001
1000
0100
0010
0100
0010
0001
0100
0010
1000
0001
0010
0100
1000
,  // measure 70
0002
0000
1000
0100
0000
0100
0010
0100
,  // measure 71
0000
1000
0000
0100
0010
0100
1000
0100
,  // measure 72
0003
0000
0000
0000
;

//---------------dance-single - ----------------
#NOTES:
     dance-single:
     :
     Medium:
     6:
     0.418,0.405,0.209,0.133,0.000:
0000
0000
0000
0000
,
0100
0000
0000
1000
0100
0000
0000
0001
,
0100
0000
0000
0010
0100
0010
0000
0001
,
0010
0000
0000
1000
0010
0000
0000
0100
,
0010
0000
0000
1000
0010
1000
0000
0000
,
0001
0000
0000
0010
0001
0000
0000
0100
,
0001
0000
0000
1000
0001
1000
0000
0010
,
1000
0000
0000
0100
1000
0000
0000
0001
,
1000
0000
0000
0010
1000
0010
0100
0010
,
0001
0000
0000
0000
,
0000
0000
0000
0000
,
1000
1000
0000
0100
,
0000
0000
0010
0000
0001
1000
0001
0000
,
0100
0100
0000
0010
,
2000
3200
0320
0032
,
0003
0001
0100
0001
,
0010
0100
1000
0010
,
0200
1000
0010
1000
,
0302
0010
1000
0013
,
0100
0000
0100
0000
1100
0000
0010
0001
,
0000
0001
0000
0101
0000
0100
0000
0010
,
1000
0000
1000
0000
1001
0000
0010
0100
,
0000
0100
0000
0110
0000
1000
0000
1000
,
0001
0000
0001
0000
0101
0000
0010
0100
,
0000
0100
0000
1100
0000
1000
0000
1000
,
0001
0001
0011
0100
,
1000
0001
1000
0001
1000
0001
1000
0000
,
0000
1001
0010
0100
,
0001
1000
0200
0300
,
0020
0030
0100
1000
,
0001
0000
0100
0010
0100
0000
0000
0000
,
0001
0000
0001
0100
0001
0000
0001
0010
,
0001
1000
1010
0000
,
0020
0000
0000
0000
,
0130
0000
0001
0000
1000
0001
1000
0001
,
0000
0000
0000
0000
,
0000
0000
0000
0000
,
0010
0010
1001
1001
,
0010
0100
0010
1000
,
0001
0100
1001
1001
,
0010
0001
1000
0010
,
0100
0010
1001
1001
,
0010
1000
0100
0001
,
0010
0100
1001
1001
,
0100
0010
0100
0000
,
0001
0000
0000
0001
0010
0000
0001
0000
,
0100
1100
0110
0001
,
1000
0000
0000
1000
0100
0000
0010
0000
,
0011
0110
1000
0010
,
0001
0000
0000
0010
0100
0000
0001
0000
,
1000
0100
1000
0000
0010
0000
0100
0001
,
0100
0000
0000
0001
1000
0000
0100
0000
,
0010
0100
0010
0100
0020
0000
0000
0000
,
0031
0100
1000
0100
,
0001
0010
0100
1000
,
0001
1000
0010
0001
,
0010
0100
0001
0001
,
1000
0100
0001
0100
,
1000
0010
0100
0001
,
1000
0001
0010
1000
,
0010
0100
1000
1000
,
0020
0000
0000
0130
0000
0100
0010
0100
,
0000
0100
0000
0100
0010
0000
0100
0000
,
0002
0000
0000
1003
0000
1000
0001
1000
,
0000
1000
0000
1000
0001
0000
1000
0000
,
0100
0100
0100
0000
0010
0000
0001
0000
,
0100
0100
0100
0000
0010
0000
1000
0000
,
0001
0001
0001
0000
1000
1000
1000
0000
,
0010
0010
0010
0000
0100
0100
0100
0000
,
2002
0000
0000
0000
,
0000
0000
0000
0000
,
3003
0000
0000
0000
;

//---------------dance-single - ----------------
#NOTES:
     dance-single:
     :
     Beginner:
     1:
     0.104,0.164,0.066,0.114,0.000:
0000
0000
0000
0000
,
0000
0000
0000
0000
,
0000
0000
0000
0000
,
0000
0000
0000
0000
,
0000
0000
0000
0000
,
0010
0000
0000
0000
,
0100
0000
0000
0000
,
0010
0000
0100
0000
,
0010
0000
0100
0000
,
0110
0000
0000
0000
,
0000
0000
0000
0000
,
1001
0000
0000
0000
,
0000
0000
0000
0000
,
0100
0000
0000
0000
,
0010
0010
0010
0000
,
0000
0000
0000
0000
,
0001
0000
0000
0000
,
1000
0000
0000
0000
,
2002
0000
3003
0000
,
0010
0000
0000
0000
,
0000
0000
0000
0000
,
0100
0000
0000
0000
,
0100
0100
0100
0000
,
0000
0000
0000
0000
,
1000
0000
0000
0000
,
0001
0000
0000
0000
,
2002
0000
3003
0000
,
0000
0000
1000
0000
,
0000
0000
0001
0000
,
0000
0000
0010
0000
,
0000
0000
0100
0000
,
0000
0000
1000
0000
,
0000
0000
0001
0000
,
0000
0000
0100
0000
,
0000
0000
0010
0010
,
0010
0000
0000
0000
,
0000
0000
0000
0000
,
2000
0000
0000
0000
,
3000
0000
0000
0000
,
0002
0000
0000
0000
,
0003
0000
0000
0000
,
2000
0000
0000
0000
,
3000
0000
0000
0000
,
0002
0000
0000
0000
,
0003
0000
0000
0000
,
0020
0000
0000
0000
,
0030
0000
0000
0000
,
0200
0000
0000
0000
,
0300
0000
0000
0000
,
0020
0000
0000
0000
,
0030
0000
0000
0000
,
0200
0000
0000
0000
,
0300
0000
0000
0000
,
0001
0000
0000
0000
,
1000
0000
0000
0000
,
0010
0000
0000
0000
,
0100
0000
0000
0000
,
0001
0000
0000
0000
,
1000
0000
0000
0000
,
0100
0000
0000
0000
,
0010
0000
0000
0000
,
1001
0000
0000
0000
,
0000
0000
0000
0000
,
0110
0000
0000
0000
,
0000
0000
0000
0000
,
0001
0001
0001
0000
,
0000
0000
0000
0000
,
1000
1000
1000
0000
,
0000
0000
0000
0000
,
1001
0000
0000
0000
;

//---------------dance-single - ----------------
#NOTES:
     dance-single:
     :
     Easy:
     4:
     0.301,0.328,0.114,0.199,0.000:
0000
0000
0000
0000
,
0001
0000
0000
0000
,
1000
0000
0000
0000
,
0100
0000
0000
0000
,
0010
0000
0000
0000
,
0001
0000
0000
0000
,
0100
0000
0000
0000
,
0010
0000
0000
0000
,
1000
0000
0001
1000
,
2002
0000
0000
0000
,
0000
0000
3003
0000
,
1000
0100
0001
0100
,
1000
0100
0010
0100
,
1000
0100
0001
0100
,
1000
1000
0010
1010
,
0001
0100
1000
0100
,
0001
0100
0010
0100
,
0001
0100
1000
0100
,
0001
0001
0010
0011
,
0000
0100
1000
0001
,
1000
0010
0100
0100
,
0000
0001
1000
0100
,
1000
1010
0001
0011
,
0000
1000
0001
1000
,
0100
0100
0010
0010
,
0002
0000
0100
0103
,
2000
0000
0100
3100
,
0000
0010
0001
0010
,
0001
0100
0010
0000
,
1000
0100
0001
0000
,
0001
0100
1000
0000
,
0001
0100
0010
0100
,
0001
0010
1000
0000
,
0010
0010
0100
0100
,
1001
0010
1001
0200
,
0000
0000
0000
0000
,
0000
0000
0000
0300
,
0010
0010
0100
0100
,
0001
1000
1001
0000
,
0100
0100
0010
0010
,
1000
0001
1001
0000
,
0010
1000
0001
0010
,
0100
0010
1001
0000
,
0100
0010
0100
0010
,
1001
0000
0000
0000
,
0002
0000
0103
1000
,
0200
0000
0320
0000
,
2030
0000
3100
0001
,
0200
0000
0320
0000
,
0032
0000
0013
1000
,
0020
0000
0230
0000
,
2300
0000
3010
0001
,
0020
0000
0230
0000
,
0301
0000
0010
0000
,
0100
0000
1000
0001
,
1000
0000
0010
0000
,
0100
0000
0001
1000
,
0001
0000
0010
0000
,
0100
0000
1000
0010
,
1000
0000
0001
0100
,
0001
0000
0010
0100
,
2000
0000
3100
0000
,
0002
0000
0103
0000
,
2000
0000
3010
0000
,
0002
0000
0013
0000
,
1000
0001
1000
0001
,
0010
0100
0010
0100
,
1000
0001
0100
0010
,
1000
0100
0010
0001
,
1001
0000
0000
0000
;

//---------------dance-double - ----------------
#NOTES:
     dance-double:
     :
     Challenge:
     9:
     0.540,0.573,0.095,0.076,0.123:
00000000
00000000
00000000
00000000
,
00010000
00000000
00000000
00001000
01000000
00000000
00000000
00010000
,
00000100
00000000
00000000
00001000
00010000
00000000
00000000
00010000
,
00000010
00000000
00000000
00001000
00100000
00000000
00000000
00010000
,
00000010
00000000
00000000
00001000
00010000
00000000
00000000
00001000
,
01000000
00001000
00000000
00010000
00000100
00010000
00000000
00001000
,
01000000
00001000
00000000
00010000
00001000
00010000
00000000
00001000
,
00100000
00001000
00000000
00010000
00000010
00010000
00000000
00001000
,
00100000
00001000
00000000
00010000
00001000
00010000
00001000
00010000
,
00002000
00000000
00000000
00000000
,
00000000
00000000
00000000
00013000
00100000
10000000
00100000
00000000
,
01000000
01000000
00010000
00010000
,
00100000
00001000
00100000
00000000
00000010
00010000
00000010
00010000
,
00000100
00000000
00000100
00000000
00000010
00000001
00000010
00000000
,
00000001
00000000
00000000
00000001
00000100
00000000
00000000
00000100
00001000
00000000
00000000
00001000
00010000
00000000
00000000
00010000
,
00001000
00000000
00100000
10000000
00100000
00000000
00001000
00010000
,
00002000
00000100
00023000
00001000
,
00030100
00000010
00000001
00000000
00000100
00000000
00001000
00000000
,
00010000
00100000
10000000
00000000
01000000
00100000
00000000
00000000
,
00010000
01000000
00010000
00000000
10000000
00000000
01000000
00100000
,
00000000
00001000
00000000
01000000
00000000
00100000
10000000
00010000
,
00100000
00000000
00001000
00000000
00010000
00000000
00000010
00000100
,
00000000
00001000
00000000
00000100
00000000
00000001
00000010
00000100
,
00010000
00000000
00000010
00000000
00001000
00000000
00000100
00000010
,
00000000
00000100
00000000
00010000
00000000
00001000
01000000
00100000
,
01000000
00010000
10000000
00010000
00100000
01000000
10000000
00000000
,
10000000
00100000
00010000
00001000
00000100
00000001
00000010
00000000
,
00000100
00000000
00010000
00000000
00000000
00001000
00000000
00000000
00010000
00000000
00000000
00100000
00000000
00000000
00001000
00000000
,
00000100
00000000
00000000
00000010
00000000
00000000
00000100
00000000
00001000
00000000
00000001
00000000
00000100
00000000
00000000
00001000
,
00010000
00000000
00000000
00000000
00001000
00000000
00000000
00000000
01000000
00000000
00000000
00100000
00000000
00000000
10000000
00000000
,
01000000
00000000
00100000
00000000
00010000
00000000
01000000
00001000
00000000
00000000
00000000
00000000
00100000
00000000
00001000
00000000
,
00010000
00000000
00000000
00000010
00000000
00000000
00000001
00000000
00000010
00000000
00001000
00000000
00001000
00000000
00000100
00000000
,
00000010
00000000
00000000
00000100
00000000
00000000
00010000
00000000
00001000
00000000
00000000
00000000
01000000
00000000
00010000
00000000
,
01000000
00000000
00100000
00000000
10000000
00000000
10000000
01000000
,
00100000
00000000
00000000
00100000
00001000
00000000
00000000
00001000
00010000
00000000
00001000
00000000
00000100
00000000
00001000
00000000
,
00020000
00000100
00000000
00030200
,
00000000
00000000
00010000
00000000
00000000
00000000
00010300
00001000
,
00000100
00000101
00000001
00000011
,
00000010
00000000
00000000
00001000
00000000
00000000
00010000
00000000
01000000
00000000
00000000
00000000
10000000
00000000
00100000
00000000
,
01000000
01100000
00100000
10100000
,
10000000
00000000
00000000
00100000
00000000
00000000
00010000
00000000
00001000
00000000
00000000
00000000
01000000
00000000
00001000
00000000
,
00010000
00000000
00000000
00000000
00000100
00000000
00000000
00000000
00000010
00000000
00000000
00000001
00000000
00000000
00001000
00000000
,
00000010
00000000
00000000
00000100
00000000
00000000
00000001
00000000
00001000
00000000
00000000
00000000
00000100
00000000
00000010
00000000
,
00000001
00000100
00010000
00001000
,
00100000
00000000
01000000
00000000
00100000
00000000
01000000
00000000
00010000
10000000
00010000
00000000
00000000
00000000
00010000
00001000
,
00010000
00000000
00000000
00000000
00001000
00000000
00000000
00000000
00000010
00000000
00000000
00000100
00000000
00000000
00000001
00000000
,
00000010
00000000
00000000
00000100
00000000
00000000
00001000
00000000
00000010
00000000
00000000
00000000
00010000
00000000
01000000
00000000
,
00100000
00000000
00000000
00000000
00010000
00000000
10000000
00000000
00100000
00000000
00000000
01000000
00000000
00000000
00010000
00000000
,
10000000
00000000
00000000
01000000
00000000
00000000
00100000
00000000
00010000
00000000
00000000
00000000
00001000
00000000
00000010
00000000
,
00000100
00000000
00000000
00000000
00000001
00000000
00001000
00000000
00000001
00000000
00000000
00000010
00000000
00000000
00001000
00000000
,
00000000
00000010
00000000
00000000
00000100
00000000
00001000
00000000
00000001
00000000
00000000
00000000
00010000
00000000
00100000
00000000
,
00010000
00000000
00100000
01000000
00010000
00000000
10000000
00000000
,
10000000
00100000
01000000
00010000
00001000
00000100
00000010
00000001
,
00001000
00001010
00000001
00000011
,
00000100
00000000
00000010
00000000
00010000
00001000
00010000
00001000
,
00100000
11000000
00100000
01010000
,
10010000
00000000
01100000
00000000
00010000
00001000
00010000
00001000
,
00000010
00000000
00000001
00000100
00000000
00000001
00000010
00000000
,
00000100
00001000
00010000
00000000
00010000
00001000
00000100
00000000
,
00010000
00000000
01000000
10000000
00000000
10000000
00100000
00000000
,
00100000
00010000
00100000
00000000
01000000
00001000
00010000
00001000
,
00000200
00000000
00000000
00000010
00000000
00001000
00000000
00000010
,
00000000
00001300
00000000
00000001
00000010
00001000
00010000
01000000
,
00200000
00000000
00000000
00010000
00000000
01000000
00000000
00010000
,
00000000
01300000
00000000
10000000
00100000
00010000
00001000
00000100
,
00000010
00001000
00000001
00001000
00000001
00000010
00000100
00001000
,
00000100
00010000
00000100
00010000
00001000
01000000
00100000
10000000
,
00010000
00100000
00010000
00100000
00001000
01000000
10000000
01000000
,
00001000
00010000
00000100
00000010
00001000
00000001
00000010
00000100
,
00002000
00000000
00000000
00000000
,
00000000
00000000
00000000
00000000
,
00003000
00000000
00000000
00000000
;

//---------------dance-single - ----------------
#NOTES:
     dance-single:
     :
     Edit:
     7:
     0.528,0.688,0.389,0.171,0.066:
0000
0000
0000
0000
,
1000
0100
0001
0100
,
1000
0000
0000
0000
0100
0000
0000
0000
0001
0000
0000
1000
0000
0000
0001
0000
,
1000
0010
0001
0010
,
1000
0000
0000
0000
0010
0000
0000
0000
0001
0000
0000
1000
0000
0000
1000
0000
,
0001
0100
1000
0100
,
0001
0000
0000
0000
0100
0000
0000
0000
1000
0000
0000
0001
0000
0000
1000
0000
,
0001
0010
1000
0010
,
0001
0000
0010
0000
1000
0100
0001
0100
,
0020
0000
0000
L000
0000
0100
0000
000L
,
0000
0100
0030
0000
0010
0100
0010
0000
,
0001
0100
0010
1000
,
0001
000L
1000
L000
,
0010
0100
0001
1000
,
0101
0L0L
1100
LL00
,
0010
0000
0001
1000
0001
0000
0100
0010
,
1000
L100
0L10
00L1
,
020L
1000
00L0
1300
,
0001
0010
0100
1000
L000
100L
0000
0000
,
0001
1000
0100
0010
,
0001
0000
0100
0000
0010
00L0
L000
000L
,
01L0
1000
0001
0100
,
0010
L0L0
0010
00LL
,
0001
000L
1000
L000
,
0100
0010
0001
0100
,
0010
0100
0010
0100
0010
0100
0010
0100
,
0L00
000L
L000
000L
00L0
0L00
L000
000L
,
L200
0320
0230
2300
,
3001
0000
0000
0100
0000
0000
0001
0000
0100
0000
0000
0000
0L00
0000
0000
0000
,
0002
0000
0023
0230
,
0320
0001
0130
0L00
,
0010
0000
0001
1000
0001
0000
0100
0010
,
0100
0000
0010
1000
0001
0000
L00L
0000
,
0020
0100
0000
0130
,
0001
0000
1000
0000
0001
1000
0001
1000
,
0200
00L0
0000
L000
,
0000
000L
0000
03L0
,
1001
0110
1000
0001
,
0100
0000
0000
0100
0000
0000
0100
0000
0010
0000
0000
0000
1000
0000
0100
0000
,
0020
0L30
0001
1000
,
0001
0000
0000
0010
0000
0000
0010
0000
0100
0000
0000
0000
1000
0000
0001
0000
,
1000
0000
0000
0000
L00L
0000
0000
0000
0010
0000
0000
1000
0000
0000
0100
0000
,
0010
0000
0000
0001
0000
0000
0100
0000
0010
0000
0000
0000
0100
0000
0001
0000
,
0200
0000
0000
0000
03L0
0000
0000
0010
1000
0000
0000
1000
0100
0000
0000
0100
,
0002
0203
2300
3002
,
0103
0110
0010
0110
,
1000
0000
0000
L001
0000
0000
000L
0000
L001
0000
0000
0000
0100
0000
0010
0000
,
0100
0000
0001
1000
0001
0000
1001
0000
,
0010
0000
0000
01L0
0000
0000
0L00
0000
01L0
0000
0000
0000
0010
0000
0001
0000
,
1000
1010
0001
1001
,
0100
0000
0000
0L01
0000
0000
000L
0000
01L0
0000
0000
0000
1000
0000
0100
0000
,
0010
0001
1000
0001
,
0100
0010
0100
0010
1000
L000
000L
L000
,
001L
0100
1000
0010
,
0100
0L00
0010
00L0
,
1000
0001
0010
0100
,
1000
L000
0001
000L
,
0100
0010
1000
0001
,
0010
00L0
000L
0100
,
0010
1000
0001
1000
,
0100
0L00
L000
0001
,
0100
0000
0010
0100
0000
0010
0100
0000
,
0001
0000
0010
0000
1000
0001
1000
0000
,
0001
0000
1000
0001
0000
1000
0001
0000
,
0010
0100
0010
0001
,
1000
L000
10L0
0000
0001
000L
00L1
0000
,
1000
L000
1L00
0000
0001
000L
0L01
0000
,
0010
00L0
1L00
L000
01L0
0L00
001L
00L0
,
1L00
L000
100L
L000
010L
0L00
01L0
0L00
,
10L1
0000
0000
0000
;
