#TITLE:Last Christmas;
#SUBTITLE:(Output Jack Trance Remix);
#ARTIST:Jimmy Eat World;
#TITLETRANSLIT:;
#SUBTITLETRANSLIT:;
#ARTISTTRANSLIT:;
#GENRE:;
#CREDIT:;
#BANNER:;
#BACKGROUND:;
#LYRICSPATH:;
#CDTITLE:;
#MUSIC:lastchristmasojremix.ogg;
#OFFSET:-0.794453;
#SAMPLESTART:116.539589;
#SAMPLELENGTH:12.540012;
#SELECTABLE:YES;
#BPMS:0.000000=132.602020,64.000000=132.625702,128.000000=132.665787,160.000000=66.333000,176.000000=132.666000,272.000000=132.526505;
#STOPS:;
#DELAYS:;
#TIMESIGNATURES:0.000000=4=4
;
#BGCHANGES:;
#KEYSOUNDS:;
#ATTACKS:;

//---------------dance-single - ----------------
#NOTES:
     dance-single:
     :
     Hard:
     9:
     0.402,0.441,0.225,0.130,0.072,360.000,33.000,19.000,0.000,0.000,0.000,0.000,0.402,0.441,0.225,0.130,0.072,360.000,33.000,19.000,0.000,0.000,0.000,0.000:
0000
0000
0000
0000
,
0000
0000
0000
0000
,
0000
0000
0000
0000
,
0000
0000
0000
0000
,
1000
0000
0000
0100
0000
0000
0001
0000
0100
0000
0000
0010
0000
0000
0100
0000
,
1000
0000
0000
0010
0000
0000
1000
0000
1000
0000
0000
0100
0000
0000
0010
0000
,
0100
0000
0000
0010
0000
0000
1000
0000
0010
0000
0000
1000
0000
0000
0001
0000
,
0100
0010
1000
0010
0100
1000
1000
0000
,
1001
0000
0000
1000
0100
0000
0000
0100
0010
0000
0000
0010
0001
0000
0000
0001
,
1000
0000
0000
1000
0010
0000
0000
0010
0100
0000
0000
0100
0001
0000
0000
0001
,
1000
0000
0000
1000
0001
0000
0000
0001
0010
0000
0000
0010
0100
0000
0000
0100
,
1000
0000
0000
1000
0100
0000
0000
0100
0010
0000
0000
0010
0001
0000
0000
0000
,
0001
0100
0010
0000
0010
0100
0001
0000
,
0001
1000
0001
0000
0001
0100
0001
0000
,
1000
0100
0001
0000
0001
0100
1000
0000
,
0100
0010
0001
0100
1000
0010
0001
1000
,
1001
0000
1001
0000
0100
0010
1001
0000
,
0110
0000
0110
0000
1000
0001
1001
0000
,
1000
0100
1000
0000
1000
0100
1000
0000
,
1000
0001
0100
0010
2000
0001
0001
3000
,
0010
0100
0010
0100
1000
0000
1000
0100
,
0001
0000
0001
0100
1000
0000
1000
0100
,
0010
0100
0001
0010
0100
0000
0100
1000
,
0100
0000
0010
0000
0220
0000
0000
0330
,
1010
1001
0101
1001
,
1000
0100
0010
0100
0010
0000
0010
0000
,
1010
0000
0010
0000
1001
0000
0000
0100
,
0001
1000
0100
0010
0100
0000
1100
0000
,
2000
0000
0001
0000
0010
0000
0100
3000
,
0002
0000
1000
0000
0010
0000
0100
0003
,
1000
0100
0010
0100
0001
0010
0100
0010
,
2002
0000
0000
3003
,
1000
1000
1000
1000
,
0010
0010
0010
0010
,
0001
0100
0010
0000
1000
0010
0100
0000
,
1000
0010
0100
0010
0001
0000
1000
0000
,
1000
0000
0000
0010
0000
0000
0000
0001
,
0010
0100
0010
1000
0000
0000
0000
0010
,
1000
0010
1000
0010
0000
1001
0000
0101
,
0000
1001
0000
0000
0100
0010
1001
0000
,
2100
0000
0000
0000
0000
0000
0000
3000
,
0102
0000
0000
0000
0000
0000
0000
0003
,
2010
0000
0000
0000
0000
0000
0000
3000
,
0102
0000
0000
0000
0000
0000
0000
0003
,
1000
0100
1000
0000
1000
0100
1000
0000
,
1000
0010
0100
0001
0010
0100
0110
0000
,
0001
0010
0100
0010
,
1000
0100
0010
0100
0001
0100
1000
0000
,
1000
0000
0010
0000
1000
0000
0001
0100
,
0010
1000
0100
0010
0000
0100
1000
0002
,
0000
0000
0000
0003
0000
1000
0100
1000
,
0010
0000
1000
0000
0001
0100
1001
0000
,
2000
0001
0010
3100
,
0100
0010
0100
1000
0100
0000
0000
0000
,
1000
0000
0100
0000
0010
0100
0010
0000
,
0001
0010
0100
0010
1000
0000
1000
0000
,
0001
1001
1000
1010
,
0010
0110
0100
0110
,
0200
0000
0000
0000
0300
0000
1000
0010
,
0100
0001
0010
0001
0100
0010
0100
0000
,
0100
0000
0100
0000
1000
0010
0100
0000
,
0001
0000
0001
0000
0100
0010
0100
0000
,
1000
0001
1000
0000
1000
0001
1000
0000
,
1000
0100
1000
0100
0010
0000
0110
0000
,
0002
0000
0003
0200
0000
0300
0000
1000
,
0010
1000
0001
0100
0000
0000
1000
0000
,
0010
0001
0100
0010
0000
1000
0000
0100
,
0000
0020
0000
0000
0000
0030
0000
0000
,
1010
0000
1000
0001
0000
0000
0001
0010
,
0000
0010
0100
0000
1000
0100
1000
0000
,
0001
1000
0001
1000
0000
0000
1000
0100
,
0000
0100
0010
0000
0001
0010
1000
0000
,
1000
0001
0010
0100
,
1000
0100
0010
0100
,
1000
0100
1000
0100
,
2002
0000
0000
0000
,
3003
0000
0000
0000
;

//---------------dance-single - Blank----------------
#NOTES:
     dance-single:
     Blank:
     Beginner:
     1:
     0.121,0.156,0.014,0.000,0.000,122.000,2.000,0.000,0.000,0.000,0.000,0.000,0.121,0.156,0.014,0.000,0.000,122.000,2.000,0.000,0.000,0.000,0.000,0.000: // measure 1
0000
0000
0000
0000
,  // measure 2
0000
0000
0000
0000
,  // measure 3
0000
0000
0000
0000
,  // measure 4
0000
0000
0000
0000
,  // measure 5
1000
0000
0000
0000
,  // measure 6
0001
0000
0000
0000
,  // measure 7
1000
1000
0000
0000
,  // measure 8
0001
0001
0000
0000
,  // measure 9
1000
0000
0000
0000
,  // measure 10
0100
0000
0000
0000
,  // measure 11
0010
0000
0000
0000
,  // measure 12
0010
0000
0000
0000
,  // measure 13
0001
0000
0000
0000
,  // measure 14
1000
0000
0000
0000
,  // measure 15
0001
0001
0000
0000
,  // measure 16
0100
0100
0100
0000
,  // measure 17
1000
0000
0000
0000
,  // measure 18
1000
0000
0000
0000
,  // measure 19
0100
0000
0000
0000
,  // measure 20
0100
0000
0000
0000
,  // measure 21
0010
0000
0000
0000
,  // measure 22
0010
0000
0000
0000
,  // measure 23
0001
0001
0001
0000
,  // measure 24
1000
1000
1000
0000
,  // measure 25
0010
0000
0000
0000
,  // measure 26
0010
0000
0000
0000
,  // measure 27
0100
0000
0000
0000
,  // measure 28
0100
0000
0000
0000
,  // measure 29
0010
0010
0010
0000
,  // measure 30
0100
0100
0100
0000
,  // measure 31
1000
1000
1000
0000
,  // measure 32
0001
0001
0001
0000
,  // measure 33
1000
0000
0001
0000
,  // measure 34
1000
0000
0001
0000
,  // measure 35
0100
0000
0010
0000
,  // measure 36
0100
0000
0010
0000
,  // measure 37
1000
0000
0010
0000
,  // measure 38
1000
0000
0010
0000
,  // measure 39
0001
0000
0100
0000
,  // measure 40
0001
0000
0100
0000
,  // measure 41
1000
0000
0000
0000
,  // measure 42
0100
0000
0000
0000
,  // measure 43
0100
0000
0000
0000
,  // measure 44
0010
0000
0001
0000
,  // measure 45
1000
0000
0000
0000
,  // measure 46
1000
0000
0000
0000
,  // measure 47
0100
0000
0000
0000
,  // measure 48
0100
0000
0000
0000
,  // measure 49
0010
0000
0100
0000
,  // measure 50
0010
0000
0100
0000
,  // measure 51
1000
0000
0000
0000
,  // measure 52
1000
1000
0001
0000
,  // measure 53
0010
0000
0010
0000
,  // measure 54
0100
0000
0100
0000
,  // measure 55
1000
0000
1000
0000
,  // measure 56
0001
0000
0001
0000
,  // measure 57
0001
0000
0001
0000
,  // measure 58
1000
0000
1000
0000
,  // measure 59
0010
0000
0000
0000
,  // measure 60
0001
0000
0000
1001
,  // measure 61
1000
0000
1000
0000
,  // measure 62
0010
0000
0000
0000
,  // measure 63
0001
0000
0000
0000
,  // measure 64
0100
0000
0000
0000
,  // measure 65
1000
1000
1000
0000
,  // measure 66
0001
0001
0001
0000
,  // measure 67
0010
0000
0100
0000
,  // measure 68
0010
0000
0000
0000
,  // measure 69
1000
0000
0000
0000
,  // measure 70
0001
0000
0000
0000
,  // measure 71
0100
0000
0000
0000
,  // measure 72
0010
0000
0000
0000
,  // measure 73
1000
1000
1000
0000
,  // measure 74
0001
0001
0001
0000
,  // measure 75
1000
0000
0001
0000
,  // measure 76
1000
0000
0001
0000
,  // measure 77
1001
0000
0000
0000
;

//---------------dance-single - Blank----------------
#NOTES:
     dance-single:
     Blank:
     Easy:
     3:
     0.216,0.209,0.109,0.102,0.000,190.000,16.000,15.000,0.000,0.000,0.000,0.000,0.216,0.209,0.109,0.102,0.000,190.000,16.000,15.000,0.000,0.000,0.000,0.000:
0000
0000
0000
0000
,
0000
0000
0000
0000
,
0000
0000
0000
0000
,
0000
0000
0000
0000
,
1000
1000
0010
0010
,
0100
0100
0100
0000
,
0001
0001
0100
0010
,
0100
0010
0000
1000
,
1001
1000
0100
0010
,
1000
0010
1000
0000
,
0001
0010
1000
0000
,
1000
0010
0001
0000
,
0001
0001
0001
0001
,
0100
0100
0100
0100
,
0001
0000
0001
0100
,
1000
0100
0000
0000
,
1001
1000
0100
0100
,
0010
0010
0100
0000
,
0001
0001
1000
1000
,
0010
0100
0100
0000
,
1000
0000
1000
0000
,
0100
0010
0100
0000
,
1000
0100
0100
0010
,
0110
0000
0000
0000
,
1000
1000
0100
0100
,
0010
0010
0100
0000
,
0001
0001
1000
1000
,
0010
0010
0100
0000
,
1000
1000
0100
0000
,
0001
0001
0100
0000
,
0010
0010
1000
1000
,
0001
0001
0001
0001
,
2001
0000
0000
3000
,
0102
0000
0000
0003
,
2010
0000
0000
3000
,
1002
0000
0000
0003
,
0020
0000
0000
0030
,
2000
0000
0000
3000
,
0200
0010
0000
0010
,
0000
0010
0000
0310
,
2000
0000
0000
3000
,
0002
0000
0000
0003
,
0200
0000
0000
0300
,
0020
0000
0000
0030
,
1000
1000
1000
1000
,
1001
0000
0000
0000
,
0001
0001
0001
0001
,
1001
0000
0000
0000
,
0010
0010
0010
0010
,
0100
0100
0100
0100
,
1001
0000
0000
0100
,
0100
0010
0010
0010
,
0011
0001
0001
0001
,
0100
0000
0000
0000
,
1000
1000
1000
1000
,
0110
0000
0000
0000
,
1000
0010
0100
0000
,
0001
0100
0010
0000
,
1001
0000
0000
0000
,
2002
0000
0000
3003
,
1001
1000
1000
1000
,
0100
0100
0100
0000
,
0001
0001
0001
0000
,
0010
0100
0010
0000
,
1000
1000
1000
0000
,
0010
0010
0010
0000
,
0100
0001
0100
0001
,
1000
0000
0000
0000
,
1000
0000
0100
0000
,
1000
0000
0100
0000
,
0001
0000
0100
0000
,
0001
0000
0100
0000
,
0010
0000
0001
0000
,
0010
0000
0001
0000
,
1000
0000
0001
0000
,
1000
0000
0001
0000
,
2002
0000
3003
0000
;

//---------------dance-single - Blank----------------
#NOTES:
     dance-single:
     Blank:
     Medium:
     7:
     0.348,0.339,0.157,0.177,0.014,308.000,23.000,26.000,0.000,0.000,0.000,0.000,0.348,0.339,0.157,0.177,0.014,308.000,23.000,26.000,0.000,0.000,0.000,0.000:
0000
0000
0000
0000
,
0000
0000
0000
0000
,
0000
0000
0000
0000
,
0000
0000
0000
0000
,
1000
0000
0000
0100
0000
0000
0000
0100
,
1000
0100
0010
0100
0000
0000
0001
0000
,
0100
1000
0100
0010
,
0010
1000
0010
1000
0010
1000
0010
0000
,
2001
0010
0100
3010
,
1002
0100
0010
0103
,
0210
0001
1000
0301
,
1000
0100
1000
0000
1100
0000
0000
0000
,
0002
1003
2000
3100
,
0200
0310
0020
0130
,
0002
0103
0200
0301
,
2000
0000
3001
0000
0020
0000
1030
0100
,
1000
1000
1000
1000
,
1000
0100
0010
0200
0000
0300
0000
0000
,
0001
0001
0001
0001
,
0001
0010
0100
0020
0000
0030
0000
0000
,
1000
1100
0100
0000
,
0101
0000
0100
0000
1100
0000
0000
0001
,
1000
0001
1000
0001
0000
1001
0000
1000
,
0000
0200
0000
0000
0000
0300
0000
0000
,
1000
0100
0010
0100
,
0010
0001
0010
0100
,
1000
0010
0100
0000
0001
0100
0010
0000
,
1000
0100
1000
0010
1000
0000
1001
0000
,
0010
0100
1000
0000
,
0001
1000
0001
0100
0010
0000
0000
0000
,
1000
0000
0001
1000
0000
0001
0000
0100
,
0000
0020
0000
0000
0000
0000
0000
0030
,
1000
1100
1000
1100
,
0100
0100
0001
0001
,
0001
0100
1000
0100
0001
0000
0000
0000
,
0100
0010
0001
1000
0000
0000
0000
0000
,
1000
0100
1000
0010
,
0100
0001
0010
0100
,
1000
0010
1000
0010
,
0100
0010
0100
0010
0100
0010
0100
0000
,
2000
0000
0000
0010
0000
0100
3000
0000
,
0002
0000
0000
0010
0000
0000
0100
0000
0000
1000
0000
0000
0103
0000
0000
0000
,
0020
0000
0000
1000
0000
0000
0100
0000
0000
1000
0000
0000
0130
0000
0000
0000
,
0200
0000
1000
1000
1000
1000
1300
0000
,
1000
0010
1000
0000
1000
0010
1000
0000
,
1000
0001
1000
0000
1000
0000
0000
0000
,
0001
1000
0001
0000
0001
1000
0001
0000
,
0001
0010
0001
0000
0011
0000
0010
0000
,
1001
0000
0100
1000
0100
0000
0100
0010
,
0000
0010
0000
0010
0000
0010
0000
0002
,
0000
0000
0000
0003
0000
0001
1000
0001
,
0100
1000
1100
0100
,
1000
0000
0100
0000
0010
0100
0001
0000
,
0010
0100
1000
0100
0010
0000
0110
0000
,
0001
1000
0010
0100
,
0001
1000
0100
0001
0100
0000
0100
0000
,
1000
0000
0100
0000
0010
0000
1000
0001
,
0000
0001
0000
0001
0000
0001
0000
0200
,
0000
0000
0000
0300
0000
0010
1000
0010
,
1000
1010
1001
0101
,
1000
0000
0010
0000
0100
0000
0000
0010
,
0001
0010
0100
1000
0000
0000
0000
1000
,
0100
0000
0100
0000
0100
0000
0000
1000
,
0100
0010
0001
0010
0000
0000
0000
0000
,
0001
0000
1000
0000
,
0001
0100
0010
0000
,
1000
1000
0100
0100
,
0010
0000
0100
0000
0001
1000
0001
0000
,
1001
0000
0100
0010
0100
0000
0100
0010
,
0100
0100
0100
0100
,
1001
0000
0001
1000
0001
0000
0001
1000
,
0001
0101
0100
0110
,
2000
0000
0000
3000
,
0020
0000
0000
0030
,
0200
0000
0000
0300
,
1000
0100
0010
0001
0100
1000
0100
0000
,
2002
0000
3003
0000
;
