#TITLE:Kurisumasu;
#SUBTITLE:;
#ARTIST:Shingo DJ;
#TITLETRANSLIT:;
#SUBTITLETRANSLIT:;
#ARTISTTRANSLIT:;
#CREDIT:348 with Timer Rabbit;
#BANNER:Kurisumasu Banner.png;
#BACKGROUND:Kurisumasu Background.png;
#LYRICSPATH:;
#CDTITLE:;
#MUSIC:Kurisumasu.mp3;
#OFFSET:-0.049;
#SAMPLESTART:49.400;
#SAMPLELENGTH:15.000;
#SELECTABLE:YES;
#BPMS:0.000=175.000,64.000=350.000,96.000=87.500,112.000=175.000,136.000=350.000,152.000=175.000,336.000=350.000,352.000=175.000;
#STOPS:;
#BGCHANGES:;

//---------------dance-single - ----------------
#NOTES:
     dance-single:
     :
     Beginner:
     3:
     0.133,0.217,0.021,0.000,0.000:
0000
0000
0000
0000
,
0000
0000
0000
0000
,
0000
0000
0000
0000
,
0000
0000
0000
0000
,
0000
0000
0000
0000
,
0000
0000
0000
0000
,
0000
0000
0000
0000
,
0000
0000
0000
0000
,
1000
0000
0000
0000
,
0001
0000
0000
0000
,
1000
0000
0001
0000
,
1000
0000
0000
0000
,
0010
0000
0000
0000
,
0100
0000
0000
0000
,
0010
0000
0100
0000
,
0010
0000
0000
0000
,
1000
0000
0000
0000
,
0000
0000
0000
0000
,
0000
0000
0000
0000
,
0000
0000
0000
0000
,
0000
0000
0000
0000
,
0000
0000
0000
0000
,
0000
0000
0000
0000
,
0000
0000
0000
0000
,
0000
0001
0001
0000
,
0000
0010
0010
0000
,
0000
0100
0100
0000
,
0000
1000
1000
0000
,
0000
0001
0000
0001
,
0000
0001
0000
0000
,
0000
1000
0000
1000
,
0000
1000
0000
0000
,
0000
0010
0000
0010
,
0000
0010
0000
0000
,
0100
0000
0000
0000
,
0000
0000
0000
0000
,
0000
0000
0000
0000
,
0000
0000
0000
0000
,
0000
0000
0001
0000
,
1000
0000
1001
0000
,
0000
0000
0010
0000
,
0100
0000
0110
0000
,
0000
0000
0001
0000
,
1000
0001
1000
0000
,
0000
0000
0010
0000
,
0100
0010
0100
0000
,
0001
0000
0000
0010
,
0010
0000
0001
0000
,
1000
0000
0000
0100
,
0100
0000
1000
0000
,
0001
0000
1000
0000
,
0010
0000
0100
0000
,
0001
0000
0000
1000
,
0100
0000
0000
0010
,
0001
0000
0100
0000
,
0100
0000
0000
0000
,
0010
0000
1000
0000
,
1000
0000
0000
0000
,
0001
0000
0000
1000
,
1000
0000
0000
0100
,
0100
0000
0000
0010
,
0010
0000
0000
0001
,
1000
0000
0000
0000
,
1000
0000
1000
0000
,
0001
0000
0000
0000
,
0001
0000
0001
0000
,
0100
0000
0000
0000
,
0010
0000
0010
0000
,
0010
0000
0000
0000
,
0100
0000
0100
0000
,
0001
0000
0000
0000
,
0010
0000
0000
0000
,
0100
0000
0000
0000
,
1000
0000
0000
0000
,
0001
0000
0000
0000
,
1000
0000
0000
0000
,
0100
0000
0000
0000
,
0010
0000
0000
0000
,
0001
0000
0010
0000
,
0000
0000
0000
0000
,
0100
0000
1000
0000
,
0000
0000
0000
0000
,
0010
0000
0000
0000
,
0100
0000
0000
0000
,
0001
0000
0000
0000
,
0000
0000
0000
0000
,
0000
0000
0000
0000
,
0000
0000
0000
0000
,
0000
1000
0000
1000
,
0000
0100
0100
0000
,
0000
0010
0000
0010
,
0000
0001
0001
0000
,
0000
1000
0000
1000
,
0000
0001
0001
0000
,
0000
0100
0000
0100
,
0000
0010
0010
0000
,
1000
0000
0100
0000
,
1000
0000
0000
0000
,
0001
0000
0010
0000
,
0001
0000
0000
0000
,
1000
0000
0001
0000
,
0100
0000
0010
0000
,
0100
0000
0010
0000
,
1000
0000
0001
0000
,
1001
0000
0000
0000
;

//---------------dance-single - ----------------
#NOTES:
     dance-single:
     :
     Easy:
     5:
     0.353,0.505,0.153,0.222,0.000:
0000
0000
0000
0000
,
0000
0000
0000
0000
,
0000
0000
0000
0000
,
0000
0000
0000
0000
,
0000
0000
0000
0000
,
0000
0000
0000
0000
,
0000
0000
0000
0000
,
0000
0000
0000
0000
,
1000
0001
1000
0100
,
0020
0000
0031
0000
,
0001
1000
0001
0010
,
0200
0000
1300
0000
,
0001
1000
0100
0010
,
0100
1000
0001
0010
,
0100
0000
1001
0000
,
0010
0000
1001
0000
,
0200
0000
0000
0000
,
0000
0000
0000
0000
,
0000
0000
0000
0000
,
0000
0000
0000
0000
,
0300
0000
0000
0000
,
0000
0000
0000
0000
,
0000
0000
0000
0000
,
0000
0000
0000
0000
,
0001
0000
0100
0000
1000
0100
0001
0000
,
1000
0000
0010
0100
0001
0000
1000
0000
,
0010
0000
1000
0000
0001
0100
0010
0000
,
1000
0000
0100
0001
0100
0000
1000
0000
,
0002
0100
0010
0103
,
1000
0100
0010
1100
,
0020
1000
0100
1030
,
0100
0001
1000
0011
,
2000
0100
3001
1001
,
0200
0001
0310
0110
,
0001
1000
0001
0000
,
1000
0001
1000
0000
,
0020
0000
0130
0000
,
0200
0000
0310
0000
,
1000
0100
0001
0110
,
1000
0000
0010
0000
0100
0000
0001
0010
,
0001
1000
0100
1001
,
0010
0000
0100
0000
0001
0000
1000
0100
,
1000
1000
0001
1000
,
0010
0010
0100
0010
,
2000
3100
0020
0031
,
0200
0301
2000
3010
,
1001
0000
1100
0000
0000
0001
0010
0000
,
1001
0000
0011
0000
0000
1000
0100
0000
,
0001
0100
1000
0100
,
0001
0100
1000
0001
,
2000
0010
0100
3001
,
0002
0100
0010
1003
,
0010
0100
0010
0000
1000
0000
0100
0000
,
0010
0100
0010
0000
0001
0000
1000
0000
,
0002
0000
1003
0100
,
1000
0000
0100
0000
0010
0001
0010
0000
,
0200
0000
1300
0001
,
0100
0000
0010
0000
1000
0001
1000
0000
,
0001
0001
0002
0003
,
1000
1000
2000
3000
,
0020
0130
0020
1030
,
0200
0301
0200
0310
,
0001
1000
0010
1100
,
0010
1000
0001
0110
,
0001
1000
0100
0011
,
1000
0100
1000
0000
0001
0010
0001
0000
,
2000
0100
0001
3010
,
0002
0010
1000
0103
,
2000
3100
0002
0013
,
0200
0000
0010
0310
,
0001
0000
0100
0100
,
0100
0000
0010
0010
,
1000
0000
0010
0100
,
0100
0000
0001
0100
,
1000
0000
1000
0100
,
0001
0000
1000
0100
,
0001
0000
0001
0100
,
1000
0000
1001
0000
,
0010
0000
1000
0000
,
0100
0000
0001
0000
,
0010
0000
1000
0000
,
0100
0000
0001
0000
,
0010
0001
0010
1000
,
0100
1000
0100
0001
,
0100
0000
1000
0000
,
0000
0000
1000
0000
,
0001
0000
0010
0000
,
0000
0000
0010
0000
,
0001
0000
0100
0010
,
0110
0000
1000
0100
,
1100
0000
0001
0010
,
0011
0000
1001
0000
,
0010
1000
0100
0000
,
0010
0001
0100
0000
,
0001
1000
0001
0000
,
1000
0000
0110
0000
,
0002
0000
1003
0000
,
2000
0000
3100
0000
,
0200
0000
0310
0000
,
0020
0000
0031
0000
,
0001
0010
0100
1000
,
0001
0010
0100
0010
,
0001
0010
0010
0001
,
1000
0100
0001
0100
,
1001
0000
0000
0000
;

//---------------dance-single - ----------------
#NOTES:
     dance-single:
     :
     Medium:
     7:
     0.519,0.577,0.409,0.285,0.000:
0000
0000
0000
0000
,
0000
0000
0000
0000
,
0000
0000
0000
0000
,
0000
0000
0000
0000
,
0000
0000
0000
0000
,
0000
0000
0000
0000
,
0000
0000
0000
0000
,
0000
0000
0000
0000
,
1000
0000
0100
0000
0010
0001
0010
0000
,
0100
0000
1000
0000
0001
1000
0001
0000
,
1000
0000
0100
0000
0001
0100
1000
0000
,
0010
1010
1000
1001
,
0010
0000
0001
0000
1000
0010
1000
0000
,
0001
0000
1000
0000
0010
0100
0010
0000
,
0100
0001
0100
0000
0001
1000
0001
0000
,
1000
1001
0001
0011
,
2002
0000
0000
0000
,
0000
0000
0000
0000
,
0000
0000
0000
0000
,
0000
0000
0000
0000
,
3003
0000
0000
0000
,
0100
0000
0000
0000
,
0010
0000
0000
0000
,
0110
0000
0000
0000
,
1000
0100
0010
0001
0010
0100
1000
0000
,
0001
0010
0001
0100
0001
1000
0001
0000
,
0100
0100
0001
0001
1000
0100
1000
0000
,
0010
1000
1000
0100
0010
0001
1000
0000
,
0002
0103
0200
0301
,
0020
1030
2000
3010
,
0001
1100
0001
1010
,
1000
0101
1000
0011
,
0200
0010
0310
1001
,
0002
1000
1003
1001
,
0001
0010
0002
0000
,
1003
0100
2000
0000
,
3010
1000
0100
0001
,
0100
1000
0020
0000
,
1030
0000
1001
0000
0001
0000
1000
0100
,
0000
0010
0001
0000
0110
0000
1000
0000
,
0001
0000
1100
0000
0001
0000
0100
0001
,
0000
0001
0010
0000
0011
0000
1000
0000
,
0001
0000
0100
0000
0010
1000
0001
0000
,
1000
0001
0100
0000
0001
1000
0001
0000
,
1000
0100
0001
0100
1000
0100
1000
0000
,
0011
1010
1001
0110
,
2000
0000
3001
0000
0010
0001
0100
0010
,
0000
1000
0100
0000
0020
0000
0130
0000
,
1000
0000
0101
0000
1100
0000
0001
0010
,
0000
0010
0100
1000
0001
0000
0110
0000
,
1000
0100
0010
0000
0001
0010
0100
0000
,
1000
1010
0101
0001
,
1000
0100
1000
0100
0010
0001
0010
0001
,
1000
0110
1001
0110
,
0002
0203
0320
2030
,
3001
0010
0001
0000
1000
0100
1000
0000
,
0001
0010
1000
0010
0002
0000
1003
0000
,
2000
0001
0010
3100
,
0001
0010
2000
0000
3010
0001
1000
0200
,
0000
0300
1100
0000
0101
0000
0110
0000
,
0001
0100
2000
0000
3100
0000
0001
0000
,
1000
0100
0010
0001
1000
0000
1001
0000
,
0020
0100
2030
0001
,
3100
1000
0100
0001
0200
0000
1300
0000
,
0011
0000
1010
0000
0001
1000
0010
0000
,
0010
1000
0100
0000
0100
1000
0001
0000
,
2000
3010
0200
0301
,
1000
0100
0010
0001
1000
0100
0010
0001
,
0020
0031
2000
3100
,
0001
0100
0010
1000
0001
1000
0010
0100
,
0002
0000
0000
0010
0000
1003
0000
0000
,
0020
0000
0000
0100
0000
0031
0000
0000
,
2000
0000
0000
0001
0000
3010
0000
0000
,
0200
0000
0000
1000
0000
0310
0000
0000
,
1100
0000
0000
0001
0000
0010
0000
0000
,
0011
0000
0000
1000
0000
0010
0000
0000
,
1010
0000
0000
0001
0000
0100
0000
0000
,
0101
0000
0000
1000
0000
0100
0000
0000
,
1000
0100
0001
0100
,
2000
3001
0020
0130
,
1000
1010
0001
0101
,
0011
0011
1100
1100
,
0001
0010
0100
0000
0010
0100
1000
0000
,
0001
1000
0100
0000
0010
0001
1000
0000
,
0001
0010
0100
1000
,
0001
0010
0100
1000
,
0002
0000
2003
0000
,
3200
0000
0320
0000
,
0031
0000
1000
0000
0001
0010
0100
0000
,
0010
0011
1010
1001
,
0010
0000
0010
0000
1000
0100
0010
0000
,
0001
1100
0101
0110
,
0001
0000
0100
0000
1000
0100
0010
0000
,
1000
0000
0100
0000
0001
0100
0010
0000
,
0001
0100
1000
0000
0001
0010
1000
0000
,
0011
1001
1100
1001
,
1000
0000
1001
0000
0010
0100
0001
0000
,
0010
0000
0110
0000
0001
1000
0100
0000
,
1000
0100
0010
0000
0010
0001
1000
0000
,
1000
0001
0010
0000
0010
0001
1000
0000
,
0001
0010
1000
0010
0002
0000
1003
0000
,
1000
0100
0001
0100
2000
0000
3001
0000
,
0001
0100
0010
0000
0100
0010
1000
0000
,
0010
1001
0001
0110
,
1001
0000
0000
0000
;

//---------------dance-single - ----------------
#NOTES:
     dance-single:
     :
     Hard:
     9:
     0.658,0.686,0.375,0.243,0.285: // measure 1
0000
0000
0000
0000
,  // measure 2
0000
0000
0000
0000
,  // measure 3
0000
0000
0000
0000
,  // measure 4
0000
0000
0000
0000
,  // measure 5
0000
0000
0000
0000
,  // measure 6
0000
0000
0000
0000
,  // measure 7
0000
0000
0000
0000
,  // measure 8
0000
0000
0000
0000
,  // measure 9
1000
0100
0010
0100
0001
0100
0010
0100
,  // measure 10
1000
0100
0010
0001
0100
0001
0100
0010
,  // measure 11
1000
0011
1010
1001
,  // measure 12
0010
1000
0010
1000
0001
0100
0001
0100
,  // measure 13
0001
0010
0100
0010
0100
1000
0100
0001
,  // measure 14
0100
1000
0100
0010
0001
1000
0010
0100
,  // measure 15
0001
1100
0101
1001
,  // measure 16
1000
0100
0011
0000
0001
0010
1100
0000
,  // measure 17
0002
0000
0000
0000
,  // measure 18
0000
0000
0000
0000
,  // measure 19
0000
0000
0000
0000
,  // measure 20
0000
0000
0000
0000
,  // measure 21
1003
0100
0001
0100
,  // measure 22
2000
0000
0002
0000
,  // measure 23
0000
0000
0000
0000
,  // measure 24
0000
0000
0000
3003
,  // measure 25
0010
0000
0100
0000
0001
0000
1000
0100
0000
0001
0000
0100
0000
1000
0000
0001
,  // measure 26
0010
0000
0100
0000
0100
0000
0010
0001
0000
0100
0000
1000
0000
0100
0000
0001
,  // measure 27
1000
0000
0100
0000
0001
0000
0010
0001
0000
0100
0000
1000
0000
0001
0000
0100
,  // measure 28
1000
0000
0001
0000
0010
0000
1000
0001
0000
0100
0000
0010
0000
1000
0000
0001
,  // measure 29
1000
0000
0000
0100
1000
0000
0000
0000
0001
0000
0000
0010
0001
0000
0000
0000
,  // measure 30
1000
0100
0010
0001
2000
0000
3001
0000
,  // measure 31
0100
0000
0000
0001
0010
0000
0000
0000
0100
0000
0000
1000
0001
0000
0000
0000
,  // measure 32
0010
0001
1000
0100
1000
0000
0110
0000
,  // measure 33
2000
0100
3100
0000
0001
0100
1010
0000
,  // measure 34
0002
0010
0013
0000
1000
0100
0011
0000
,  // measure 35
1000
0000
0100
0000
0001
0000
0100
1000
,  // measure 36
0100
0010
2002
3003
,  // measure 37
0010
0000
0001
0000
1000
0000
0001
0100
,  // measure 38
0001
1000
0220
0330
,  // measure 39
0001
0010
0001
0100
0010
1000
0100
1000
,  // measure 40
0100
0000
0000
1000
0001
0000
0000
0001
0100
0000
0000
1000
0100
0000
0000
0000
,  // measure 41
0001
0010
0100
1000
0001
0010
0100
1000
,  // measure 42
0011
0000
1100
0000
0010
0100
0110
0000
,  // measure 43
0001
0010
1000
0010
0100
1000
0100
0001
,  // measure 44
0000
0100
1000
0001
0010
0001
0110
0000
,  // measure 45
1000
0100
0010
0001
0100
1000
0100
0001
,  // measure 46
0000
0000
1000
0000
0010
0100
0010
0000
1000
0000
0001
0000
0100
0000
0000
0000
,  // measure 47
0020
1000
1030
0000
0200
0001
0301
0000
,  // measure 48
0001
0010
1000
0001
0100
1000
0001
1000
,  // measure 49
0101
0000
0000
1000
0010
0000
0000
0000
1010
0000
0000
0001
0100
0000
0000
0000
,  // measure 50
0001
0010
0100
2000
0000
3001
1001
0000
,  // measure 51
0010
0001
1000
0001
0010
0001
0100
0001
,  // measure 52
1000
0100
0010
0100
1000
0100
0010
0001
,  // measure 53
2000
0000
0000
0000
3002
0000
0000
0000
0103
0010
0100
0000
0001
0000
1000
0000
,  // measure 54
0020
0000
0000
0000
0230
0000
0000
0000
0301
1000
0001
0000
0100
0000
0010
0000
,  // measure 55
1000
0001
1100
0000
0001
0100
0011
0000
,  // measure 56
1000
0000
0000
0001
0200
0000
0000
0310
2000
0000
0000
3001
0020
0000
0000
0000
,  // measure 57
0031
0100
1000
0100
0001
0010
1000
0010
,  // measure 58
0001
2100
0010
3001
,  // measure 59
0012
1003
1020
0130
,  // measure 60
0001
1000
0100
0010
0100
1000
0001
0100
,  // measure 61
0002
0000
0000
0103
0010
0000
0000
0000
0200
0000
0000
0310
1000
0000
0000
0000
,  // measure 62
0001
0100
0101
0000
0010
1000
1010
0000
,  // measure 63
0001
0100
0010
0001
1000
0100
0010
2000
,  // measure 64
0000
0000
3001
0000
0100
0001
1000
0000
0001
0000
0100
0000
0010
0000
1000
0000
,  // measure 65
0001
0000
0000
0000
0110
0000
0000
0000
1001
0000
0000
0000
0110
0000
0000
1000
,  // measure 66
0100
0001
0100
1000
0001
1000
0100
0000
,  // measure 67
1000
0100
0010
1000
0100
0010
0001
0010
,  // measure 68
1000
0100
0001
0100
1000
0001
0010
0100
,  // measure 69
1001
0000
0000
0100
0010
0000
0000
0000
0110
0000
0000
0001
1000
0000
0000
0000
,  // measure 70
0200
1000
1300
0000
0020
0001
0031
0000
,  // measure 71
1000
0000
0000
0100
0000
0000
0010
0000
0000
1000
0000
0001
0000
0100
0000
0000
,  // measure 72
0011
0000
0000
1000
0000
0000
0010
0000
0000
1010
0000
0001
0000
0100
0000
0000
,  // measure 73
0002
0000
0000
0100
0000
0000
1003
0000
0000
2000
0000
0001
0000
3010
0000
0000
,  // measure 74
0200
0000
0000
1300
0000
0000
1100
0000
0000
0002
0000
0013
0000
0011
0000
0000
,  // measure 75
1000
0000
0000
1000
0000
0000
1000
0000
0000
0010
0000
0010
0000
0010
0000
0000
,  // measure 76
1000
0000
0000
0001
0000
0000
1001
0000
0000
0010
0000
0100
0000
0110
0000
0000
,  // measure 77
0002
0000
0000
0010
0000
0000
1000
0000
0000
0010
0000
0100
0000
1003
0000
0000
,  // measure 78
0010
0000
0000
0100
0000
0000
1000
0000
0000
0001
0000
0010
0000
0100
0000
0000
,  // measure 79
0001
1000
0100
0000
0100
1000
0001
0000
,  // measure 80
0100
0010
1000
0000
1000
0010
0100
0000
,  // measure 81
0001
0010
0100
0010
0001
1000
0100
0000
,  // measure 82
1000
0010
0001
0010
1000
0100
1000
0000
,  // measure 83
0010
0100
0010
0100
0001
1000
0001
0100
,  // measure 84
0010
1000
0001
0100
0001
1000
0100
1000
,  // measure 85
0001
0000
0010
0000
0001
0000
1000
0100
,  // measure 86
0000
0010
0001
0000
2000
0000
0000
0000
,  // measure 87
3010
0000
0100
0000
0001
0000
0010
0001
,  // measure 88
0000
1000
0100
0000
0020
0000
0000
0000
,  // measure 89
0031
0000
1001
0000
0010
0001
1000
0000
,  // measure 90
0001
1000
0010
0000
1000
0001
0100
0001
,  // measure 91
1000
0000
0110
0000
0001
0001
0010
0000
,  // measure 92
0010
0000
0001
0000
0010
0000
1000
0000
0010
0000
0001
0000
1100
0000
0000
0001
,  // measure 93
0010
1100
0011
0110
,  // measure 94
1000
0100
0001
0000
1000
0010
0001
0000
,  // measure 95
1000
0001
0010
1000
0001
0010
1000
0100
,  // measure 96
0010
0001
1000
0010
0100
0001
1000
0000
,  // measure 97
0011
0110
1100
0110
,  // measure 98
0101
1001
1010
1001
,  // measure 99
0110
0000
0000
1000
0100
0000
0000
0100
0010
0000
0000
0010
0001
0000
0000
0001
,  // measure 100
1000
0000
0000
1000
0010
0000
0000
0010
0100
0000
0000
0100
0001
0000
0000
0001
,  // measure 101
1000
0100
0010
0000
0100
0010
0001
0000
,  // measure 102
1000
0001
0100
0000
0001
1000
0100
0000
,  // measure 103
1000
0010
1000
0001
0100
0001
1000
0100
,  // measure 104
0001
0100
1000
0001
0010
0100
1000
0000
,  // measure 105
1001
0000
0000
0000
;

//---------------dance-single - ----------------
#NOTES:
     dance-single:
     :
     Challenge:
     10:
     0.883,0.938,0.430,0.361,0.684: // measure 1
0000
0000
0000
0000
,  // measure 2
0000
0000
0000
0000
,  // measure 3
0000
0000
0000
0000
,  // measure 4
0000
0000
0000
0000
,  // measure 5
0000
0000
0000
0000
,  // measure 6
0000
0000
0000
0000
,  // measure 7
0000
0000
0000
0000
,  // measure 8
0000
0000
0000
0000
,  // measure 9
1001
0000
0010
1000
0010
0000
0100
0001
0100
0000
0001
0010
0001
0000
1000
0100
,  // measure 10
1000
0000
0001
1000
0001
0000
0100
0010
0100
0000
0010
1000
0100
0000
0010
0001
,  // measure 11
0100
0001
1000
0100
0010
0001
1000
0020
,  // measure 12
2000
0000
0000
0000
3030
0000
0000
0000
0002
0000
1003
0010
2000
0000
3001
0000
,  // measure 13
0110
0000
1000
0100
0010
0000
0100
0010
0001
0000
1000
0010
0100
0000
0010
0100
,  // measure 14
0001
0000
0010
0001
0010
0000
0100
1000
0100
0000
1000
0010
1000
0000
0001
0100
,  // measure 15
0001
0010
0100
1000
0001
0100
0010
1000
,  // measure 16
0001
0010
1000
0010
0100
1000
0001
0010
,  // measure 17
0001
1000
0001
1000
0001
1000
0001
1000
,  // measure 18
0001
1000
0001
1000
0001
1000
0001
1000
,  // measure 19
0001
1000
0001
1000
0001
1000
0001
2000
,  // measure 20
0002
0000
0000
3003
,  // measure 21
2020
0000
0000
3000
,  // measure 22
0200
0000
0000
0000
,  // measure 23
0000
0000
0000
0000
,  // measure 24
0000
0000
0000
0330
,  // measure 25
1000
0000
0100
0000
0010
0000
0100
1000
0001
0010
0000
0010
0000
0010
0001
1000
,  // measure 26
0100
0000
0001
0100
1000
0000
0001
0010
1000
0001
0000
0100
0000
1000
0001
0100
,  // measure 27
0010
0000
0100
0000
0001
0000
0010
0001
0010
0001
0000
1000
0000
0100
1000
0001
,  // measure 28
0100
0000
1000
0100
0001
0000
1000
0100
0010
0001
0000
1000
0000
0001
0100
0010
,  // measure 29
2000
0000
0000
3001
0020
0000
0000
0130
2000
0000
0000
3001
0200
0000
0000
0310
,  // measure 30
1000
0000
0001
0000
2000
0000
0000
3010
0200
0000
0000
0301
0020
0000
0000
0031
,  // measure 31
1000
0000
0000
1000
0002
0000
0000
0103
0020
0000
0000
1030
0200
0000
0000
1300
,  // measure 32
0010
0000
0100
0000
0020
0000
0000
0130
0002
0000
0000
1003
0200
0000
0000
0310
,  // measure 33
0001
1000
0110
0000
1000
0001
0110
0000
,  // measure 34
1000
0001
0100
0011
1000
0001
0100
1010
,  // measure 35
0001
0010
0001
0010
0001
0000
0100
0000
,  // measure 36
0010
2000
0100
3100
,  // measure 37
1000
0100
1000
0100
1000
0000
0100
0000
,  // measure 38
0010
0002
0010
0013
,  // measure 39
1000
0000
0100
0000
0010
0000
0001
0000
1000
0100
1000
0100
1000
0000
0002
0000
,  // measure 40
0000
0013
0001
1000
0100
0011
1100
0000
,  // measure 41
0001
0000
0010
0000
0100
0000
1000
0000
0001
0100
0001
0100
0001
0000
2000
0000
,  // measure 42
0000
3002
1003
0000
0110
0000
1001
0000
,  // measure 43
0010
0000
1000
0100
0010
0000
0001
0010
0100
0000
1000
0001
1000
0000
0002
0000
,  // measure 44
0000
0000
1003
0000
0010
0100
0010
0000
1000
0000
0001
0000
1001
0000
0100
0000
,  // measure 45
0110
0000
0001
0010
0100
0000
1000
0100
0010
0000
0001
0100
0001
0000
1000
0100
,  // measure 46
1000
0000
0011
0000
1000
0010
1010
0000
,  // measure 47
0001
0000
0010
0000
1000
0000
0010
0001
0010
0001
0010
0000
0001
0000
0100
0000
,  // measure 48
0010
0000
1000
0000
0001
0000
1000
0100
0010
0000
0001
0000
1010
0000
0000
0000
,  // measure 49
0100
0000
0001
0000
1000
0000
0100
0010
0100
0010
0100
0000
0010
0000
0001
0000
,  // measure 50
1000
0000
0010
0000
0001
0000
1000
0100
0001
0000
1000
0000
0101
0000
0000
0000
,  // measure 51
1000
0000
0001
0010
0100
0000
1000
0001
1000
0000
0100
0010
0001
0000
1000
0100
,  // measure 52
1000
0100
0010
0001
0010
0000
0001
0000
0010
0000
0200
0000
1300
0000
0000
0000
,  // measure 53
0001
0010
0001
0010
0001
0000
1000
0000
0010
0100
0010
0000
1000
0000
0001
0000
,  // measure 54
0100
0001
0100
0001
0100
0000
0010
0000
1000
0100
1000
0000
0001
0000
0010
0000
,  // measure 55
0001
0000
1000
0100
1000
0100
1000
0000
0002
0000
0010
0000
0100
0000
1003
0000
,  // measure 56
0001
0000
1000
0001
1000
0000
0101
0000
1000
0000
0010
0000
1010
0000
0000
0000
,  // measure 57
0110
0000
1000
0100
0010
0000
0100
0001
0100
0000
0010
0100
1000
0000
0001
0010
,  // measure 58
0002
0000
1000
0000
1003
0000
1000
0100
0001
0100
1000
0000
0001
0000
0010
0000
,  // measure 59
0012
1003
2100
3010
,  // measure 60
0001
0000
0100
0010
0100
0000
0010
1000
0010
0000
0100
0001
0100
0000
0001
0000
,  // measure 61
1000
0100
1000
0100
2000
0000
3001
0000
0010
0000
0100
0000
0110
0000
0010
0000
,  // measure 62
0100
0001
0100
0001
1000
0100
1000
0100
1000
0000
0001
0000
1001
0000
0000
0000
,  // measure 63
0110
0000
0001
1000
0100
0000
1000
0001
0100
0000
0010
0000
1000
0000
0200
0000
,  // measure 64
0300
1002
0000
0013
0000
2001
0000
3100
,  // measure 65
1000
0000
0001
0010
0100
0010
0001
0000
1000
0000
0001
0000
0100
0000
2010
0000
,  // measure 66
0000
0000
3001
0000
0010
0000
0001
0000
0100
0000
0010
1000
0200
0000
1000
0000
,  // measure 67
1300
0000
0100
1000
0100
0000
0010
0001
0010
0000
0002
0000
1003
0000
0000
0000
,  // measure 68
0110
0000
0001
0010
0001
0000
1000
0100
1000
0000
0020
0000
0130
0000
0000
0000
,  // measure 69
1000
0100
1000
0100
0010
0001
0010
0001
1000
0010
1000
0010
0100
0001
0100
0001
,  // measure 70
1000
0101
1100
1001
,  // measure 71
0010
0000
0000
1000
0100
0000
1000
0000
0010
0100
0000
0100
0000
0100
0000
0000
,  // measure 72
0001
0000
0000
0020
1000
0000
0100
0000
0031
1000
0000
0100
0000
1000
0000
0000
,  // measure 73
0001
0000
0000
0001
0010
0000
0010
0000
0100
1000
0000
0001
0000
0010
0000
0000
,  // measure 74
1001
0000
0000
0100
0020
0000
0130
0000
0001
0010
0000
0100
0000
1001
0000
0000
,  // measure 75
0010
0000
0000
1000
0100
0000
0001
0000
0010
0100
0000
0001
0000
1000
0000
0000
,  // measure 76
2000
0000
0000
3001
0200
0000
0010
0000
0301
0020
0000
0001
0000
0031
0000
0000
,  // measure 77
1000
0000
0000
0100
1000
0000
0010
0000
0100
0001
0000
0010
0000
0001
0000
0000
,  // measure 78
1100
0000
0000
0010
0100
0000
0011
0000
2000
0100
0000
0010
0000
3001
0000
0000
,  // measure 79
0110
0000
1000
0100
1000
0000
0100
0010
0001
0000
0100
0001
0100
0000
0001
0010
,  // measure 80
0100
0000
1000
0100
0001
0000
0100
1000
0001
0000
0100
0000
0110
0000
0000
0000
,  // measure 81
1001
0000
0010
1000
0010
0000
1000
0001
0010
0000
0001
1000
0010
0000
0100
0001
,  // measure 82
0010
0000
0100
1000
0010
0000
1000
0001
1000
0000
0001
0000
1001
0000
0000
0000
,  // measure 83
0011
0000
2000
0000
3100
0000
0001
1000
0001
0000
0100
0001
0100
0000
0000
0000
,  // measure 84
1010
0000
0002
0000
0103
0000
1000
0010
0100
0000
0001
0010
0200
0000
0000
0000
,  // measure 85
1300
0100
1000
0010
1000
0001
1000
0010
,  // measure 86
1000
0100
0010
0001
,  // measure 87
0010
0001
0100
0010
1000
0100
1000
0001
,  // measure 88
0100
0010
1000
0001
,  // measure 89
1100
0000
0000
0000
0101
0000
0000
1000
0100
0000
0000
0010
0001
0000
0000
0000
,  // measure 90
0011
0000
0000
0000
1010
0000
0000
0001
0100
0000
0000
0010
1000
0000
0000
0000
,  // measure 91
0110
0000
0000
0000
1001
0000
0000
0010
0100
0000
0000
0001
1000
0000
0000
0001
,  // measure 92
0010
0001
0010
0001
0010
0000
0001
0000
1000
0000
0000
0000
1001
0000
0000
0000
,  // measure 93
0011
0000
0000
0000
1100
0000
0000
0010
1000
0000
0000
1000
0010
0000
0000
0000
,  // measure 94
1010
0000
0000
0000
0101
0000
0000
0010
0001
0000
0000
0001
0010
0000
0000
0000
,  // measure 95
1001
0000
0000
0000
0110
0000
0000
1000
0001
0000
0000
0010
0100
0000
0000
0000
,  // measure 96
1001
0010
0100
1001
,  // measure 97
0110
0000
0110
0000
1000
0100
0001
0000
,  // measure 98
1000
0010
0001
0000
1000
0001
1000
0000
,  // measure 99
0001
0010
0100
0010
0001
0100
1000
0100
,  // measure 100
0001
0100
0010
1000
0001
1000
0100
0010
,  // measure 101
0001
0000
0010
0001
0010
0000
0100
0010
0100
0000
1000
0100
1000
0000
0001
1000
,  // measure 102
0001
0000
1000
0010
1000
0000
0001
0100
0001
0000
0100
0010
0100
0000
0001
1000
,  // measure 103
0001
0010
0001
0010
0001
0010
0001
0010
0100
1000
0100
1000
0100
1000
0100
1000
,  // measure 104
0002
0000
2000
3003
1001
0000
0110
0000
,  // measure 105
1001
0000
0000
0000
;
