#TITLE:JOY TO THE WORLD;
#SUBTITLE:;
#ARTIST:VIOLENT STRING ENSAMBLE;
#TITLETRANSLIT:;
#SUBTITLETRANSLIT:;
#ARTISTTRANSLIT:;
#CREDIT:;
#BANNER:IKO-IKO-banner.png;
#BACKGROUND:IKO-IKO-bg.png;
#LYRICSPATH:;
#CDTITLE:;
#MUSIC:18-violent-string-ensamble-joy-to-the-world.mp3;
#OFFSET:0.424;
#SAMPLESTART:27.160;
#SAMPLELENGTH:15.000;
#SELECTABLE:YES;
#BPMS:0.000=176.760;
#STOPS:;
#BGCHANGES:;

//---------------dance-single - Copied from Blank----------------
#NOTES:
     dance-single:
     Copied from Blank:
     Hard:
     9:
     0.630,0.571,0.315,0.333,0.000:
0000
0000
0000
0000
,
0000
0000
0000
0000
,
0000
0000
0000
0000
,
0000
0000
0000
0000
,
0000
0000
0000
0000
1000
0010
0100
0010
,
2000
0000
0000
3001
0010
0001
0100
0010
,
0200
0000
0000
0301
0100
0010
1000
0001
,
2000
0000
3001
0000
0001
0100
1000
0100
,
0001
0000
1001
0000
1000
0100
1000
0001
,
0100
0001
1000
0100
0020
0000
0000
0031
,
1000
0000
0001
0100
0001
1000
0100
1000
,
0001
0010
0100
0000
1000
0010
0001
0010
,
1000
0001
0011
1000
,
1100
0000
0001
0000
1001
0001
0100
1000
,
0100
0001
0010
1000
0010
0000
0011
0000
,
1000
0000
1010
0000
1000
0100
0001
0100
,
1000
0010
0001
0010
1000
0000
2010
0000
,
0010
0000
3100
1000
0002
0000
0103
0000
,
1010
1001
2000
0100
,
3020
0000
0001
0000
1030
0100
0001
0100
,
0010
0001
1000
0001
2000
0000
3100
0010
,
0002
0000
0103
0010
1000
0010
0001
0010
,
1000
0000
1001
0000
0002
0000
0013
0100
,
2000
0000
3010
0100
0001
0010
1000
0010
,
0001
0000
1001
0000
0201
0000
0010
0010
,
0310
0000
1001
0000
2010
0000
0010
0010
,
3010
0000
1010
0000
1000
0100
0001
1000
,
0010
0001
1000
0001
0000
1000
1000
0010
,
0010
0100
0100
0001
0010
0001
1000
0100
,
2000
0000
0000
3100
1000
0001
0100
0010
,
2000
0000
0000
3001
0010
0100
0010
1000
,
0020
0000
0031
0000
0100
0010
1000
0001
,
0100
0000
0100
0001
1000
0100
0001
0100
,
2000
0000
0000
3010
0100
0001
1000
0010
,
0200
0000
0300
0001
1000
0100
0001
0100
,
0010
0000
0101
0000
0010
1000
0100
0001
,
0010
0000
1001
0000
0001
0010
0100
0010
,
1000
0010
0001
1000
0200
0000
0000
1300
,
0100
0000
1000
0001
0100
1000
0100
0001
,
0010
0100
1000
0000
0001
0010
1000
0010
,
0001
1010
0110
0101
,
1001
0000
1000
0010
0100
0001
0001
0010
,
0010
0100
0100
1000
1000
0000
0101
0000
,
1001
0000
0001
0010
0100
1000
1000
0010
,
0010
0100
0100
0001
0001
0000
1002
0000
,
0010
0000
1003
0100
0020
0000
0031
0000
,
1100
0011
0002
0100
,
0023
0000
1000
0000
0031
0010
1000
0010
,
0001
0100
1000
0100
0002
0000
1003
0001
,
2000
0000
3001
1000
0001
0100
1000
0100
,
0001
0000
0011
0000
2000
0000
3001
1000
,
0002
0000
0103
0010
1000
0010
0001
0010
,
1000
0000
1001
0000
0021
0000
0100
0100
,
0130
0000
1001
0000
2100
0000
0100
0100
,
3100
0000
1001
0000
1000
0100
0001
1000
,
0010
0001
1000
0001
0000
0010
0010
0001
,
0001
1000
1000
0010
0010
0100
0000
0100
,
0000
0100
0000
0100
0001
1000
0000
1000
,
0000
1000
0000
1000
0100
0001
0000
0001
,
0000
0001
0000
0001
0100
0010
0000
0010
,
0000
0010
0000
0010
0001
0100
0000
0100
,
0000
0100
0000
0100
0010
1000
0000
1000
,
0000
1000
0000
1000
0010
0001
0000
0001
,
0000
0001
0000
0001
0010
1000
0100
0010
,
0001
0000
1001
0000
0001
1000
0100
0001
,
0200
0000
0300
0010
0001
1000
0010
0100
,
0002
0000
0000
1003
0001
0100
1000
0100
,
0020
0000
0130
0000
0010
1000
0100
0010
,
0001
0000
1000
0001
0100
0010
0001
0010
,
2000
0000
0000
3010
0100
0001
1000
0100
,
2000
0000
0000
3010
0100
0001
0010
1000
,
0020
0000
0031
0000
1000
0100
0001
0010
,
1000
0001
1001
0000
;

//---------------dance-single - ----------------
#NOTES:
     dance-single:
     :
     Medium:
     6:
     0.423,0.470,0.472,0.352,0.000:
0000
0000
0000
0000
,
0000
0000
0000
0000
,
0000
0000
0000
0000
,
0000
0000
0000
0000
,
0000
0000
1000
1000
,
2000
3000
0001
0001
,
0002
0003
1000
0100
,
0001
0010
1000
0010
,
1001
1000
1000
0100
,
0010
0000
0001
0000
0100
0000
0010
1000
,
0100
0010
1100
0010
,
0101
0010
2002
0000
,
3003
1100
0011
1100
,
0011
0101
2020
0000
,
3030
1010
0101
1010
,
0101
0110
2002
0000
,
3003
0110
1001
2010
,
0001
3001
0100
0010
,
1000
0001
0101
1000
,
1100
0001
2001
0001
,
0001
3001
0200
0310
,
0020
0000
1030
0001
0200
0000
0000
0000
,
0300
0010
2000
3100
,
0002
0013
2002
0000
,
3003
0001
2200
0000
,
3300
1000
0202
0000
,
0303
1000
2100
0001
,
0001
3001
0000
0000
,
0000
0000
1000
0010
,
1000
0100
0001
0100
,
1000
0001
1000
0001
,
0100
0001
0010
1000
,
0010
0001
1000
0001
,
0100
0100
0010
1000
,
0100
0100
0010
0001
,
1000
0000
1000
0000
0001
0000
0100
0100
,
0110
1001
0001
0100
,
0010
0000
1000
0000
0100
0000
1000
0001
,
0100
0001
1000
0001
,
0010
0000
0100
0010
0001
0000
1000
0000
,
1000
0001
0101
1000
,
1100
0000
0001
0100
2000
0000
0000
0000
,
3000
1000
1001
0001
,
0011
0000
0001
0010
2000
0000
0000
0000
,
3000
0001
0010
0200
,
0001
1300
0020
0000
,
1030
0010
0110
1000
,
1010
0001
0102
1000
,
1000
1003
0002
0103
,
0020
0000
1030
0001
2000
0000
0000
0000
,
3000
0010
0002
0103
,
2000
3010
0200
0001
,
0310
0010
2002
0000
,
3003
0100
2002
0000
,
3003
0001
0012
1000
,
1000
1003
0000
0000
,
0000
0000
1001
0000
,
0000
0000
1010
0000
,
1001
0000
0011
0000
,
1001
0000
0101
0000
,
0110
0000
1010
0000
,
0000
0000
0110
0000
,
0011
0000
1100
0000
,
1001
0000
0000
0000
0001
1000
0001
1000
,
0001
0000
1000
1000
,
0100
0100
1000
0001
,
0100
0010
1000
1000
,
0010
0010
0001
0010
,
1000
0100
0001
0001
,
0100
0100
0010
0001
,
1000
0001
1000
1000
,
0001
0001
1000
0100
,
0001
0010
1001
0000
;

//---------------dance-single - ----------------
#NOTES:
     dance-single:
     :
     Easy:
     4:
     0.277,0.336,0.148,0.333,0.000:
0000
0000
0000
0000
,
0000
0000
0000
0000
,
0000
0000
0000
0000
,
0000
0000
0000
0000
,
0000
0000
1000
1000
,
0010
0000
0010
0010
,
0100
0000
0100
0100
,
0001
0000
1000
0001
,
1001
0000
1000
0000
,
1000
0000
0001
0000
,
0001
0000
0010
0100
,
0010
0001
2000
0000
,
3000
0001
0001
0001
,
0001
0001
2000
0000
,
3000
1000
1000
1000
,
1000
1000
0002
0000
,
0003
0010
0100
0010
,
0000
0010
0001
0010
,
0000
0010
1000
0010
,
0001
0010
2002
0000
,
0000
3003
2000
0000
,
3200
0000
0320
0000
,
0030
0000
0002
0000
,
0023
0000
0230
0000
,
0300
1000
2002
0000
,
3003
1000
2002
0000
,
3003
1000
2002
0000
,
0000
0000
3003
0000
,
0000
0000
0001
0000
,
0001
0000
0100
0000
,
0001
0000
1000
0000
,
0100
0000
1000
0000
,
1000
0000
0010
0000
,
0010
0000
0100
0000
,
0100
0000
0001
0000
,
1000
0000
1000
0100
,
0010
0011
0001
0000
,
1000
0000
0001
0000
,
0100
0010
1000
0100
,
0010
0001
2000
0000
,
3000
0010
0010
0010
,
0010
0110
2002
0000
,
3003
0100
0100
0100
,
0100
0110
2002
0000
,
3003
1000
0100
1000
,
0000
0001
0100
0001
,
0000
0001
1000
0100
,
0001
0100
2002
0000
,
0000
3003
0002
0000
,
0203
0000
2300
0000
,
3000
0000
2000
0000
,
3200
0000
0302
0000
,
0003
0010
0022
0000
,
0033
1000
2200
0000
,
3300
1000
2002
0000
,
0000
0000
3003
0000
,
0000
0000
1000
0000
,
0000
0000
0001
0000
,
0000
0000
1000
0000
,
0000
0000
0001
0000
,
0000
0000
0010
0000
,
0000
0000
0100
0000
,
0000
0000
0010
0000
,
0000
0000
0100
0000
,
1001
0000
1000
1000
,
1000
0000
0001
0001
,
0001
0000
0010
0010
,
0010
0000
0100
0100
,
0100
0000
1000
0100
,
1000
0000
0010
0100
,
0010
0000
0001
0010
,
0001
1000
0100
1000
,
0001
1000
1001
0000
;

//---------------dance-double - Copied from----------------
#NOTES:
     dance-double:
     Copied from:
     Hard:
     9:
     0.619,0.571,0.324,0.222,0.000:
00000000
00000000
00000000
00000000
,
00000000
00000000
00000000
00000000
,
00000000
00000000
00000000
00000000
,
00000000
00000000
00000000
00000000
,
00000000
00000000
00000000
00000000
00010000
00001000
00010000
01000000
,
00200000
00000000
00300000
00001000
00010000
00000100
00000010
00000001
,
00002000
00000000
00000000
00003001
00001000
00000100
00010000
00001000
,
00100000
00000000
10010000
00000000
00010000
01000000
10000000
01000000
,
00010000
00000000
10010000
00000000
10000000
01000000
10000000
01000000
,
00100000
00001000
00100000
00001000
00020000
00000000
01000000
00000000
,
00031000
00000000
00011000
00000000
00010000
00000100
00010000
00000100
,
00000010
00000001
00000010
00000000
00000001
00000100
00001000
00000100
,
00000001
00001000
00010100
00100000
,
10010000
00000000
10000000
00000000
10000000
00010000
01000000
00001000
,
00010000
00000100
00010000
00000010
00001000
00000000
00000101
00000000
,
00001000
00000000
00011000
00000000
00010000
00001000
00100000
00010000
,
01000000
00100000
10000000
00010000
00200000
00000000
00001000
00000000
,
00301000
00010000
00001000
00000000
00000200
00000000
00000010
00000000
,
00001300
00010000
00001000
00000000
01001000
00000000
00001000
00000000
,
00010010
00000000
00000010
00000000
00001000
00000100
00010000
00001000
,
00100000
00010000
10000000
00010000
02000000
00000000
03100000
10000000
,
02000000
00000000
03010000
00001000
00100000
00001000
00010000
00000100
,
00010000
00000000
00010100
00000000
00000020
00000000
00000031
00000010
,
00000200
00000000
00001300
00000010
00000100
00000010
00010000
00001000
,
00010000
00000000
01010000
00000000
20100000
00000000
00100000
00100000
,
30100000
00000000
01100000
00000000
02001000
00000000
00001000
00001000
,
03001000
00000000
00011000
00000000
00001000
00010000
01000000
00100000
,
00010000
01000000
00100000
10000000
00000000
10000000
10000000
00100000
,
00100000
00010000
00010000
00001000
00100000
00001000
00000100
00000010
,
00000200
00000000
00000000
00000301
00001000
00000100
00010000
00001000
,
00020000
00000000
00000000
01030000
00100000
00010000
10000000
00010000
,
01000000
00000000
00011000
00000000
00010000
00001000
00000100
00000010
,
00001000
00000000
00000001
00000100
00001000
00010000
01000000
00100000
,
00010000
00000000
00000000
01000000
00100000
10000000
00010000
01000000
,
00001000
00000000
00000000
00010000
00001000
00010000
00000100
00000010
,
00000001
00000000
00001001
00000000
00000001
00000100
00001000
00010000
,
00001000
00000000
00011000
00000000
00010000
01000000
00100000
00010000
,
10000000
01000000
10000000
00010000
02000000
00000000
00001000
00000000
,
03100000
00000000
10000000
00100000
10000000
00100000
01000000
00001000
,
01000000
00001000
00010000
00000000
00001000
00000100
00000001
00000100
,
00001000
00000101
00000110
00001010
,
00010100
00000000
00100000
01000000
10000000
00010000
10000000
00100000
,
10000000
01000000
10000000
00000000
01100000
00000000
01010000
00000000
,
00101000
00000000
00000010
00001000
00000001
00001000
00000001
00000010
,
00000001
00000100
00000001
00001000
00000002
00000000
00000103
00000000
,
00001000
00010000
01000000
10000000
00020000
00000000
10000000
00030000
,
01000000
10000000
01000000
00000000
00200000
00000000
00301000
00010000
,
00002000
00000000
00003100
00000010
00001000
00000100
00010000
00001000
,
00100000
00001000
01000000
00010000
02000000
00000000
03100000
10000000
,
02000000
00000000
13000000
01000000
00010000
00001000
00010000
00001000
,
00010000
00000000
00010100
00000000
00000100
00000010
00000002
00000000
,
00000103
00000010
00002000
00000000
00003100
00010000
00001000
00010000
,
00001000
00000000
00011000
00000000
02010000
00000000
00001000
00001000
,
03001000
00000000
00011000
00000000
00001020
00000000
00010000
00010030
,
00010000
00000000
00000011
00000000
00000001
00001000
00000100
00010000
,
00001000
01000000
00100000
10000000
00000000
10000000
00010000
10000000
,
00010000
10000000
00010000
10000000
01000000
00010000
00000000
00010000
,
00000000
00010000
00000000
00010000
00001000
00000100
00000000
00000100
,
00000000
00000100
00000000
00000100
00000010
00001000
00000000
00001000
,
00000000
00001000
00000000
00001000
00000100
00010000
00000000
00010000
,
00000000
00010000
00000000
00010000
01000000
00100000
00000000
00100000
,
00000000
00100000
00000000
00100000
00001000
01000000
00000000
01000000
,
00000000
01000000
00000000
01000000
00100000
10000000
00000000
10000000
,
00000000
10000000
00000000
10000000
00010000
01000000
00001000
00010000
,
00001000
00000000
00011000
00000000
00001000
00010000
00000100
00000010
,
00000001
00000000
00000000
00001000
00000100
00010000
00001000
00100000
,
00010000
00000000
00000000
10000000
01000000
10000000
00010000
01000000
,
00100000
00000000
01100000
00000000
00100000
10000000
01000000
00100000
,
00010000
00000000
10000000
00100000
00010000
00001000
00000100
00000010
,
00001000
00000000
00000000
00000001
00000100
00001000
00010000
00001000
,
00100000
00000000
00000000
00010000
01000000
00100000
10000000
00100000
,
01000000
00000000
01010000
00000000
10000000
01000000
00010000
00001000
,
00010000
00001000
00011000
00000000
;

//---------------dance-double - Copied from----------------
#NOTES:
     dance-double:
     Copied from:
     Medium:
     6:
     0.427,0.470,0.491,0.361,0.000:
00000000
00000000
00000000
00000000
,
00000000
00000000
00000000
00000000
,
00000000
00000000
00000000
00000000
,
00000000
00000000
00000000
00000000
,
00000000
00000000
10000000
10000000
,
20000000
30000000
01000000
01000000
,
02000000
03000000
00010000
00001000
,
00000100
00000010
00001000
00000001
,
00001001
00000001
00000100
00000010
,
00001000
00000000
00000100
00000000
00010000
00000000
00001000
00010000
,
00001000
00100000
11000000
01000000
,
00110000
00100000
00022000
00000000
,
00033000
00110000
00011000
00001100
,
00001001
00000101
00000220
00000000
,
00000330
00000011
00001001
00010100
,
00110000
01100000
20020000
00000000
,
30030000
00110000
10010000
01002000
,
00010000
00013000
00020000
00030100
,
00000010
00000001
00001001
00001000
,
00001100
00000001
00001002
00001000
,
00001000
00001003
00000020
00010030
,
02000000
00000000
03100000
00010000
20000000
00000000
00000000
00000000
,
30000000
10000000
00020000
01030000
,
00002000
00013000
00022000
00000000
,
00033000
00010000
00202000
00000000
,
00303000
00001000
00020200
00000000
,
00030300
00001000
00001002
00001000
,
00001000
00001003
00000000
00000000
,
00000000
00000000
00000001
00000100
,
00001000
00010000
00001000
00100000
,
00010000
10000000
00100000
00010000
,
00001000
00010000
00000100
00000010
,
00000001
00001000
00000100
00010000
,
00001000
00100000
00010000
10000000
,
01000000
01000000
00100000
00010000
,
10000000
00000000
10000000
00000000
00010000
00000000
01000000
01000000
,
01010000
00101000
00001000
00010000
,
00000100
00000000
00000010
00000000
00000001
00000000
00001000
00000001
,
00000100
00001000
00011000
00010000
,
00001000
00000000
01000000
00100000
10000000
00000000
10010000
00000000
,
10010000
00010000
01010000
10000000
,
11000000
00000000
10000000
01000000
00020000
00000000
00000000
00000000
,
00000000
00031000
00011000
00010000
,
00000100
00000000
00000010
00000001
00002000
00000000
00000000
00000000
,
00000000
00003100
00010000
00002000
,
00010000
01003000
00200000
00000000
,
10300000
00100000
10100000
00010000
,
01010000
00010000
02010000
00001000
,
00001000
03001000
00020000
00031000
,
00000200
00000000
00000310
00001000
00000200
00000000
00000000
00000000
,
00000300
00001000
00000002
00000103
,
00002000
00013000
02000000
00100000
,
03100000
01000000
20020000
00000000
,
30030000
01000000
20020000
00000000
,
30030000
00010000
00210000
00001000
,
00001000
00301000
00000000
00000000
,
00000000
00000000
00011000
00000000
,
00000000
00000000
00110000
00000000
,
10010000
00000000
10100000
00000000
,
01010000
00000000
00011000
00000000
,
00001100
00000000
00000110
00000000
,
00000000
00000000
00000101
00000000
,
00001001
00000000
00001100
00000000
,
00011000
00000000
00000000
00000000
00001000
00010000
00001000
00010000
,
00001000
00000000
00010000
00010000
,
01000000
01000000
10000000
00010000
,
01000000
00001000
00010000
00010000
,
00000100
00000100
00000010
00000001
,
00001000
00000100
00010000
00010000
,
00001000
00001000
00100000
00010000
,
10000000
00010000
01000000
01000000
,
00001000
00001000
00100000
00001000
,
00010000
00001000
00011000
00000000
;

//---------------dance-double - Copied from ----------------
#NOTES:
     dance-double:
     Copied from:
     Easy:
     4:
     0.278,0.336,0.148,0.333,0.000: // measure 1
00000000
00000000
00000000
00000000
,  // measure 2
00000000
00000000
00000000
00000000
,  // measure 3
00000000
00000000
00000000
00000000
,  // measure 4
00000000
00000000
00000000
00000000
,  // measure 5
00000000
00000000
10000000
10000000
,  // measure 6
00100000
00000000
00100000
00100000
,  // measure 7
00010000
00000000
00001000
00001000
,  // measure 8
00000100
00000000
00000001
00001000
,  // measure 9
00001001
00000000
00000001
00000000
,  // measure 10
00000001
00000000
00000100
00000000
,  // measure 11
00000100
00000000
00000010
00010000
,  // measure 12
00001000
00010000
02000000
00000000
,  // measure 13
03000000
00001000
00001000
00001000
,  // measure 14
00001000
00001000
00020000
00000000
,  // measure 15
00030000
01000000
01000000
01000000
,  // measure 16
01000000
01000000
00200000
00000000
,  // measure 17
00300000
00010000
10000000
00100000
,  // measure 18
00000000
01000000
00001000
00010000
,  // measure 19
00000100
00000010
00000001
00001000
,  // measure 20
00000001
00001000
00002002
00000000
,  // measure 21
00003003
00000000
00000002
00000000
,  // measure 22
00000203
00000000
00002300
00000000
,  // measure 23
00003000
00000000
00020000
00000000
,  // measure 24
02030000
00000000
23000000
00000000
,  // measure 25
30000000
10000000
20020000
00000000
,  // measure 26
30030000
00010000
20020000
00000000
,  // measure 27
30030000
01000000
20020000
00000000
,  // measure 28
00000000
00000000
30030000
00000000
,  // measure 29
00000000
00000000
00001000
00000000
,  // measure 30
00001000
00000000
00010000
00000000
,  // measure 31
00010000
00000000
00000100
00000000
,  // measure 32
00000100
00000000
00000010
00000000
,  // measure 33
00000010
00000000
00000001
00000000
,  // measure 34
00000001
00000000
00001000
00000000
,  // measure 35
00001000
00000000
00000100
00000000
,  // measure 36
00000100
00000000
00010000
00001000
,  // measure 37
00010000
00011000
00010000
00000000
,  // measure 38
01000000
00000000
00100000
00000000
,  // measure 39
01000000
00100000
00010000
01000000
,  // measure 40
00001000
00010000
00002000
00000000
,  // measure 41
00003000
00100000
00100000
00100000
,  // measure 42
00100000
00110000
00022000
00000000
,  // measure 43
00033000
00000100
00000100
00000100
,  // measure 44
00000100
00001100
00022000
00000000
,  // measure 45
00033000
00001000
00010000
00001000
,  // measure 46
00000000
00000100
00000010
00000100
,  // measure 47
00000000
00000010
00001000
00000100
,  // measure 48
00000010
00000001
00002002
00000000
,  // measure 49
00000000
00003003
00000002
00000000
,  // measure 50
00000023
00000000
00002030
00000000
,  // measure 51
00003000
00000000
00020000
00000000
,  // measure 52
00230000
00000000
20300000
00000000
,  // measure 53
30000000
00100000
00220000
00000000
,  // measure 54
00330000
10000000
22000000
00000000
,  // measure 55
33000000
10000000
20020000
00000000
,  // measure 56
00000000
00000000
30030000
00000000
,  // measure 57
00000000
00000000
10000000
00000000
,  // measure 58
00000000
00000000
00100000
00000000
,  // measure 59
00000000
00000000
01000000
00000000
,  // measure 60
00000000
00000000
00001000
00000000
,  // measure 61
00000000
00000000
00010000
00000000
,  // measure 62
00000000
00000000
00001000
00000000
,  // measure 63
00000000
00000000
00010000
00000000
,  // measure 64
00000000
00000000
00000100
00000000
,  // measure 65
00001001
00000000
00000001
00000001
,  // measure 66
00000001
00000000
00000100
00000100
,  // measure 67
00000100
00000000
00001000
00001000
,  // measure 68
00001000
00000000
00010000
00010000
,  // measure 69
00010000
00000000
01000000
00100000
,  // measure 70
01000000
00000000
00100000
00001000
,  // measure 71
00010000
00000000
00001000
01000000
,  // measure 72
00100000
10000000
01000000
10000000
,  // measure 73
00010000
10000000
10010000
00000000
;
