#TITLE:In Excelsius Deo;
#SUBTITLE:;
#ARTIST:Dynamo & JP feat Felicia;
#TITLETRANSLIT:;
#SUBTITLETRANSLIT:;
#ARTISTTRANSLIT:;
#CREDIT:;
#BANNER:In Excelsius Deo BN.png;
#BACKGROUND:In Excelsius Deo BG.png;
#LYRICSPATH:In Excelsius Deo.lrc;
#CDTITLE:;
#MUSIC:In Excelsius Deo.mp3;
#OFFSET:-3.510;
#SAMPLESTART:41.800;
#SAMPLELENGTH:16.500;
#SELECTABLE:YES;
#BPMS:0.000=137.700,54.000=275.400,58.000=137.700,208.000=68.850;
#STOPS:;
#BGCHANGES:;

//---------------dance-single - ----------------
#NOTES:
     dance-single:
     :
     Hard:
     8:
     0.472,0.617,0.315,0.482,0.199:
0000
0000
0000
0000
,
0000
0000
0000
0000
,
1000
0000
0100
1000
0000
0100
1000
0000
0001
0000
0100
0001
0000
0100
0001
0000
,
1000
0000
0010
1000
0000
0010
1000
0000
0001
0000
1000
0010
0000
0100
0001
0000
,
1000
0000
0001
0100
0000
0100
0010
0000
1000
0000
0010
0100
0000
0001
0100
0000
,
0010
0000
1000
0100
0000
1000
0010
0000
0100
0000
0001
0010
0000
0001
1000
0000
,
1001
0000
0000
1000
0200
0000
0320
0000
,
0032
0023
2030
3000
,
0001
0001
0000
0010
0010
0000
0000
0100
,
0100
0000
1000
1000
1000
0000
0000
0000
,
2001
0000
3200
0000
0320
0000
0000
0031
,
0020
2030
3002
0003
,
1000
1000
0000
0001
0001
0000
0000
0000
,
1000
0000
1000
1000
1000
0000
0000
0000
,
0000
0000
1001
1100
,
0110
0011
0001
1000
,
0002
0000
2003
3200
,
0320
0032
0203
0320
,
2030
0000
0000
3000
2001
0000
0000
3001
,
1001
0110
1100
0110
,
1001
0000
0002
0023
,
0230
0000
0300
1000
0020
0000
0230
0000
,
0302
0000
0000
0003
1001
0000
0000
0100
,
1100
0110
1001
1100
,
0011
0000
0000
0000
0002
0000
1003
0010
,
2000
0000
0000
3100
0020
0000
0031
0000
,
2002
0000
0000
0000
,
0000
0000
3003
0000
,
2001
0000
0000
0000
0001
0001
0001
0001
,
0001
0000
0000
0000
0100
0100
0100
0100
,
0100
0000
0000
0000
0010
0010
0010
0010
,
0010
0000
0000
3001
0010
0000
0000
0000
,
1100
0110
1100
1001
,
0002
0000
0203
0000
,
0310
0000
1000
0100
0000
1000
0100
0000
0010
0000
0001
0100
0000
0001
0100
0000
,
0010
0000
1000
0100
0000
1000
0100
0000
0010
0000
0001
0000
0001
0000
0001
0000
,
2000
0000
0000
0000
0010
3010
0100
0100
,
0002
0000
0000
0000
0100
0100
0100
0100
,
0203
0000
0000
0000
0310
0010
1000
1000
,
0002
0000
0000
1003
0100
0000
0000
0000
,
0011
1001
1100
0011
,
0002
0000
0203
0000
,
0310
0000
1000
0100
0000
1000
0100
0000
0010
0000
0001
0100
0000
0001
0100
0010
,
1000
0000
0010
0100
0010
0000
1000
0100
1000
0000
0001
0100
0001
0000
1000
0000
,
2001
0000
0000
0000
0001
0001
0001
0001
,
0001
0000
0000
0000
0010
0010
0010
0010
,
0010
0000
0000
0000
0100
0100
0100
0100
,
0100
0000
0000
3001
0020
0000
0030
0000
,
0011
0110
1100
1010
,
2002
0003
0200
0300
,
3001
0000
0010
0100
0000
0010
0100
0000
1000
0000
0100
0010
0000
0100
0010
0000
,
0001
0000
0010
0100
0000
0010
0100
0000
1000
0000
0001
0000
0001
0000
0001
0000
,
0020
0000
0000
0000
0031
1000
0100
0010
0200
0000
0000
0000
0310
0001
1000
0010
,
0200
0000
0000
0000
0301
0010
0100
1000
0200
0000
0000
0310
0001
0000
0000
0000
,
1000
0100
0010
0001
0200
0000
0302
0000
,
2000
0000
3003
0000
;

//---------------dance-single - ----------------
#NOTES:
     dance-single:
     :
     Medium:
     5:
     0.295,0.411,0.009,0.352,0.046:
0000
0000
0000
0000
,
1000
0000
0000
1000
0000
0000
0000
0000
0001
0000
0000
0001
0000
0000
0000
0000
,
1000
0000
0000
1000
0000
0000
0000
0000
0001
0000
0000
0001
0000
0000
0000
0000
,
1000
0000
0000
1000
0000
0000
0000
0000
0100
0000
0000
0100
0000
0000
0000
0000
,
0010
0000
0000
0010
0000
0000
0000
0000
1000
0000
0000
1000
0000
0000
0000
0000
,
0001
0000
0000
0001
0000
0000
0000
0000
1000
0000
0000
1000
0000
0000
0000
0000
,
1001
0000
0000
0001
0100
0000
0100
0000
,
0010
0010
1000
0000
,
1000
0000
0001
0000
,
0100
0010
1000
0000
,
0002
0000
0203
0000
0320
0000
0000
1000
,
2030
3200
0301
0000
,
1000
0000
0001
0000
,
0100
0001
0001
0000
,
0000
0000
1000
1000
,
0100
0010
0001
0100
,
0010
0000
1000
0010
,
0100
0001
0010
0100
,
1000
0000
0000
0000
1000
0000
0000
0100
,
0010
0010
0001
0001
,
0100
0000
0010
0010
,
0010
0000
0000
1000
0001
0000
0100
0000
,
0010
0000
0000
0000
1000
0000
0000
0100
,
0010
0010
0001
1000
,
0100
0000
0010
0001
,
1000
0000
0000
0100
0010
0000
0010
0000
,
0020
0000
0000
0000
,
0000
0000
0000
0000
,
0032
0000
0000
0000
1000
1000
1000
0000
,
0100
0000
0000
0000
0010
0010
0010
0000
,
1000
0000
0000
0000
0100
0100
0100
0000
,
0010
0000
0000
0013
0100
0000
0000
0000
,
2000
3200
0320
0032
,
0203
0000
0320
0000
,
2000
0000
3030
0000
,
1000
0000
0001
0000
,
2000
0000
0000
0000
0010
0010
0010
0000
,
0001
0000
0000
0000
0100
0100
0100
0000
,
0001
0000
0000
0000
0010
0010
0010
0000
,
0001
0000
0000
3010
0001
0000
0000
0000
,
0002
0023
2030
3020
,
0230
0000
0302
0000
,
2000
0000
0000
3003
,
0001
0001
0100
0100
0010
0010
1000
1000
,
0002
0000
0000
0000
1000
1000
1000
0000
,
0100
0000
0000
0000
0010
0010
0010
0000
,
1000
0000
0000
0000
0100
0100
0100
0000
,
0010
0000
0000
1003
0010
0000
0000
0000
,
0002
0023
0230
2300
,
3020
0000
0230
0000
,
0302
0000
0000
0000
,
2003
0000
0000
0000
3100
0000
0001
0001
,
0002
0000
1003
0100
0020
0000
0031
0100
,
0020
0000
1030
0010
2000
0000
3001
0000
,
1000
0010
0100
0001
0200
0000
0320
0000
,
2030
0000
3000
0000
;

//---------------dance-single - ----------------
#NOTES:
     dance-single:
     :
     Easy:
     3:
     0.226,0.334,0.009,0.194,0.000: // measure 1
0000
0000
0000
0000
,  // measure 2
1000
0000
0001
0000
,  // measure 3
1000
0010
0100
0000
,  // measure 4
0001
0100
0010
0000
,  // measure 5
2000
0000
3001
0000
,  // measure 6
0002
0000
1003
0000
,  // measure 7
1000
0000
0010
0100
,  // measure 8
0001
0100
0010
0000
,  // measure 9
1000
0000
0001
0000
,  // measure 10
0100
0000
0010
0000
,  // measure 11
1000
0010
0100
0000
,  // measure 12
0001
0100
0010
0000
,  // measure 13
2000
0000
3001
0000
,  // measure 14
0002
0000
0000
0000
1000
0003
0000
0000
,  // measure 15
0000
0000
1000
0100
,  // measure 16
0010
0001
0100
0010
,  // measure 17
1000
0000
0001
0100
,  // measure 18
0010
1000
0100
0010
,  // measure 19
0001
0000
1000
0000
,  // measure 20
0100
0010
0001
0100
,  // measure 21
0010
0000
1000
0100
,  // measure 22
0010
0000
0001
0100
,  // measure 23
0010
0000
2000
0000
,  // measure 24
0001
0001
0100
0100
,  // measure 25
3010
0000
0001
0100
,  // measure 26
0010
0000
1000
0001
,  // measure 27
2000
0000
0000
0000
,  // measure 28
0000
0000
0000
0000
,  // measure 29
3002
0000
1000
1000
,  // measure 30
1000
0000
0100
0100
,  // measure 31
0100
0000
0010
0010
,  // measure 32
0010
0000
1003
0000
,  // measure 33
0100
0010
0001
1000
,  // measure 34
0200
0000
0320
0000
,  // measure 35
0032
0000
0003
0000
,  // measure 36
1000
0000
0001
0000
,  // measure 37
2000
0000
0010
0010
,  // measure 38
0010
0000
0001
0001
,  // measure 39
0001
0000
0100
0100
,  // measure 40
0100
0000
3001
0000
,  // measure 41
0100
0010
0001
1000
,  // measure 42
0020
0000
0230
0000
,  // measure 43
0302
0000
0003
0000
,  // measure 44
1000
1000
1000
1000
,  // measure 45
2000
0000
0010
0010
,  // measure 46
0010
0000
0100
0100
,  // measure 47
0100
0000
0001
0001
,  // measure 48
0001
0000
3010
0000
,  // measure 49
0001
0100
0010
1000
,  // measure 50
0002
0000
0023
0000
,  // measure 51
0230
0000
1300
0000
,  // measure 52
0001
0000
1000
0000
,  // measure 53
1001
0000
0010
0100
1000
0000
0001
0100
,  // measure 54
0010
0000
1000
0010
0100
0000
0001
0000
,  // measure 55
1000
0010
0200
0302
,  // measure 56
2003
0000
3000
0000
;
