#TITLE:Ice Palace;
#SUBTITLE:;
#ARTIST:Miguel Samiez;
#TITLETRANSLIT:;
#SUBTITLETRANSLIT:;
#ARTISTTRANSLIT:;
#CREDIT:348;
#BANNER:Ice Palace Banner.png;
#BACKGROUND:Ice Palace Background.png;
#LYRICSPATH:;
#CDTITLE:;
#MUSIC:Ice Palace.ogg;
#OFFSET:-0.049;
#SAMPLESTART:17.826;
#SAMPLELENGTH:15.000;
#SELECTABLE:YES;
#BPMS:0.000=108.000;
#STOPS:;
#BGCHANGES:;

//---------------dance-single - ----------------
#NOTES:
     dance-single:
     :
     Beginner:
     1:
     0.087,0.112,0.000,0.000,0.000:
0000
0000
0000
0000
,
0000
0000
0000
0000
,
0000
0000
0000
0000
,
0000
0000
0000
0000
,
1000
0000
0000
0000
,
0001
0000
0000
0000
,
1000
0000
0000
0000
,
0001
0000
0000
0000
,
1000
1000
0000
0000
,
0010
0010
0000
0000
,
0100
0100
0000
0000
,
0001
0001
0000
0000
,
1000
0000
0000
0000
,
0100
0000
0000
0000
,
0010
0000
0000
0000
,
0001
0000
0000
0000
,
1000
0000
0000
0000
,
0100
0000
1000
0000
,
0001
0000
0000
0000
,
0010
0000
0001
0000
,
0100
0000
0000
0000
,
0001
0000
0100
0000
,
0010
0000
0000
0000
,
1000
0000
0010
0000
,
0100
0000
0000
0001
,
0001
0000
0000
1000
,
1000
0000
0000
0000
,
0010
0000
0010
0000
,
1000
0000
0000
0010
,
0010
0000
0000
0100
,
0100
0000
0000
0000
,
0001
0000
0001
0000
,
1000
0000
1000
0000
,
1000
0000
0000
0000
,
0001
0000
0001
0000
,
0001
0000
0000
0000
,
0100
0000
0100
0000
,
0100
0000
0000
0000
,
0010
0000
0010
0000
,
0010
0000
0000
0000
,
1000
0000
0000
0000
,
0001
0000
0000
0000
,
0100
0000
0000
0000
,
0010
0000
0000
0000
,
0100
0000
0000
0000
,
0010
0000
0000
0000
,
1000
0000
0000
0000
,
0001
0000
0000
0000
,
1000
0000
0000
1000
,
1000
0000
0000
0000
,
0001
0000
0000
0001
,
0001
0000
0000
0000
,
0010
0000
0000
0010
,
0010
0000
0000
0000
,
0100
0000
0000
0100
,
0100
0000
0000
0000
,
1000
0000
0000
0000
,
0001
0000
0000
0001
,
0001
0000
0000
0000
,
1000
0000
0000
1000
,
1000
0000
0000
0000
,
0010
0000
0000
0010
,
0010
0000
0000
0000
,
0100
0000
0000
0100
,
0100
0000
0000
0000
;

//---------------dance-single - ----------------
#NOTES:
     dance-single:
     :
     Easy:
     2:
     0.159,0.157,0.014,0.281,0.000: // measure 1
0000
0000
0000
0000
,  // measure 2
0000
0000
0000
0000
,  // measure 3
0000
0000
0000
0000
,  // measure 4
0000
0000
0000
0000
,  // measure 5
1000
0000
0000
0001
,  // measure 6
0001
0000
0000
0100
,  // measure 7
0100
0000
0000
0010
,  // measure 8
0010
0000
0000
1000
,  // measure 9
0000
0002
0000
0103
,  // measure 10
0000
0200
0000
0310
,  // measure 11
0000
0020
0000
1030
,  // measure 12
0000
2000
0000
3001
,  // measure 13
0000
0002
0000
0013
,  // measure 14
0000
0020
0000
0130
,  // measure 15
0000
0200
0000
1300
,  // measure 16
0000
2000
0000
3010
,  // measure 17
0020
0000
0000
0030
,  // measure 18
2000
0000
3001
0000
,  // measure 19
0002
0000
0000
0003
,  // measure 20
0200
0000
0310
0000
,  // measure 21
2000
0000
0000
3000
,  // measure 22
0020
0000
0130
0000
,  // measure 23
0200
0000
0000
0300
,  // measure 24
0002
0000
1003
0000
,  // measure 25
1000
0000
0000
0001
,  // measure 26
0002
0003
2000
3000
,  // measure 27
0010
0000
0000
0100
,  // measure 28
0200
0300
0020
0030
,  // measure 29
1000
0000
0000
1000
,  // measure 30
0200
0300
0020
0030
,  // measure 31
0010
0000
0000
0010
,  // measure 32
0002
0003
2000
3000
,  // measure 33
0002
0000
0000
0003
,  // measure 34
2000
3000
0001
1000
,  // measure 35
0020
0000
0000
0030
,  // measure 36
0200
0300
0010
0100
,  // measure 37
0020
0000
0000
0030
,  // measure 38
2000
3000
0001
0100
,  // measure 39
0002
0000
0000
0003
,  // measure 40
2000
3000
0010
1000
,  // measure 41
0001
0000
0100
0000
,  // measure 42
1000
0000
0100
0000
,  // measure 43
0001
0000
0010
0000
,  // measure 44
1000
0000
0010
0000
,  // measure 45
1001
0000
0000
0000
,  // measure 46
0100
0100
0000
0010
,  // measure 47
0110
0000
0000
0000
,  // measure 48
0001
0001
0000
1000
,  // measure 49
0001
0000
1000
0000
,  // measure 50
0002
0003
0000
1000
,  // measure 51
0010
0000
0100
0000
,  // measure 52
0020
0030
0000
0100
,  // measure 53
0001
0000
0000
1000
,  // measure 54
0200
0300
1000
0000
,  // measure 55
0010
0000
0000
0100
,  // measure 56
0002
0003
0100
0000
,  // measure 57
0010
0010
0000
0000
,  // measure 58
1000
0000
2000
0000
,  // measure 59
3001
0001
0000
0000
,  // measure 60
0100
0000
0200
0000
,  // measure 61
0301
0000
0010
0000
,  // measure 62
0100
0000
2000
0000
,  // measure 63
3001
0000
0100
0000
,  // measure 64
0010
0000
2000
0000
,  // measure 65
3000
0000
0000
0000
;

//---------------dance-single - ----------------
#NOTES:
     dance-single:
     :
     Medium:
     5:
     0.319,0.360,0.042,0.520,0.000: // measure 1
0000
0000
0000
0000
,  // measure 2
0000
0000
0000
0000
,  // measure 3
0000
0000
0000
0000
,  // measure 4
0000
0000
0000
0000
,  // measure 5
0010
0000
0000
1000
0000
0000
0001
0000
,  // measure 6
0001
0000
0000
1000
0000
0000
0100
0000
,  // measure 7
1000
0000
0000
0001
0000
0000
0100
0000
,  // measure 8
0100
0000
0000
0001
0000
0000
0010
0000
,  // measure 9
0020
0031
0200
0301
,  // measure 10
2000
3100
2000
3001
,  // measure 11
0002
0103
0020
1030
,  // measure 12
0200
1300
0002
1003
,  // measure 13
0200
0301
0020
1030
,  // measure 14
2000
3001
0002
1003
,  // measure 15
0200
0301
0002
0103
,  // measure 16
0020
1030
2000
3010
,  // measure 17
0020
0000
0100
0130
,  // measure 18
2000
3001
0002
1003
,  // measure 19
0002
0000
1000
1003
,  // measure 20
0002
0023
0230
2300
,  // measure 21
3200
0000
1000
1300
,  // measure 22
2000
0100
3020
0100
,  // measure 23
2030
3001
0002
0013
,  // measure 24
0200
0000
2300
3002
,  // measure 25
2003
0000
0000
3001
,  // measure 26
0200
0000
0301
0010
,  // measure 27
0002
0000
0023
0000
,  // measure 28
0031
0100
0010
1000
,  // measure 29
0020
0000
0000
0030
,  // measure 30
0200
0300
0002
0003
,  // measure 31
2000
3100
0001
0100
,  // measure 32
1000
0100
0010
0001
,  // measure 33
2000
0000
3000
0000
0001
0010
0001
0000
,  // measure 34
0100
0010
0200
0010
,  // measure 35
0302
0000
0003
0000
1000
0010
1000
0000
,  // measure 36
0010
0100
0200
0010
,  // measure 37
0301
0000
0200
0000
0000
1300
0100
0000
,  // measure 38
0001
0000
0020
0000
0000
1030
0010
0000
,  // measure 39
0001
0000
0010
0000
0100
1000
0200
0000
,  // measure 40
1300
0000
0001
0000
0100
0001
0200
0000
,  // measure 41
0301
1000
0100
0011
,  // measure 42
1000
0000
0001
0000
1000
0100
1000
0000
,  // measure 43
0001
1000
0100
1010
,  // measure 44
0001
0000
0100
0000
1000
0000
0100
0001
,  // measure 45
1000
0000
1000
0000
0001
0000
0100
0010
,  // measure 46
0000
0010
0100
0000
0001
0000
1000
0000
,  // measure 47
0010
0000
1000
0000
0001
0000
1000
0100
,  // measure 48
0000
0100
1000
0000
0001
0000
1000
0000
,  // measure 49
0020
0000
0230
0000
0301
1000
0001
0000
,  // measure 50
2000
0000
3002
0000
0203
0000
0301
1000
,  // measure 51
0002
0000
2003
0000
3010
0100
0010
0000
,  // measure 52
0200
0310
0020
0130
,  // measure 53
0001
0000
2000
0000
0000
0010
3010
0000
,  // measure 54
0010
0000
0200
0000
0000
0001
0301
0000
,  // measure 55
2000
0000
3200
0000
0310
0001
0010
0000
,  // measure 56
0002
0013
0200
1300
,  // measure 57
0020
0000
1030
0100
2000
0000
3001
0000
,  // measure 58
0200
0000
0310
1000
0020
0000
1030
0000
,  // measure 59
0200
0301
0200
1300
,  // measure 60
0002
0000
1003
0000
0010
0100
0010
0100
,  // measure 61
0010
0000
1100
0000
0001
0000
1000
0200
,  // measure 62
0000
0310
0001
0000
1000
0000
0011
0000
,  // measure 63
0100
0000
1010
0000
0001
0000
0100
0002
,  // measure 64
0000
1003
0010
0000
1000
0000
0202
0000
,  // measure 65
0303
0000
0000
0000
;

//---------------dance-single - ----------------
#NOTES:
     dance-single:
     :
     Hard:
     8:
     0.495,0.540,0.190,0.780,0.074: // measure 1
0000
0000
0000
0000
,  // measure 2
0000
0000
0000
0000
,  // measure 3
0000
0000
0000
0000
,  // measure 4
0000
0000
0000
0000
,  // measure 5
0000
1000
0200
0300
0010
0002
0003
1100
,  // measure 6
0000
0001
0200
0300
0010
2000
3000
0011
,  // measure 7
0000
0100
0002
0003
1000
0020
0030
0101
,  // measure 8
0000
0010
0002
0003
1000
0200
0300
1010
,  // measure 9
2000
3100
0020
0000
0031
0200
0000
0310
,  // measure 10
0000
2000
0100
0010
3001
0000
0110
0000
,  // measure 11
0002
0103
0020
0000
1030
0200
0000
0310
,  // measure 12
0000
0002
1000
0100
0013
0000
1001
0000
,  // measure 13
0200
0000
0320
0000
2030
3001
0020
0230
,  // measure 14
0000
0300
1001
0000
0020
0130
0002
2003
,  // measure 15
0000
3000
0110
0000
0002
0000
1003
0020
,  // measure 16
0000
0030
1001
0000
0200
0000
0301
2000
,  // measure 17
3002
0000
0020
0030
0200
0300
0020
0030
,  // measure 18
2003
3100
0020
0000
0230
1300
0002
0000
,  // measure 19
2003
0000
3001
0010
1000
0010
0002
2003
,  // measure 20
0000
0000
3002
0000
1003
0000
0220
0330
,  // measure 21
2000
0000
0020
0030
0002
0003
0020
0030
,  // measure 22
3002
0000
1003
0100
0001
0100
2000
3002
,  // measure 23
0000
0000
0203
0000
0301
0010
0100
1000
,  // measure 24
0020
0000
1030
0100
0002
0000
0103
0000
,  // measure 25
2000
0000
3001
0010
2000
0000
3100
0000
,  // measure 26
0001
0000
0000
0000
0110
0000
0000
0000
1000
0000
0000
0100
0000
0000
1000
0000
,  // measure 27
0001
0010
2000
0000
3001
0100
2000
0000
,  // measure 28
3010
0000
0000
0000
1001
0000
0000
0000
0100
0000
0000
0001
0000
0000
1000
0000
,  // measure 29
0020
0000
0230
0000
0301
1000
0001
0000
,  // measure 30
2000
0000
3200
0000
0310
0001
1000
0000
,  // measure 31
0002
0000
0000
1000
0000
0000
1000
0000
2003
0000
0000
0000
3001
0000
0100
0000
,  // measure 32
0000
0100
0010
1000
0001
0000
1001
0000
,  // measure 33
0020
0000
1030
0100
0002
0000
0203
0000
,  // measure 34
2300
0000
0000
0000
3002
0000
0000
1003
0200
0000
0310
0000
0002
0000
1003
0000
,  // measure 35
0020
0000
0031
0010
0200
0000
0301
0000
,  // measure 36
1000
0000
0100
0000
0010
0000
0100
0000
0001
0100
0001
0000
0100
0000
0010
0000
,  // measure 37
0200
0000
1300
0010
0002
0000
0013
0000
,  // measure 38
1000
0000
0001
0010
0001
0000
2000
0000
0002
0000
3000
0000
0103
0000
0000
0000
,  // measure 39
0020
2030
3002
0203
,  // measure 40
0301
0010
1000
0010
0100
1000
0100
0001
,  // measure 41
1000
0000
0001
0010
0002
0000
0000
0000
1000
0000
1000
0000
1003
0000
0000
0000
,  // measure 42
0010
0000
1000
0100
2000
0000
0000
0000
3001
0010
0001
0010
0002
0000
0000
0000
,  // measure 43
0103
0000
0010
1000
0010
0000
0100
0001
0100
0000
2000
0000
3020
0000
0032
0000
,  // measure 44
0103
0000
1000
0000
0001
0000
0010
0000
0001
0010
0001
0000
1000
0100
1000
0000
,  // measure 45
0002
0000
0000
0000
2003
0000
0000
0000
3010
0100
0010
0000
2000
0000
3200
0000
,  // measure 46
0320
0000
0000
0000
0032
0000
0000
1003
0200
0000
1300
0000
0002
0000
0013
0000
,  // measure 47
1000
0000
0100
1000
0200
0000
0000
0000
0310
0000
0001
0010
0002
0000
0000
0000
,  // measure 48
1003
0000
0000
0100
0010
0000
0000
1000
0100
0000
0001
0000
0100
0000
1000
0000
,  // measure 49
0011
0000
1100
0000
0001
0100
0010
2000
,  // measure 50
0000
3100
1100
0000
0010
1000
0010
0002
,  // measure 51
0000
0013
0011
0000
0010
0100
0010
0200
,  // measure 52
0000
0310
0110
0000
1000
0001
1001
0000
,  // measure 53
0010
0000
1100
0000
0002
0000
0100
0203
,  // measure 54
0000
0010
0310
0000
0001
0001
1000
1000
,  // measure 55
0000
0001
0010
0100
0010
0001
0100
1000
,  // measure 56
0000
0010
0002
0000
1003
0000
0110
0000
,  // measure 57
1000
0100
0010
0100
2000
0000
0001
3002
,  // measure 58
0000
1003
0100
0001
0100
1000
0001
0010
,  // measure 59
0000
1100
0101
1001
,  // measure 60
0010
0000
0100
0000
0001
0000
1000
0100
1000
0000
0001
0000
0200
0000
0000
0000
,  // measure 61
0310
0000
0011
0000
2000
3100
0020
0031
,  // measure 62
0000
0002
1000
1000
2003
0100
0100
3100
,  // measure 63
0000
0010
0001
0000
0011
0000
1100
0000
,  // measure 64
0002
0010
0100
1003
2000
0100
0010
0002
,  // measure 65
3003
0000
0000
0000
;

//---------------dance-single - ----------------
#NOTES:
     dance-single:
     :
     Challenge:
     9:
     0.709,0.697,0.190,1.000,0.362: // measure 1
0000
0000
0000
0000
,  // measure 2
0000
0000
0000
0000
,  // measure 3
0000
0000
0000
0000
,  // measure 4
0000
0000
0000
0000
,  // measure 5
0001
0020
0130
0000
1000
0200
0310
0002
,  // measure 6
0000
2003
3001
0000
0200
0301
2000
3020
,  // measure 7
0000
0031
0010
0000
2000
3200
0302
0023
,  // measure 8
0000
2030
3001
0000
0100
0010
2002
3003
,  // measure 9
0020
0000
1030
0100
1000
0000
0001
0010
0001
0000
0100
0000
2002
0000
3003
0000
,  // measure 10
0010
0000
1000
0100
0010
0000
0001
0010
0200
0000
2300
0000
3002
0000
0023
0000
,  // measure 11
0031
0000
1000
0100
1000
0100
2000
0000
3002
0000
0013
0000
0200
0000
1300
0000
,  // measure 12
0002
0000
1003
0000
0020
0000
0130
0000
2000
0000
0000
3001
0200
0000
0001
0000
,  // measure 13
0320
0000
1000
0000
0200
0300
1030
0001
2000
0000
0001
0000
0002
0000
3000
0000
,  // measure 14
1003
0000
0100
1000
0100
0000
0010
0001
0020
0000
0000
0031
2000
0000
0200
3000
,  // measure 15
1300
0000
0001
1000
0020
0000
1030
0001
0200
0000
0310
0100
0020
0000
0230
0000
,  // measure 16
0302
0000
0000
1003
0200
0000
0301
0000
0100
0000
1000
0000
0020
0000
0130
0000
,  // measure 17
0002
1000
2000
3000
0100
0010
0020
0030
,  // measure 18
1003
0000
0000
0110
0000
0000
0001
0000
2000
0000
0000
3001
0020
0000
0032
0000
,  // measure 19
2003
0000
0010
0000
0010
0000
0000
3001
0020
0000
1000
0000
0001
0000
1030
0000
,  // measure 20
0002
0000
0103
0000
2000
0000
3010
0000
0002
0000
0000
2000
0003
0000
0020
3000
,  // measure 21
1030
0000
0000
0001
0200
0000
0010
0000
0310
0000
0000
1000
0020
0000
0100
0000
,  // measure 22
0100
0000
1030
0001
1000
0000
0100
0000
0010
0000
0001
1000
0001
0000
0010
0000
,  // measure 23
0002
0000
0000
0200
0000
0003
2000
0300
3001
0010
1000
0000
0001
0000
1000
0000
,  // measure 24
0002
0000
0000
2000
0000
0003
3020
0000
1000
0030
1000
0002
1000
0000
1003
0000
,  // measure 25
2000
0000
0000
0200
0000
3000
0002
0300
0200
0000
0003
1300
0010
0000
0001
0000
,  // measure 26
0020
0000
0000
1030
0002
0000
0010
0000
1003
0200
0000
0310
0002
0000
1003
0000
,  // measure 27
0200
0000
0300
1001
0000
0000
0020
0000
1030
0100
0001
0000
0200
0000
1300
0000
,  // measure 28
0020
0000
0130
0000
0002
0000
0013
0000
0100
0002
0000
1003
0200
0000
1300
0000
,  // measure 29
0002
0000
0000
2000
0003
0000
0002
3000
0103
0010
0100
0000
0001
0000
1000
0000
,  // measure 30
0002
0000
0000
0200
0000
0303
0101
0000
0010
0000
0000
2200
0000
3300
1001
0000
,  // measure 31
0020
0100
0000
0130
0010
0000
1000
0000
0200
0000
0301
0000
0200
0000
1300
0000
,  // measure 32
0002
0000
0000
0020
0000
0033
0011
0000
1000
0000
0000
2200
0000
3300
0110
0000
,  // measure 33
0002
0000
0013
0000
2000
0000
3010
0000
1000
0000
0010
0100
0002
0000
1003
0000
,  // measure 34
2000
0000
3100
0000
0002
0000
0103
0000
0100
0001
0000
0001
2000
0000
3010
0000
,  // measure 35
0002
0000
1003
0100
0020
0000
0130
0000
2000
0000
3001
0000
0002
0000
1003
0000
,  // measure 36
0020
0000
0130
0000
0200
0000
0310
0000
0002
1000
0000
1003
0001
0000
0100
0000
,  // measure 37
0020
0000
0000
0200
0000
0030
0002
0300
1003
0001
0200
0000
0301
0000
1000
0000
,  // measure 38
0200
0000
0000
2000
0000
0300
0002
3000
0013
0000
0001
0010
1000
0000
0010
0000
,  // measure 39
0002
0000
0000
0100
0000
0003
2000
0000
0002
3000
0000
0010
0000
0000
2000
0003
,  // measure 40
3020
0000
0000
0200
0000
0030
0020
0300
1030
0000
0100
0000
0010
0000
0001
0000
,  // measure 41
1000
0100
1000
0100
2000
0000
0001
0000
3001
0010
0001
0010
0002
0000
1000
0000
,  // measure 42
1003
0100
0010
0100
2000
0000
3001
0010
0002
0000
0203
0000
0310
0000
1001
0000
,  // measure 43
0010
1000
0010
1000
0020
0000
0100
0000
0130
0001
0100
0001
0200
0000
0001
0000
,  // measure 44
0301
0010
0200
0000
1300
0100
0020
0000
0031
0100
0001
0100
0010
1000
0010
1000
,  // measure 45
0001
0010
1000
0010
0002
0000
0100
0000
1003
0100
0001
0100
2000
0000
0010
0000
,  // measure 46
3001
1000
0100
0000
1000
0001
0100
0000
0020
0000
1030
0000
0020
0000
0031
0000
,  // measure 47
0010
1000
0100
1000
0020
0000
0100
0000
0130
0001
0010
0001
0200
0000
0010
0000
,  // measure 48
0320
0000
1030
0010
0200
0000
0301
0100
0010
0000
2000
0000
0002
0000
3003
0000
,  // measure 49
0120
1000
2000
3000
0100
0001
0100
1000
,  // measure 50
2030
0010
0020
0030
0001
0010
0100
3010
,  // measure 51
0012
0100
2000
3000
0100
0010
0100
1000
,  // measure 52
0203
0001
2000
3000
0001
0010
1000
0310
,  // measure 53
1001
0000
0000
0000
0110
0000
0000
0001
2000
0000
0010
0000
0100
0000
3010
0000
,  // measure 54
1100
0000
0000
0000
0101
0000
0000
0000
1000
0100
2000
0000
0010
0000
3001
0000
,  // measure 55
0011
0000
0000
0000
1010
0000
0000
0000
0002
0000
0103
0010
0200
0000
0301
0000
,  // measure 56
0110
0000
0000
0000
1001
0000
0000
0000
2000
0100
0000
3100
1000
0000
0001
0000
,  // measure 57
2000
0000
0200
3000
0020
0300
0002
0030
2000
0003
0000
0000
0001
3000
0100
0000
,  // measure 58
0000
0000
1000
0100
0002
0000
0003
0000
1100
0000
0000
0011
0000
0000
1001
0000
,  // measure 59
0020
0000
0200
0030
0002
0300
2000
0003
0020
3000
0000
0000
1030
0001
1000
0000
,  // measure 60
0000
0000
0010
0100
0010
0000
1001
0000
0200
1000
0000
1300
0100
0000
0010
0000
,  // measure 61
0001
0000
1000
0100
2000
0000
0010
0000
3001
0010
0200
0000
1000
0000
0001
0000
,  // measure 62
0000
0000
2300
0000
0002
3000
0020
0003
0031
0100
0000
0010
2000
0000
3001
0000
,  // measure 63
0020
0100
2030
0010
3002
1000
0203
0001
,  // measure 64
0302
0000
1003
0100
0010
0000
0100
0010
0002
0000
1003
0000
0110
0000
2002
0000
,  // measure 65
3003
0000
0000
0000
;
