#TITLE:I'm Gettin' Nuttin' for Christmas;
#SUBTITLE:;
#ARTIST:relient K;
#TITLETRANSLIT:;
#SUBTITLETRANSLIT:;
#ARTISTTRANSLIT:;
#GENRE:;
#CREDIT:Telperion;
#BANNER:gettin-nuttin-bn.png;
#BACKGROUND:gettin-nuttin-bg.png;
#LYRICSPATH:;
#CDTITLE:;
#MUSIC:gettin-nuttin.ogg;
#OFFSET:-1.964;
#SAMPLESTART:19.583;
#SAMPLELENGTH:25.493;
#SELECTABLE:YES;
#DISPLAYBPM:80.000:160.000;
#BPMS:0.000=160.042,111.000=40.011,112.000=160.042,152.000=80.021,154.000=77.002,155.000=82.002,156.000=160.042,196.000=100.168,216.000=80.000;
#STOPS:;
#BGCHANGES:;
#KEYSOUNDS:;

//---------------dance-single - Telperion----------------
#NOTES:
     dance-single:
     Telperion:
     Hard:
     8:
     0.503,0.510,0.133,0.278,0.155:
0000
0000
0000
0000
,
0000
0000
0000
0000
,
0000
0000
0000
0000
,
0000
0000
0000
0000
,
2000
0001
0100
3001
,
0001
0010
0100
1000
0001
0000
0000
1000
,
0002
1000
0100
1003
,
1000
0010
0100
0001
0100
0000
0000
0000
,
0010
1000
0100
0010
0001
0010
0001
0000
,
0010
0100
1000
0010
0100
0001
0100
0000
,
0010
1000
0100
1000
0010
1000
0100
0010
,
0001
0100
1000
0100
0010
0000
0000
0000
,
0020
0000
1030
0001
0020
0000
0031
1000
,
0001
0010
0100
1000
0001
0010
0100
0000
,
0020
0000
0031
0100
0020
0000
1030
0100
,
0010
0100
0010
0100
0010
0100
0010
0000
,
0002
0000
1003
0001
0002
0000
1003
0001
,
1000
0010
0100
0001
1000
0010
0100
0000
,
0200
0000
0301
0010
0200
0000
1300
0010
,
0100
0100
0100
0000
,
0001
0010
0100
1000
0010
0001
0010
0000
,
0100
1000
0100
1000
0100
0000
0000
0100
,
0001
0010
0001
0010
1000
0010
1000
0000
,
0001
0100
0001
0100
0001
0000
0000
0000
,
0001
0100
0010
0100
1000
0001
1000
0000
,
0001
0100
0010
0100
1000
0100
0010
0000
,
1000
0001
0010
0010
0001
1000
0100
0001
,
1000
0000
0010
0000
0100
0000
1000
0000
0001
0000
0000
0000
2002
0000
0000
3003
,
0002
0000
0013
0100
2000
0000
3010
0100
,
0001
1000
0100
1000
0001
0010
0100
0000
,
0020
0000
0031
0100
0020
0000
1030
0100
,
0010
0100
0010
0100
0010
0100
0010
0000
,
0200
0000
1300
0001
0200
0000
0301
1000
,
0100
0010
0100
0001
0100
0010
0100
1000
,
0020
0000
0130
0001
0020
0000
0130
1000
,
1010
0101
0011
0110
,
1000
0010
0010
0000
0100
0001
0001
0000
,
0001
1000
1000
0001
0010
0100
0110
0000
,
0020
0000
0032
0000
0013
0100
1000
0011
,
1001
0000
0000
0001
0000
0001
1000
0000
0000
1000
0000
1000
,
0001
0000
0000
0011
0000
0000
0100
0000
0000
1000
0100
0010
,
0001
0000
0000
0100
0000
0100
0010
0000
0000
1000
0000
1000
,
0010
0100
0010
0100
0010
0100
0000
0100
0001
1000
0001
1000
,
0100
0000
0000
0001
0000
0010
0100
0000
0000
1000
0000
0100
,
0001
0000
0000
0110
0000
0000
1000
0000
0000
1000
0010
0100
,
0001
0000
0001
0010
0000
0100
1000
0000
1000
0100
0000
0010
,
0001
0000
0001
0100
0001
0100
0001
0100
0001
0100
0000
0100
,
0020
0000
0000
0000
,
0100
0100
0000
0030
,
2002
0000
0000
0000
,
0000
0000
0000
0000
,
0000
0000
0000
0000
,
0000
0000
0000
0000
,
0000
0000
0000
0000
0000
0000
0000
3003
0000
0000
0000
0000
0000
0000
0000
0000
,
1001
0000
0000
0000
;

//---------------dance-single - Telperion----------------
#NOTES:
     dance-single:
     Telperion:
     Medium:
     6:
     0.408,0.420,0.233,0.111,0.072:
0000
0000
0000
0000
,
0000
0000
0000
0000
,
0000
0000
0000
0000
,
0000
0000
0000
0000
,
1000
0100
1000
0000
0001
0010
0001
0000
,
0100
0010
2000
3000
,
0001
0100
0001
0000
1000
0010
1000
0000
,
0100
0010
0200
0300
,
2000
0000
0001
0000
3010
0100
0010
0000
,
1000
0100
1000
0000
0001
0100
0001
0000
,
0020
0100
0001
0130
,
1000
0010
0110
0000
,
0001
0010
0100
0000
1000
0100
0010
0000
,
0001
0010
0100
1000
0001
0010
0100
0000
,
1000
0010
0100
0000
0001
0100
0010
0000
,
1000
0010
0100
0001
0100
0010
1000
0000
,
0100
0010
0001
0000
0001
0010
0100
0000
,
0100
0010
0001
0010
0100
1000
0001
0000
,
0100
0010
1000
0000
1000
0010
0100
0000
,
0001
1000
0001
1000
,
0010
0000
0010
0000
0010
0100
0010
0000
,
1100
0110
0011
0000
,
0100
0000
0100
0000
0100
0010
0100
0000
,
0011
0110
1100
0000
,
0001
1000
0001
0000
0010
0100
0010
0000
,
0001
0100
0001
0000
1000
0100
0010
0000
,
0001
0010
0001
0000
1000
0001
1000
0000
,
0010
0000
0100
0000
0110
0000
2002
3003
,
0001
0010
0100
0000
1000
0100
0010
0000
,
0001
0010
0100
1000
0100
0010
0001
0000
,
0100
0010
1000
0000
0010
0100
0001
0000
,
0100
0010
1000
0001
0100
0010
1000
0000
,
0100
0010
0001
0000
0001
0010
0100
0000
,
0100
1000
0001
1000
0010
1000
0001
0000
,
0100
0010
1000
0000
1000
0010
0100
0000
,
0110
1010
0011
1100
,
0002
0003
2000
3000
,
0100
0010
0001
0100
,
0010
0000
0000
0110
,
0100
0000
0000
0010
0000
0010
1000
0000
0000
0100
0000
0100
,
0010
0011
0000
1100
,
0001
0000
0000
0100
0000
0100
0010
0000
0000
1000
0000
1000
,
0010
0110
0101
1010
,
0001
0000
0000
1000
0000
1000
0001
0000
0000
0010
0000
0010
,
0100
1100
0000
0011
,
0001
0000
0000
1000
0000
1000
0010
0000
0010
0100
0000
0100
,
1000
0000
1000
0100
0000
0100
0010
0000
0010
1000
0000
1000
,
0002
0000
0000
0000
,
0000
0000
0003
0000
,
2000
0000
0000
0000
,
0000
0000
0000
0000
,
0000
0000
0000
0000
,
0000
0000
0000
0000
,
0000
0000
0000
0000
0000
0000
0000
3000
0000
0000
0000
0000
0000
0000
0000
0000
,
1000
0000
0000
0000
;

//---------------dance-single - Telperion----------------
#NOTES:
     dance-single:
     Telperion:
     Easy:
     4:
     0.260,0.300,0.144,0.155,0.000:
0000
0000
0000
0000
,
0000
0000
0000
0000
,
0000
0000
0000
0000
,
0000
0000
0000
0000
,
1000
0100
0010
0001
,
0100
0100
0100
0000
,
0001
0100
0010
1000
,
0100
0100
0100
0000
,
2000
3000
0002
0003
,
0200
0300
0002
0003
,
2000
3000
0200
0300
,
0010
0100
0110
0000
,
0001
0100
1000
0010
,
0001
0100
0010
0000
,
1000
0100
0001
0010
,
1000
0100
0010
0000
,
0001
0100
1000
0010
,
0001
1000
0001
0000
,
1000
0100
0001
0010
,
0100
0100
0100
0000
,
0001
0001
1000
1000
,
0100
0010
0001
0000
,
1000
1000
0001
0001
,
0100
0010
1000
0000
,
0200
0300
0020
0030
,
0002
0003
0020
0030
,
0200
0300
2000
3000
,
0010
0010
0010
0000
,
0010
1000
0100
0010
,
0001
1000
0010
0000
,
0100
0001
1000
0010
,
0100
0001
0010
0000
,
0100
1000
0010
0100
,
0001
0100
0010
1000
,
0100
0010
0001
0010
,
0100
0001
1000
0000
,
1001
0000
0110
0000
,
1001
0000
0220
0000
,
0330
0000
0000
0000
,
0001
1000
0000
1000
,
0010
0110
0000
0110
,
1000
0001
0000
0001
,
0010
0110
0110
0110
,
0001
0100
0010
0000
,
1000
0110
0000
0110
,
0001
1000
0010
0001
,
1000
0001
1000
0001
,
1000
0000
0000
0000
,
0000
0000
0000
0000
,
1001
0000
0000
0000
,
0000
0000
0000
0000
,
0000
0000
0000
0000
,
0000
0000
0000
0000
,
0000
0000
0000
0000
,
0010
0000
0000
0000
;

//---------------dance-single - Telperion----------------
#NOTES:
     dance-single:
     Telperion:
     Beginner:
     2:
     0.073,0.109,0.011,0.000,0.000:
0000
0000
0000
0000
,
0000
0000
0000
0000
,
0000
0000
0000
0000
,
0000
0000
0000
0000
,
1000
0000
0000
0000
,
0000
0000
0000
0000
,
0001
0000
0000
0000
,
0000
0000
0000
0000
,
0100
0000
0000
0000
,
0100
0000
0000
0000
,
0100
0000
0000
0000
,
0010
0000
0000
0000
,
1000
0000
0000
0000
,
0100
0000
0000
0000
,
0010
0000
0000
0000
,
0001
0000
0000
0000
,
1000
0000
0000
0000
,
0010
0000
0000
0000
,
0100
0000
0100
0000
,
0100
0000
0000
0000
,
0001
0000
0000
0000
,
0000
0000
0000
0000
,
1000
0000
0000
0000
,
0000
0000
0000
0000
,
0001
0000
0000
0000
,
1000
0000
0000
0000
,
0100
0000
0100
0000
,
0010
0000
0010
0000
,
0001
0000
0000
0000
,
0001
0000
0000
0000
,
1000
0000
0000
0000
,
1000
0000
0000
0000
,
0010
0000
0010
0000
,
0010
0000
0000
0000
,
0100
0000
0100
0000
,
0100
0000
0000
0000
,
0001
0000
0000
0000
,
1000
0000
0001
0000
,
1000
0000
0000
0000
,
0001
0000
0000
0000
,
0000
0000
0000
0000
,
1000
0000
0000
0000
,
0000
0000
0000
0000
,
0010
0000
0000
0000
,
0000
0000
0000
0000
,
0001
0000
1000
0000
,
0001
0000
0000
0000
,
0010
0000
0000
0000
,
0000
0000
0000
0000
,
1001
0000
0000
0000
;

//---------------dance-double - Telperion----------------
#NOTES:
     dance-double:
     Telperion:
     Hard:
     8:
     0.474,0.450,0.244,0.144,0.122:
00000000
00000000
00000000
00000000
,
00000000
00000000
00000000
00000000
,
00000000
00000000
00000000
00000000
,
00000000
00000000
00000000
00000000
,
10000000
01000000
00100000
01000000
10000000
01000000
00010000
00000000
,
00001000
00000100
00000010
00000100
00000001
00000000
00000000
00000010
,
00000001
00000010
00000100
00001000
00000001
00000100
00001000
00000000
,
00010000
01000000
00100000
01000000
10000000
00000000
00000000
00000000
,
12000000
00000000
00100000
00000000
13000000
01000000
00010000
00000000
,
00001000
00010000
00011000
00000000
00000100
00001000
00001100
00000000
,
00000001
00000100
00000010
00001000
00000100
00010000
00001000
00100000
,
01000000
00010000
00001000
00000100
00000010
00000000
00000110
00000000
,
00000001
00000010
00000100
00000000
00010000
00001000
00000100
00000000
,
00001000
00010000
01000000
00100000
00010000
00100000
01000000
00000000
,
20000000
00000000
30100000
01000000
20000000
00000000
31000000
00100000
,
10000000
01000000
00100000
00010000
00100000
01000000
10000000
00000000
,
10000000
01000000
00100000
00000000
00001000
00010000
00100000
00000000
,
00010000
00001000
00000100
00000010
00000100
00001000
00000100
00000000
,
00000020
00000000
00001030
00000100
00000020
00000000
00000031
00000100
,
00000010
00000000
00000000
00000010
00010000
00000000
00000000
00010000
01000000
00000000
00000000
01000000
10000000
00000000
00000000
00000000
,
20000000
01000000
00010000
30100000
,
10000000
00100000
00010000
00001000
00000100
00000000
00000000
00000000
,
00000002
00000010
00001000
00000103
,
00000001
00000010
00001000
00010000
01000000
00000000
00000000
00000000
,
10000000
01000000
10000000
01000000
00010000
00001000
01000000
00000000
,
00001000
00010000
00000100
00010000
00001000
00000010
00000001
00000000
,
00000100
00000001
00000100
00000001
00000010
00000100
00001000
00000100
,
00010000
00000000
00001000
00000000
00000100
00000000
00000010
00000000
00000001
00000000
00000000
00000000
00000002
00000000
00000000
00000003
,
00001000
00000001
00000000
00000001
00000100
00001000
00000000
00010000
,
00001000
00000100
00000010
00000100
00000001
00000100
00000010
00000000
,
00002000
00000000
00003100
00000010
00002000
00000000
00013000
01000000
,
00100000
01000000
00010000
00001000
00000010
00000001
00000100
00000000
,
00000001
00000010
00000000
00000010
00000100
00001000
00000000
00000100
,
00010000
00001000
01000000
00001000
00010000
00000100
00010000
00000000
,
01000000
00000000
00100000
00010000
10000000
00000000
00100000
10000000
,
00010000
00110000
11000000
00101000
,
11000000
00100000
01001000
00010000
,
00010100
00001100
00000011
00000101
,
00000010
00000100
00000000
00001000
00000000
00010000
00011000
00000000
,
00001000
00000000
00000000
00100000
00000000
00100000
01000000
00000000
00000000
10000000
00000000
10000000
,
00100000
00000000
00000000
01010000
00000000
00000000
01001000
00000000
00000000
00010000
00001000
00010000
,
00001000
00000000
00000000
00010000
00000000
00010000
00000100
00000000
00000000
00000010
00000000
00000010
,
00000001
00000101
00010010
01001000
,
10010000
00000000
00000000
10000000
00000000
10000000
01000000
00000000
00000000
00010000
00000000
00010000
,
01000000
00000000
00000000
11000000
00000000
00000000
00010000
00000000
00010000
00100000
00001000
00100000
,
00001000
00000000
00000000
00010000
00000000
00001000
00000100
00000000
00000000
00000100
00000000
00000001
,
00000010
00000100
00001000
00000100
00001000
00000100
00010000
00000100
00000010
00000001
00000000
00000000
,
00000200
00000000
00000000
00000000
,
00000000
00000000
00000000
00000300
,
00020020
00000000
00000000
00000000
,
00000000
00000000
00000000
00000000
,
00000000
00000000
00000000
00000000
,
00000000
00000000
00000000
00000000
,
00000000
00000000
00000000
00000000
00000000
00000000
00000000
00030030
00000000
00000000
00000000
00000000
00000000
00000000
00000000
00000000
,
00001000
00000000
00000000
00000000
;

//---------------dance-double - Telperion----------------
#NOTES:
     dance-double:
     Telperion:
     Medium:
     6:
     0.362,0.420,0.266,0.056,0.061:
00000000
00000000
00000000
00000000
,
00000000
00000000
00000000
00000000
,
00000000
00000000
00000000
00000000
,
00000000
00000000
00000000
00000000
,
00100000
01100000
10000000
10100000
,
01000000
00100000
01000000
00100000
01000000
00000000
00000000
00000000
,
00010000
00011000
00000100
00000110
,
00000001
00000100
00000001
00000100
00000001
00000000
00000000
00000000
,
00000010
00001000
00010000
00100000
,
10000000
01000000
00010000
01000000
,
00100000
00001000
00010000
00100000
,
02000000
10000000
03010000
00000000
,
00010000
00000000
10000000
00010000
10000000
00000000
00100000
10000000
,
00100000
01000000
00001000
00000000
,
00010000
00000000
00001000
00100000
00001000
00000000
00010000
00000010
,
00010000
00000100
00000010
00000000
,
00000001
00000000
00001000
00000001
00001000
00000000
00000100
00000010
,
00000100
00001000
00000010
00000100
,
00001000
00010000
00100000
10000000
,
11000000
00110000
00010100
00001000
,
00000100
00001000
00000100
00001000
00000010
00001000
00000010
00000000
,
00000100
00001000
00010000
00000000
,
01000000
00100000
01000000
00100000
00010000
00100000
00010000
00000000
,
10000000
00100000
00010000
00000000
,
00001000
00100000
01000000
10000000
,
01000000
00010000
00001000
01000000
,
00001000
00000100
00000010
00000100
,
00001000
00000000
00000100
00000000
00000001
00000000
00000020
00000030
,
00000001
00000000
00000100
00000010
00000100
00000000
00000100
00000010
,
00000100
00001000
00010000
01000000
,
10000000
00000000
01000000
00100000
01000000
00000000
10000000
00010000
,
10000000
01000000
00010000
00001000
,
00000100
00000000
00000010
00000100
00000010
00000000
00000100
00000010
,
00000100
00001000
00010000
01000000
,
00100000
00000000
00001000
00010000
00001000
00000000
00100000
00010000
,
00100000
11000000
10100000
01010000
,
00110000
00001000
00001100
00000001
,
00000101
00001010
00010010
01001000
,
10010000
00000000
00000000
01000000
,
10000000
00000000
00000000
01000000
00000000
01000000
00100000
00000000
00000000
00010000
00000000
00010000
,
01000000
01100000
00000000
01100000
,
01000000
00000000
00000000
00100000
00000000
00100000
00010000
00000000
00000000
00001000
00000000
00001000
,
00100000
01000000
00110000
00101000
,
00010000
00000000
00000000
00000100
00000000
00000100
00000010
00000000
00000000
00000001
00000000
00000001
,
00000100
00000000
00000000
00000110
00000000
00000000
00000000
00000000
00000000
00000110
00000000
00000010
,
00001000
00000100
00010000
01000000
,
10000000
00000000
10000000
01000000
00000000
01000000
00100000
00000000
00100000
00001000
00000000
00001000
,
00020000
00000000
00000000
00000000
,
00000000
00000000
00030000
00000000
,
02002000
00000000
00000000
00000000
,
00000000
00000000
00000000
00000000
,
00000000
00000000
00000000
00000000
,
00000000
00000000
00000000
00000000
,
00000000
00000000
00000000
00000000
00000000
00000000
00000000
03003000
00000000
00000000
00000000
00000000
00000000
00000000
00000000
00000000
,
00100000
00000000
00000000
00000000
;

//---------------dance-double - Telperion----------------
#NOTES:
     dance-double:
     Telperion:
     Easy:
     4:
     0.203,0.218,0.033,0.000,0.000:
00000000
00000000
00000000
00000000
,
00000000
00000000
00000000
00000000
,
00000000
00000000
00000000
00000000
,
00000000
00000000
00000000
00000000
,
10000000
00000000
00000000
00000000
,
01000000
00010000
00001000
00000000
,
00000100
00000000
00000000
00000000
,
00001000
00010000
01000000
00000000
,
00100000
00000000
00001000
00000000
,
00000100
00000000
00000001
00000000
,
00000010
00000000
00000100
00000000
,
00010000
00001000
00011000
00000000
,
00001000
00010000
00100000
10000000
,
01000000
10000000
01000000
00000000
,
00010000
00001000
00000100
00000001
,
00000010
00000001
00000010
00000000
,
00001000
00010000
00100000
00000000
,
10000000
01000000
00100000
00000000
,
10000000
00100000
01000000
00010000
,
00001000
00000100
00000010
00000000
,
00000100
00000100
00000100
00000000
,
00000010
00000100
00000001
00000000
,
00000010
00000010
00000010
00000000
,
00000100
00010000
00001000
00000000
,
00010000
00000000
00100000
00000000
,
10000000
00000000
01000000
00000000
,
00010000
00000000
00001000
00000000
,
00000100
00000010
00000110
00000000
,
00000010
00000100
00000010
00000000
,
00000100
00001000
00010000
00000000
,
01000000
00100000
01000000
00000000
,
00010000
00001000
00000100
00000000
,
00000001
00001000
00000001
00000000
,
00000010
00001000
00010000
00000000
,
00100000
10000000
01000000
00010000
,
00001000
00010000
00011000
00000000
,
00001000
00000000
01000000
00000000
,
00010000
00000000
00000100
00000000
,
00001000
00000000
00000000
00000000
,
00001000
00000100
00000010
00000001
,
00000010
00000100
00010000
00000000
,
00001000
01000000
00100000
10000000
,
00100000
01000000
00010000
00000000
,
00100000
01000000
10000000
01000000
,
00100000
00001000
00010000
00000000
,
00010000
00001000
00000100
00000000
,
00000001
00001000
00000100
00000010
,
00000001
00000000
00000000
00000000
,
00000000
00000000
00000000
00000000
,
00001000
00000000
00000000
00000000
;

//---------------dance-double - nuttin'----------------
#NOTES:
     dance-double:
     nuttin':
     Edit:
     1:
     -1.000,-1.000,-1.000,-1.000,-1.000:
00000000
00000000
00000000
00000000
,
00000000
00000000
00000000
00000000
,
00000000
00000000
00000000
00000000
,
00000000
00000000
00000000
00000000
,
00000000
00000000
00000000
00000000
,
00000000
00000000
00000000
00000000
,
00000000
00000000
00000000
00000000
,
00000000
00000000
00000000
00000000
,
00000000
00000000
00000000
00000000
,
00000000
00000000
00000000
00000000
,
00000000
00000000
00000000
00000000
,
00000000
00000000
00000000
00000000
,
00000000
00000000
00000000
00000000
,
00000000
00000000
00000000
00000000
,
00000000
00000000
00000000
00000000
,
00000000
00000000
00000000
00000000
,
00000000
00000000
00000000
00000000
,
00000000
00000000
00000000
00000000
,
00000000
00000000
00000000
00000000
,
00000000
00000000
00000000
00000000
,
00000000
00000000
00000000
00000000
,
00000000
00000000
00000000
00000000
,
00000000
00000000
00000000
00000000
,
00000000
00000000
00000000
00000000
,
00000000
00000000
00000000
00000000
,
00000000
00000000
00000000
00000000
,
00000000
00000000
00000000
00000000
,
00000000
00000000
00000000
00000000
,
00000000
00000000
00000000
00000000
,
00000000
00000000
00000000
00000000
,
00000000
00000000
00000000
00000000
,
00000000
00000000
00000000
00000000
,
00000000
00000000
00000000
00000000
,
00000000
00000000
00000000
00000000
,
00000000
00000000
00000000
00000000
,
00000000
00000000
00000000
00000000
,
00000000
00000000
00000000
00000000
,
00000000
00000000
00000000
00000000
,
00000000
00000000
00000000
00000000
,
00000000
00000000
00000000
00000000
,
00000000
00000000
00000000
00000000
,
00000000
00000000
00000000
00000000
,
00000000
00000000
00000000
00000000
,
00000000
00000000
00000000
00000000
,
00000000
00000000
00000000
00000000
,
00000000
00000000
00000000
00000000
,
00000000
00000000
00000000
00000000
,
00000000
00000000
00000000
00000000
,
00000000
00000000
00000000
00000000
,
00000000
00000000
00000000
00000000
,
00000000
00000000
00000000
00000000
,
00000000
00000000
00000000
00000000
,
00000000
00000000
00000000
00000000
,
00000000
00000000
00000000
00000000
,
00000000
00000000
00000000
00000000
,
00000000
00000000
00000000
00000000
,
11111111
00000000
00000000
00000000
;
