#TITLE:December 1963;
#SUBTITLE:;
#ARTIST:F50s;
#TITLETRANSLIT:;
#SUBTITLETRANSLIT:;
#ARTISTTRANSLIT:;
#GENRE:;
#CREDIT:;
#MENUCOLOR:;
#METERTYPE:DDR;
#BANNER:December1963Logo.png;
#BACKGROUND:December1963BG.png;
#LYRICSPATH:;
#CDTITLE:;
#MUSIC:December1963.mp3;
#OFFSET:-7.631;
#SAMPLESTART:0.000;
#SAMPLELENGTH:11.960;
#SELECTABLE:YES;
#LISTSORT:;
#BPMS:0.000=132.000;
#STOPS:;
#BGCHANGES:;
#ATTACKS:;

//---------------dance-single - ----------------
#NOTES:
     dance-single:
     :
     Hard:
     7:
     0.493,0.466,0.296,0.033,0.192: // measure 1
0001
0000
0000
0100
0000
0000
1000
0000
0000
0000
0100
0000
0001
0000
0000
0000
,  // measure 2
0010
0000
0000
0100
0000
0000
1000
0000
0000
0000
0001
0000
0001
0000
0000
0000
,  // measure 3
1000
0000
0000
0100
0000
0000
0001
0000
0000
0000
0100
0000
1000
0000
0000
0000
,  // measure 4
0010
0000
0000
0100
0000
0000
0001
0000
0000
0000
1000
0000
1000
0000
0000
0000
,  // measure 5
0100
0000
0000
0010
0000
0000
1000
0000
0000
0000
0010
0000
0001
0000
0000
0000
,  // measure 6
0100
0000
0000
0010
0000
0000
0001
0000
0000
0000
0010
0000
1000
0000
0000
0000
,  // measure 7
0010
0000
0000
0100
0000
0000
1000
0000
0000
0000
0100
0000
0001
0000
0000
0000
,  // measure 8
0010
0000
0000
0001
0000
0000
0100
0000
0000
0000
1000
0000
0001
0000
0000
0000
,  // measure 9
1000
0000
0000
0001
0000
0000
0100
0000
0000
0000
0001
0000
0001
0000
0000
0000
,  // measure 10
0010
0000
0000
0100
0000
0000
1000
0000
0000
0000
0001
0000
0001
0000
0000
0000
,  // measure 11
1000
0000
0000
0100
0000
0000
0001
0000
0000
0000
1000
0000
0010
0000
0000
0000
,  // measure 12
0001
0000
0000
0100
0000
0000
1000
0000
0000
0000
0001
0000
0010
0000
0000
0000
,  // measure 13
1000
0100
1000
0100
1000
0001
1000
0001
,  // measure 14
1000
0010
0100
0001
0010
0100
1000
0010
,  // measure 15
0200
0010
0010
0310
,  // measure 16
0002
0100
0100
0103
,  // measure 17
0010
0001
0010
0001
1000
0001
1000
0001
,  // measure 18
0100
0010
1000
0001
0100
0010
1000
0001
,  // measure 19
0101
0000
0000
1001
0000
0000
0000
0000
1100
0000
0000
1001
0000
0000
0000
0000
,  // measure 20
0110
0000
0000
1001
0000
0000
0000
1000
0100
0000
0100
1000
0000
1000
0100
0000
,  // measure 21
0010
0100
1000
0010
0100
0101
0011
0000
,  // measure 22
0001
0010
0100
1000
0010
0110
1001
0000
,  // measure 23
0100
0010
1000
0100
0010
0011
1001
0000
,  // measure 24
1000
0100
0001
0100
1000
1001
0101
0000
,  // measure 25
0100
0010
1000
0010
0100
0101
1010
0000
,  // measure 26
0010
0100
0001
0010
0100
1100
0011
0000
,  // measure 27
1000
0100
0001
0010
1000
0011
1010
0000
,  // measure 28
0001
0100
1000
0100
0010
0110
1001
0000
,  // measure 29
0001
1000
0100
0010
1000
0010
0001
0100
,  // measure 30
0010
0001
0010
1000
0100
0001
0100
1000
,  // measure 31
0010
0100
1000
0100
0001
0010
0100
1000
,  // measure 32
0010
0100
0001
1000
0100
0010
0001
0000
,  // measure 33
0100
0000
0000
0010
0000
1000
0001
0000
0000
0000
0100
0000
0001
0000
1000
0000
,  // measure 34
0100
0000
0100
0000
0010
0000
0001
0100
0000
0010
0000
0000
0000
0000
0000
0000
,  // measure 35
1000
0000
0001
0000
1000
0000
0001
0000
1000
0000
0100
0010
0000
0000
0001
0000
,  // measure 36
0100
1000
0000
0100
0001
0000
0010
0100
0000
1000
0010
0000
0001
0000
1000
0000
,  // measure 37
0100
0010
0000
0010
0000
0000
0000
0000
0001
0000
0100
0000
1000
0000
0000
0000
,  // measure 38
0101
0000
1010
0000
1000
0010
0100
0000
,  // measure 39
0001
0010
0000
0010
0000
0000
0000
0000
0100
0000
1000
0000
0010
0000
0000
0000
,  // measure 40
0001
0010
1000
0100
0001
1000
0010
0001
,  // measure 41
0100
0001
0000
0001
0000
0000
0000
0000
1000
0000
0100
0000
1000
0000
0000
0000
,  // measure 42
0010
0100
0001
0010
0100
1100
1100
0000
,  // measure 43
1000
0010
0000
0010
0000
0000
0000
0000
0100
0000
0001
0000
0100
0000
0000
0000
,  // measure 44
0010
1000
0100
0010
0100
1000
0010
0000
,  // measure 45
0210
0010
0010
0310
;

//---------------dance-single - ----------------
#NOTES:
     dance-single:
     :
     Medium:
     6:
     0.410,0.392,0.131,0.197,0.016:
2000
0100
0100
3100
,
0002
0010
0010
0013
,
0200
0010
0010
0310
,
0020
0001
0001
0031
,
1000
0000
0001
0000
0100
0010
0010
0000
,
1000
0000
0001
0000
0010
0100
0100
0000
,
1000
0000
0001
0000
1000
0010
0010
0000
,
0100
0000
0001
0000
1000
0001
0001
0000
,
0100
0000
0010
0000
0100
0001
0001
0000
,
0010
0000
0100
0000
1000
0010
0010
0000
,
0200
0001
1000
0301
,
0020
1000
0001
1030
,
2001
0100
0100
3100
,
0010
0001
0010
0100
1000
0100
0010
0001
,
0200
0010
0010
0310
,
0020
0100
0100
0130
,
0002
0100
0100
0103
,
0100
0010
1000
0010
0100
0001
0010
0100
,
1000
0000
0000
0001
0000
0000
0000
0000
1000
0000
0000
0010
0000
0000
0000
0000
,
1000
0000
0000
0100
0000
0000
0010
0000
0001
0000
0000
0000
1001
0000
0000
0000
,
0101
0000
1001
0000
0010
1000
0010
0000
,
0100
0000
0001
0000
0010
0100
1000
0000
,
1100
0000
1001
0000
0001
0010
0001
0000
,
0100
0000
0010
0000
1000
0100
0010
0000
,
0011
0000
1001
0000
0100
0001
0100
0000
,
0010
0000
1000
0000
0100
0010
0001
0000
,
0011
0000
1001
0000
1000
0100
1000
0000
,
0010
0000
0100
0000
0001
0010
0100
0000
,
2000
0000
0000
0000
0000
3010
0100
0010
,
0200
0302
0023
0000
,
0230
0000
0000
0000
0000
1300
0001
0100
,
0020
0000
1000
1030
,
1000
0001
1000
0001
1000
0100
1000
0000
,
0001
1000
0001
1000
0001
0100
0001
0000
,
0100
0010
0100
0010
0100
0001
0100
0000
,
1010
0000
0101
0000
1000
0100
0001
0000
,
0010
0100
1000
0100
0010
0001
0001
0000
,
0100
0010
1000
0010
0100
0001
0001
0000
,
1000
0100
1000
0010
1000
0100
0100
0000
,
0010
0001
0100
0001
0010
0001
0001
0000
,
1000
0100
0010
0100
1000
0010
1000
1000
,
0001
0100
0010
0100
0001
0010
0010
0000
,
2000
0000
0010
0000
3001
0100
0100
0000
,
0002
0000
0010
0000
1003
0100
0100
0000
,
0010
0010
0010
0010
;

//---------------dance-single - ----------------
#NOTES:
     dance-single:
     :
     Easy:
     4:
     0.316,0.441,0.208,0.361,0.000:
2010
3100
0012
0103
,
2001
3100
1002
0103
,
0001
0100
1000
0100
,
0001
0001
0010
0010
,
0200
0000
1000
1300
,
0020
0000
0100
0130
,
0002
0000
0010
0013
,
2001
3100
1002
0103
,
2010
3100
0012
0103
,
1000
0100
0001
0100
,
1000
1000
0001
0001
,
0100
0100
0010
0010
,
2000
0000
0000
3000
,
0100
0010
0001
0100
,
0020
0000
0000
0000
,
0032
0000
0000
0003
,
0200
0000
0000
0300
,
0010
1000
0100
0010
,
2000
3100
2000
3100
,
1001
0101
1000
0100
,
0012
0000
0010
0013
,
2001
0000
0001
3001
,
0102
0000
0100
0103
,
0210
0000
0010
0310
,
1000
0010
0001
0010
,
1000
0100
0001
0010
,
2000
0000
0100
3100
,
0002
0000
0010
0013
,
0001
1000
0001
1000
,
0010
0100
0001
0010
,
0100
0010
0100
0010
,
0100
1000
0010
0100
,
0002
0000
1000
0100
,
0023
0000
0100
0001
,
0230
0000
0010
0001
,
0020
0000
0000
0330
,
1000
0100
0001
0100
,
0001
0010
0001
0100
,
0001
0010
1000
0010
,
1000
0100
1000
0010
,
1000
0001
1000
1000
,
0001
1000
0001
0001
,
2001
3100
1002
0103
,
2100
3001
0102
1003
,
2002
0000
0000
3003
;
