#TITLE:fragments;
#SUBTITLE:;
#ARTIST:秋桜;
#TITLETRANSLIT:;
#SUBTITLETRANSLIT:;
#ARTISTTRANSLIT:cosmos;
#CREDIT:;
#BANNER:fragments.png;
#BACKGROUND:fragments-bg.png;
#LYRICSPATH:;
#CDTITLE:;
#MUSIC:fragments.mp3;
#OFFSET:-0.220;
#SAMPLESTART:67.290;
#SAMPLELENGTH:15.620;
#SELECTABLE:YES;
#BPMS:0.000=123.000;
#STOPS:;
#BGCHANGES:;

//---------------dance-single - ----------------
#NOTES:
     dance-single:
     :
     Hard:
     7:
     0.434,0.427,0.102,0.401,0.034: // measure 1
0000
0000
0000
0000
,  // measure 2
0000
0000
0000
0000
,  // measure 3
0000
0000
0000
0000
,  // measure 4
0000
0000
0000
0000
,  // measure 5
0000
0000
0000
0000
,  // measure 6
0000
0000
0000
0000
,  // measure 7
1000
0001
0100
0020
0000
0000
0130
0000
,  // measure 8
0002
1003
0200
0310
,  // measure 9
0001
0100
0010
2000
0000
0000
3001
0000
,  // measure 10
1000
0100
0001
0000
1000
0010
0001
0000
,  // measure 11
0102
0000
0100
0000
0010
0000
1003
0001
,  // measure 12
1000
0000
0100
0020
0000
0031
0000
0100
,  // measure 13
0020
0000
1000
0000
0100
0000
0031
0010
,  // measure 14
1000
0000
0100
0020
0000
0031
0000
1000
,  // measure 15
0200
0000
0010
0000
0001
0000
0310
0100
,  // measure 16
0010
0000
0001
0200
0000
0310
1000
0001
,  // measure 17
0200
0010
1300
1001
,  // measure 18
2000
0000
0100
3100
0000
1000
0100
0001
,  // measure 19
0100
0000
0110
0000
0010
0001
1000
0000
,  // measure 20
0020
0000
0100
0130
0000
0110
0000
0010
,  // measure 21
1000
0000
1001
0000
0001
0100
1000
0000
,  // measure 22
0200
0000
0010
0310
0000
0110
0000
0010
,  // measure 23
1000
0000
1001
0000
0001
0010
1000
0010
,  // measure 24
0001
0000
0100
0020
0000
0130
0000
0001
,  // measure 25
1000
1100
0001
0101
,  // measure 26
1000
0100
0010
0200
0000
1000
1300
0000
,  // measure 27
0002
0000
0100
0100
0103
0000
0001
0100
,  // measure 28
0010
0000
0000
1000
0000
0000
0100
0000
0001
0000
0000
0100
0000
0000
1000
0000
,  // measure 29
0010
0000
0000
0001
0000
0000
0010
0000
1000
0000
0000
0000
0001
0000
0100
0000
,  // measure 30
0010
0000
0000
0100
0000
0000
0001
0000
0020
0000
0000
0000
0130
0000
0000
0000
,  // measure 31
2000
0000
0100
0100
3100
0000
1000
0010
,  // measure 32
0100
0000
0000
1000
0000
0000
0100
0000
0002
0000
0000
0000
0103
0000
0000
0000
,  // measure 33
0101
0000
0000
0100
0000
0000
0010
0000
1000
0000
0000
0000
0100
0000
0001
0000
,  // measure 34
0200
0000
0000
0000
1300
0000
0010
1000
0020
0000
0000
0000
0130
0000
0000
0000
,  // measure 35
2002
0000
3003
1000
0100
0001
0100
1000
,  // measure 36
0000
0010
0100
1000
0100
0010
0000
0100
,  // measure 37
0001
0010
0100
0010
0002
0000
1000
1003
,  // measure 38
0000
0100
1000
0010
0001
0010
0000
1000
,  // measure 39
0100
0001
0100
1000
0001
0010
1000
0020
,  // measure 40
0001
0000
0130
0000
1000
0010
0001
0020
,  // measure 41
1000
0000
0130
0000
0001
0000
1000
0100
,  // measure 42
0010
0001
0100
0002
0000
1000
1000
2003
,  // measure 43
0000
3100
0000
1000
0100
0001
0100
1000
,  // measure 44
0000
0001
0100
0010
0100
0001
0000
1000
,  // measure 45
0100
0010
0100
1000
0002
0000
0100
0103
,  // measure 46
0000
0001
0010
1000
0100
0001
0000
0001
,  // measure 47
0100
1000
0010
0001
1000
0100
0001
0200
,  // measure 48
1000
0000
0310
0000
0001
0100
1000
0200
,  // measure 49
0010
0000
0301
0000
1000
0100
0001
0020
,  // measure 50
1000
0000
0000
0000
0130
0000
0001
0000
1000
0000
0000
0100
0000
0000
0001
0000
,  // measure 51
0200
0000
0310
0000
0001
0100
0010
1000
,  // measure 52
0002
0010
0100
1003
,  // measure 53
2000
0000
3010
0020
0000
0130
0200
0000
,  // measure 54
0302
0100
0010
1003
,  // measure 55
0200
0320
0032
0203
,  // measure 56
2300
0000
0100
0000
0001
0000
3100
0010
,  // measure 57
2000
0000
3010
0200
0000
0301
2000
0000
,  // measure 58
3001
0100
1000
0000
0001
0010
1000
0000
,  // measure 59
0001
0100
0010
1000
0010
0100
0001
1001
;

//---------------dance-single - ----------------
#NOTES:
     dance-single:
     :
     Beginner:
     1:
     0.084,0.100,0.000,0.000,0.000: // measure 1
0000
0000
0000
0000
,  // measure 2
0000
0000
0000
0000
,  // measure 3
0000
0000
0000
0000
,  // measure 4
0000
0000
0000
0000
,  // measure 5
0000
0000
0000
0000
,  // measure 6
0000
0000
0000
0000
,  // measure 7
1000
0000
0000
0000
,  // measure 8
0000
0000
0000
0000
,  // measure 9
0001
0000
0000
0000
,  // measure 10
0000
0000
0000
0000
,  // measure 11
0100
0000
0000
0000
,  // measure 12
0010
0000
0010
0000
,  // measure 13
0010
0000
0000
0000
,  // measure 14
1000
0000
1000
0000
,  // measure 15
1000
0000
0000
0000
,  // measure 16
0001
0000
0001
0000
,  // measure 17
0001
0000
0000
0000
,  // measure 18
0100
0000
0100
0000
,  // measure 19
0100
0000
0000
0000
,  // measure 20
0010
0000
0010
0000
,  // measure 21
0010
0000
0000
0000
,  // measure 22
1000
0000
1000
0000
,  // measure 23
1000
0000
0000
0000
,  // measure 24
0100
0000
0100
0000
,  // measure 25
0100
0000
0000
0000
,  // measure 26
0010
0000
0010
0000
,  // measure 27
0010
0000
0000
0000
,  // measure 28
0001
0000
0000
0000
,  // measure 29
1000
0000
0000
0000
,  // measure 30
0100
0000
0100
0000
,  // measure 31
0100
0000
0000
0000
,  // measure 32
1000
0000
0000
0000
,  // measure 33
0001
0000
0001
0000
,  // measure 34
0010
0000
0010
0000
,  // measure 35
0000
0000
0000
0000
,  // measure 36
0100
0000
0000
0000
,  // measure 37
1000
0000
0000
0000
,  // measure 38
0010
0000
0010
0000
,  // measure 39
0010
0000
0000
0000
,  // measure 40
0100
0000
0000
0000
,  // measure 41
0001
0000
0000
0000
,  // measure 42
0010
0000
0010
0000
,  // measure 43
0010
0000
0000
0000
,  // measure 44
0100
0000
0000
0000
,  // measure 45
1000
0000
0000
0000
,  // measure 46
0001
0000
0001
0000
,  // measure 47
0001
0000
0000
0000
,  // measure 48
0100
0000
0000
0000
,  // measure 49
0010
0000
0000
0000
,  // measure 50
1000
0000
1000
0000
,  // measure 51
0001
0000
0001
0000
,  // measure 52
0100
0000
0000
0000
,  // measure 53
0010
0000
0000
0000
,  // measure 54
1000
0000
0000
0000
,  // measure 55
0001
0000
0001
0000
,  // measure 56
0001
0000
0000
0000
,  // measure 57
0010
0000
0000
0000
,  // measure 58
0100
0000
0000
0000
,  // measure 59
1000
0000
1000
1000
;

//---------------dance-single - ----------------
#NOTES:
     dance-single:
     :
     Easy:
     3:
     0.212,0.226,0.043,0.000,0.000: // measure 1
0000
0000
0000
0000
,  // measure 2
0000
0000
0000
0000
,  // measure 3
0000
0000
0000
0000
,  // measure 4
0000
0000
0000
0000
,  // measure 5
0000
0000
0000
0000
,  // measure 6
0000
0000
0000
0000
,  // measure 7
1000
0001
0000
0000
,  // measure 8
0100
0000
0010
0000
,  // measure 9
1000
0001
0000
0000
,  // measure 10
0010
0000
0100
0000
,  // measure 11
1000
0000
0010
0000
,  // measure 12
0100
0100
0001
0001
,  // measure 13
0010
0000
0100
0000
,  // measure 14
1000
1000
0010
0010
,  // measure 15
0100
0000
0001
0000
,  // measure 16
1000
1000
0100
0100
,  // measure 17
0001
0000
0100
0000
,  // measure 18
1000
1000
0010
0010
,  // measure 19
0001
0000
0010
0000
,  // measure 20
1000
0100
0001
0100
,  // measure 21
1000
0000
0001
0000
,  // measure 22
1000
0010
0001
0010
,  // measure 23
1000
0000
0001
0000
,  // measure 24
1000
0100
0001
0010
,  // measure 25
1000
0000
0001
0000
,  // measure 26
1000
0100
0001
0010
,  // measure 27
1000
0000
1100
0000
,  // measure 28
0100
0000
0110
0000
,  // measure 29
0010
0001
0100
0000
,  // measure 30
0010
1000
0100
1000
,  // measure 31
0001
0000
0101
0000
,  // measure 32
1000
0000
1100
0000
,  // measure 33
0001
0100
1000
0000
,  // measure 34
0001
0010
1000
0000
,  // measure 35
1001
0000
0000
0000
,  // measure 36
1000
0100
1000
0100
,  // measure 37
0010
0001
0010
0001
,  // measure 38
0100
0001
0100
0001
,  // measure 39
1000
0010
1000
0010
,  // measure 40
1000
0100
1000
0100
,  // measure 41
0001
0100
0001
0100
,  // measure 42
1000
0010
1000
0010
,  // measure 43
0001
0010
0001
0010
,  // measure 44
1000
0100
0010
0001
,  // measure 45
1000
0010
0100
0001
,  // measure 46
1000
0100
0001
0100
,  // measure 47
1000
0010
0001
0010
,  // measure 48
1000
0010
0100
0001
,  // measure 49
1000
0100
0010
0001
,  // measure 50
1000
0100
0001
0100
,  // measure 51
1000
0010
0001
0010
,  // measure 52
1000
0001
0100
0000
,  // measure 53
0001
1000
0010
0000
,  // measure 54
1000
0100
0001
0000
,  // measure 55
1000
0010
0001
0010
,  // measure 56
1000
0001
0100
0000
,  // measure 57
0001
1000
0010
0000
,  // measure 58
1000
0100
0001
0000
,  // measure 59
1000
0000
0010
0000
0001
0000
1000
1000
;

//---------------dance-single - ----------------
#NOTES:
     dance-single:
     :
     Medium:
     5:
     0.344,0.352,0.051,0.247,0.000: // measure 1
0000
0000
0000
0000
,  // measure 2
0000
0000
0000
0000
,  // measure 3
0000
0000
0000
0000
,  // measure 4
0000
0000
0000
0000
,  // measure 5
0000
0000
0000
0000
,  // measure 6
0000
0000
0000
0000
,  // measure 7
1000
0000
0001
0100
0000
0000
0000
0000
,  // measure 8
0010
1000
0100
0010
,  // measure 9
0001
0000
1000
0100
0000
0000
0000
0000
,  // measure 10
1000
0010
0100
0001
,  // measure 11
2000
0001
0001
3001
,  // measure 12
1000
0010
0100
0001
,  // measure 13
0200
0010
0010
0310
,  // measure 14
1000
0001
0100
0001
,  // measure 15
0020
0100
0100
0130
,  // measure 16
0010
0100
1000
0001
,  // measure 17
2000
0001
0001
3001
,  // measure 18
1000
0100
1000
0000
0001
0100
0001
0000
,  // measure 19
1000
0010
0100
0101
,  // measure 20
0002
0023
0230
1300
,  // measure 21
0010
1000
0100
0110
,  // measure 22
0020
0032
0203
0310
,  // measure 23
1000
0001
0100
0101
,  // measure 24
0002
0203
0320
1030
,  // measure 25
0001
1000
0100
0110
,  // measure 26
0010
0001
0010
0000
0100
1000
0100
0000
,  // measure 27
0010
0000
0001
1000
0002
0000
0103
0000
,  // measure 28
0001
0000
1000
0001
2000
0000
3100
0000
,  // measure 29
1000
0000
0010
0100
0020
0000
1030
0000
,  // measure 30
0100
0000
0010
0001
0010
0000
1001
0000
,  // measure 31
0001
0000
0100
0010
0200
0000
0301
0000
,  // measure 32
0010
0000
0100
1000
0200
0000
0310
0000
,  // measure 33
0100
1000
0100
0000
0010
0001
0010
0000
,  // measure 34
0001
0000
0100
0010
2000
0000
3001
0000
,  // measure 35
1001
0000
0000
0000
1000
0001
1000
0000
,  // measure 36
0001
0000
0100
0000
0010
1000
0010
0000
,  // measure 37
1000
0000
0100
0000
0010
0001
0010
0000
,  // measure 38
0001
0000
0100
0000
1000
0100
1000
0000
,  // measure 39
0100
0000
0001
0000
0100
0001
0100
0000
,  // measure 40
0010
0000
1000
0000
0100
1000
0100
0000
,  // measure 41
0010
0000
0001
0000
0100
0010
0100
0000
,  // measure 42
0001
0000
0010
0000
1000
0010
1000
0000
,  // measure 43
0010
0000
0001
0000
0010
0001
0010
0000
,  // measure 44
0001
0000
0100
0000
0010
1000
0001
0000
,  // measure 45
0100
0000
0001
0000
1000
0001
0010
0000
,  // measure 46
0001
0000
0100
0000
0010
1000
0100
0000
,  // measure 47
0010
0000
0001
0000
0100
0001
0010
0000
,  // measure 48
0100
0000
1000
0000
0001
0100
1000
0000
,  // measure 49
0001
0000
1000
0000
0001
0010
1000
0000
,  // measure 50
0001
0100
0001
0000
1000
0100
1000
0000
,  // measure 51
0001
0010
0001
0010
0100
1000
0100
0000
,  // measure 52
0020
0001
0001
0031
,  // measure 53
0200
0310
2000
3001
,  // measure 54
2000
0100
0100
3100
,  // measure 55
2000
3200
0320
0032
,  // measure 56
1000
1000
1000
1003
,  // measure 57
0002
0103
0020
1030
,  // measure 58
0001
0100
0001
0000
1000
0100
1000
0000
,  // measure 59
0001
0010
0001
0000
1000
0010
0100
0001
;
