#TITLE:disable dA STACK;
#SUBTITLE:;
#ARTIST:D-Crew;
#TITLETRANSLIT:;
#SUBTITLETRANSLIT:;
#ARTISTTRANSLIT:;
#CREDIT:;
#BANNER:;
#BACKGROUND:;
#LYRICSPATH:;
#CDTITLE:;
#MUSIC:disable dA STACK.mp3;
#OFFSET:-5.260;
#SAMPLESTART:31.200;
#SAMPLELENGTH:12.000;
#SELECTABLE:YES;
#BPMS:0.000=185.000;
#STOPS:;
#BGCHANGES:;

//---------------dance-single - ----------------
#NOTES:
     dance-single:
     :
     Hard:
     9:
     0.600,0.606,0.137,0.082,0.082:
1001
0000
0110
0000
,
1100
0000
0011
0000
,
0101
0000
1010
0000
,
1001
0110
2002
3003
,
0010
1000
0100
1000
0001
0100
0010
0000
,
0010
1000
0100
0001
0100
1000
0010
0000
,
0010
0100
0001
0010
0100
1000
0001
0000
,
0001
0100
0010
1000
0001
0000
0010
0000
,
0001
0100
0010
1000
0100
0010
0001
0000
,
0001
1000
0010
0100
0010
1000
0001
0000
,
0010
0100
1000
0001
0100
0010
1000
0000
,
0001
0000
0010
0000
0100
1000
0001
0000
,
0100
0000
0010
0000
1000
0001
0010
0000
,
0100
0000
1000
0000
0010
0100
0001
0000
,
0100
0000
0010
0000
1000
0100
0010
0000
,
0100
0000
1000
0000
0001
0100
0010
0000
,
0010
0000
0100
0000
0001
0010
0100
0000
,
1000
0000
0001
0000
0100
0001
1000
0000
,
0100
0000
0010
0000
0100
1000
0010
0000
,
0100
0001
0010
0000
,
0001
0100
0010
1000
0001
0010
0001
0100
,
0010
1000
0001
0010
0100
1000
0010
0100
,
0010
1000
0001
0010
0100
1000
0100
0010
,
0001
1000
0010
0100
0001
0010
0000
0000
,
0010
0001
0100
0010
1000
0100
0010
0100
,
1000
0001
0100
0010
1000
0001
0010
0001
,
0100
0001
0010
0100
1000
0010
0100
0001
,
1000
0010
0100
0001
1000
0010
2000
0000
,
3001
0000
0000
0100
0000
0000
0001
0000
1000
0000
0000
0010
0000
0000
1000
0000
,
0001
0000
0100
0001
0000
0001
0100
0000
,
0010
0000
0000
1000
0000
0000
0001
0000
1000
0000
0000
0010
0000
0000
0100
0000
,
0001
0000
0000
0010
0000
0000
0001
0000
1000
0000
0000
0100
0000
0000
1000
0000
,
0010
0000
0000
0001
0000
0000
0100
0000
0010
0000
0000
1000
0000
0000
0100
0000
,
1000
0000
0000
0001
0000
0000
0100
0000
0001
0000
0000
1000
0000
0000
0010
0000
,
0100
0000
0000
0001
0000
0000
0010
0000
0100
0000
0000
1000
0000
0000
0001
0000
,
0100
0010
1000
0001
0010
0100
2000
0000
,
3001
0000
0001
0000
,
0010
0000
0010
0000
,
0100
1000
0010
0100
,
0001
1000
0001
1000
0001
1000
0001
1000
,
0001
0010
0100
0010
0001
0100
0010
1000
,
0001
0100
0010
1000
0001
0010
0100
1000
,
0001
0010
0100
1000
0010
0100
0001
1000
,
0010
0100
0001
1000
0010
0100
0001
0010
,
0100
0010
0001
0100
0010
1000
0001
0010
,
0100
1000
0100
0010
0001
0100
1000
0100
,
0001
0010
0100
1000
0001
0100
0010
1000
,
0001
0010
0100
1000
0010
0100
0001
0010
,
2002
0000
0000
0000
,
3003
0000
0000
0000
;

//---------------dance-single - ----------------
#NOTES:
     dance-single:
     :
     Medium:
     7:
     0.479,0.505,0.055,0.014,0.000:
1010
0000
0001
0000
,
0100
0000
1000
0000
,
1100
0000
0001
0000
,
0101
0000
1001
0000
0001
1000
0000
0000
,
0001
0000
0010
0000
0100
1000
0100
0000
,
0010
0000
0001
0000
0100
0010
1000
0000
,
0001
0000
0010
0000
0100
1000
0001
0100
,
0010
0000
1000
0000
0100
1000
0001
0100
,
0010
0000
1000
0000
0001
0010
0100
0000
,
0010
0000
0001
0000
0100
0010
1000
0000
,
0001
0000
1000
0000
0010
0100
0001
0100
,
0010
0000
1000
0000
0001
0010
0100
1000
,
0001
0000
0100
0000
,
0010
1000
0100
0000
,
1000
0000
0010
0000
,
0100
0001
0010
0000
,
0010
0001
0100
1000
,
0100
0001
0010
0100
,
1000
0010
0001
0010
,
1000
0100
0001
0100
,
1000
0100
1000
0000
0001
0010
0001
0000
,
0100
0001
0100
0000
1000
0010
1000
0000
,
1000
0100
1000
0000
0010
0001
0010
0000
,
0001
0100
0001
0000
1000
0010
1000
0000
,
0100
1000
0010
0000
0100
0001
1000
0000
,
1000
0001
0100
0000
0010
1000
0001
0000
,
0010
0100
1000
0000
0001
0100
0010
0000
,
1000
0001
0010
0100
1000
0100
0010
0001
,
1000
0100
0000
0100
1000
0010
0000
0010
,
0100
0001
0010
0100
,
1000
0001
0000
0001
1000
0010
0000
0010
,
1000
0001
0000
0001
0100
0010
0000
0010
,
0100
0001
0000
0001
0010
0100
0000
0100
,
1000
0010
0000
0010
0100
0001
0000
0001
,
1000
0100
0000
0100
1000
0010
0000
0010
,
0100
0001
0010
0100
,
1000
0000
0100
0000
,
0010
0000
0001
0000
,
0010
1000
0100
0010
,
0001
0010
0001
0010
0001
0010
0001
0010
,
0001
0010
0100
0000
1000
0001
0100
0000
,
0010
1000
0001
0000
0010
0100
1000
0000
,
0001
0100
0010
0000
1000
0100
0010
0000
,
0100
1000
0001
0000
0100
0000
0000
0000
,
0010
1000
0100
0000
1000
0001
0100
0000
,
0010
1000
0001
0000
0010
0001
0100
0000
,
0010
1000
0100
0000
0001
0100
0010
0000
,
0010
1000
0001
0010
0100
1000
0010
0100
,
0002
0000
0000
0000
,
0003
0000
0000
0000
;

//---------------dance-single - ----------------
#NOTES:
     dance-single:
     :
     Easy:
     5:
     0.369,0.396,0.027,0.000,0.000: // measure 1
1001
0000
0000
0000
,  // measure 2
0100
0000
0000
0000
,  // measure 3
0010
0000
1000
0000
,  // measure 4
0100
0100
0100
0100
,  // measure 5
0100
1000
0010
0100
,  // measure 6
0001
0000
0010
0000
0001
0001
0001
0000
,  // measure 7
0100
0010
1000
0001
,  // measure 8
0010
0000
0100
0000
1000
1000
1000
0000
,  // measure 9
0010
0100
0001
0010
,  // measure 10
0100
0000
0010
0000
0001
0001
0001
0000
,  // measure 11
0100
0010
1000
0001
,  // measure 12
0010
0000
0100
0000
0010
0010
0010
0000
,  // measure 13
0001
0000
0100
0000
,  // measure 14
0010
1000
0100
0000
,  // measure 15
1000
0000
0010
1000
,  // measure 16
0100
0001
0010
0000
,  // measure 17
0001
0000
0010
0000
,  // measure 18
0100
0000
1000
0000
,  // measure 19
0010
0000
0100
0001
,  // measure 20
1000
0000
0100
0000
,  // measure 21
1000
0010
0001
0010
,  // measure 22
1000
0000
0100
0000
0001
0001
0001
0000
,  // measure 23
0100
0010
1000
0001
,  // measure 24
0010
0000
0100
0000
1000
1000
1000
0000
,  // measure 25
0010
0100
0001
0010
,  // measure 26
0100
0000
1000
0000
0010
0010
0010
0000
,  // measure 27
1000
0100
0010
0001
,  // measure 28
1000
0000
0010
0000
0100
0100
0100
0000
,  // measure 29
0001
0000
0000
0001
0010
0000
0000
0010
,  // measure 30
0100
1000
0010
0100
,  // measure 31
0001
0000
0000
0001
0100
0000
0000
0100
,  // measure 32
0010
0000
0000
0010
1000
0000
0000
1000
,  // measure 33
0100
0000
0000
0100
0010
0000
0000
0010
,  // measure 34
0001
0000
0000
0001
0100
0000
0000
0100
,  // measure 35
0010
0000
0000
0010
1000
0000
0000
1000
,  // measure 36
0001
0001
0001
0001
,  // measure 37
0001
0000
0010
0000
,  // measure 38
0100
0000
1000
0000
,  // measure 39
0010
0100
0001
0010
,  // measure 40
0100
0000
1000
0000
0100
1000
0100
1000
,  // measure 41
0100
0000
0100
0000
0100
0100
0100
0000
,  // measure 42
1000
0000
1000
0000
1000
1000
1000
0000
,  // measure 43
0010
0000
0010
0000
0010
0010
0010
0000
,  // measure 44
0001
0000
0001
0000
0001
0001
0000
0000
,  // measure 45
0001
0000
0001
0000
0001
0001
0001
0000
,  // measure 46
0010
0000
0010
0000
0010
0010
0010
0000
,  // measure 47
0100
0000
0100
0000
0100
0100
0100
0000
,  // measure 48
1000
0000
0001
0000
0100
0010
0100
0000
,  // measure 49
1001
0000
0000
0000
;
