#TITLE:WE TWO ARE ONE;
#SUBTITLE:;
#ARTIST:Lala Moore;
#TITLETRANSLIT:;
#SUBTITLETRANSLIT:;
#ARTISTTRANSLIT:;
#CREDIT:;
#BANNER:;
#BACKGROUND:;
#LYRICSPATH:;
#CDTITLE:;
#MUSIC:WE TWO ARE ONE.mp3;
#OFFSET:0.250;
#SAMPLESTART:61.180;
#SAMPLELENGTH:12.000;
#SELECTABLE:YES;
#BPMS:0.000=160.000;
#STOPS:;
#BGCHANGES:;

//---------------dance-single - ----------------
#NOTES:
     dance-single:
     :
     Hard:
     9:
     0.584,0.640,0.553,0.065,0.130: // measure 1
0000
0000
0000
0000
,  // measure 2
0000
0000
0000
0000
,  // measure 3
0000
0000
0000
0000
,  // measure 4
0000
0000
0000
0000
,  // measure 5
0000
0000
0000
0000
0000
0000
0000
0001
,  // measure 6
1001
0000
0000
0000
0000
0000
0000
1000
,  // measure 7
1001
0000
0000
0000
0000
0000
0000
0001
,  // measure 8
0101
0000
0000
0100
0110
0000
0000
0010
,  // measure 9
1010
0000
0000
0000
1001
0000
0000
0000
0101
0000
0001
0010
0100
1000
0001
0100
,  // measure 10
0010
1000
0001
0000
0010
0011
0000
0101
,  // measure 11
0000
0000
1001
0000
0000
0000
1010
0000
0000
0000
0010
1000
0010
0000
1000
0000
,  // measure 12
0001
0010
0100
0000
1000
1100
0000
1001
,  // measure 13
0000
0000
0101
0000
0000
0000
0110
0000
0000
0000
0010
0100
0010
0000
0100
0000
,  // measure 14
0001
1000
0100
0000
1000
1100
0000
1001
,  // measure 15
0000
0000
0101
0000
0000
0000
1001
0000
0000
0000
0001
1000
0001
0000
0010
0000
,  // measure 16
0100
1000
0001
0000
1000
1001
0000
1001
,  // measure 17
0001
1000
0000
0001
1000
0000
0001
1000
0000
0001
1000
0000
0000
0000
0000
0000
,  // measure 18
1000
0100
0001
0000
0001
0100
1000
0000
,  // measure 19
1000
0010
0100
0001
0000
0001
1000
0000
,  // measure 20
1000
0010
0100
0000
0010
0100
0001
1000
,  // measure 21
0000
1000
0001
0100
0000
0010
0100
0001
,  // measure 22
0000
0001
0100
1000
0100
0010
1000
0010
,  // measure 23
0000
0010
1000
0001
0010
0100
1000
0010
,  // measure 24
0001
0010
1000
0100
0001
0100
1000
0010
,  // measure 25
1010
1001
0011
0110
,  // measure 26
0100
1000
0010
0000
0010
1000
0100
0000
,  // measure 27
0100
1000
0001
0100
0000
0100
0001
0000
,  // measure 28
0001
1000
0001
0000
0001
0010
0100
1000
,  // measure 29
0000
1000
0010
0001
0000
0001
0010
1000
,  // measure 30
0000
1000
0001
0010
0100
1000
0010
0100
,  // measure 31
0000
0001
0010
0100
1000
0010
0001
0010
,  // measure 32
1000
0100
0001
0100
1000
0010
0100
0010
,  // measure 33
1010
1001
0101
1001
,  // measure 34
2010
0000
0000
0001
3000
0000
0002
0000
,  // measure 35
2000
3003
1001
1010
,  // measure 36
0010
0000
1000
0000
0001
0010
0000
0010
,  // measure 37
0000
0010
0001
0010
0100
1000
0001
0100
,  // measure 38
0102
0000
0000
1000
0003
0000
0002
0000
,  // measure 39
2000
3003
0001
1000
,  // measure 40
0001
0010
0100
1000
0001
0100
0010
1000
,  // measure 41
0001
0010
0000
0010
0100
0000
0100
1000
0000
1000
0001
0000
0100
0000
0010
0000
,  // measure 42
1010
0000
1001
0000
0101
0000
0100
0001
,  // measure 43
0000
0000
0001
0000
0000
0000
0010
0000
0000
0000
0000
0000
0000
0000
0001
0010
,  // measure 44
0001
0000
0001
0010
0000
0010
0100
1000
,  // measure 45
0010
0000
0010
0100
0000
0100
0001
0010
,  // measure 46
0110
0000
1001
0000
1010
0000
1000
0010
,  // measure 47
0000
0010
0000
1000
0000
0000
0000
0010
,  // measure 48
1000
0000
1000
0001
0000
0001
0010
0100
,  // measure 49
1000
0010
0100
0001
,  // measure 50
0001
0100
1000
0100
0010
1000
0100
0010
,  // measure 51
0001
1000
0010
1000
0001
0010
0100
1000
,  // measure 52
0001
0000
1000
0000
0001
1001
0000
1010
,  // measure 53
0000
0000
1100
0000
0000
0000
1001
0000
0000
0000
0001
1000
0001
0000
0010
0000
,  // measure 54
0100
1000
0100
0000
1000
1100
0000
1001
,  // measure 55
0000
0000
0101
0000
0000
0000
0011
0000
0000
0000
0001
0010
0001
0000
1000
0000
,  // measure 56
0010
0100
0001
0000
0010
0011
0000
1001
,  // measure 57
0000
0000
1010
0000
0000
0000
1100
0000
0000
0000
1000
0100
1000
0000
0010
0000
,  // measure 58
0100
0001
0010
0000
0001
0010
0000
0100
,  // measure 59
1000
0010
0000
0100
0001
0000
1000
0100
0000
0010
0001
0000
1000
0010
0000
0100
,  // measure 60
0001
0000
0000
0000
;

//---------------dance-single - ----------------
#NOTES:
     dance-single:
     :
     Medium:
     6:
     0.428,0.480,0.304,0.087,0.033:
0000
0000
0000
0000
,
0000
0000
0000
0000
,
0000
0000
0000
0000
,
0000
0000
0000
0000
,
0000
0000
0000
0000
,
1010
0000
0000
0000
,
0101
0000
0000
0000
,
0011
0000
1100
0000
,
0110
1001
1010
1001
,
0000
0000
0001
0000
1000
0001
0000
0001
,
0000
0001
0000
0001
0000
0001
1000
0000
,
0000
0000
0001
0000
0001
1000
0000
1000
,
0000
1000
0000
1000
0000
1000
0001
0000
,
0000
0000
0100
0000
0100
0010
0000
0010
,
0000
0010
0000
0010
0000
0010
0100
0000
,
0000
0000
0010
0000
0010
0100
0000
0100
,
0010
0100
0010
0100
0010
0100
0010
0000
,
1000
0001
0010
0000
0010
0001
1000
0000
,
0001
1000
0000
1000
0001
0000
1001
0000
,
1000
0001
1000
0000
0001
1000
0001
0000
,
1000
0001
0000
0001
1000
0000
1001
0000
,
0001
0010
0100
0000
1000
0000
0100
0000
,
1000
0010
0100
0000
0010
0000
1000
0000
,
0001
1000
0001
0000
1000
0001
1000
0000
,
1000
0010
0100
0001
,
0001
0010
0100
0000
0100
1000
0001
0000
,
0001
1000
0001
1000
0000
1000
0001
0000
,
0001
1000
0001
0000
1000
0001
1000
0000
,
1000
0001
1000
0001
0000
0001
1000
0000
,
0010
1000
0001
0000
1000
0000
0100
0000
,
0010
0001
0010
0000
0100
0000
1000
0000
,
0001
1000
0010
0100
,
1001
1010
0101
0011
,
2010
0000
0000
0010
0000
0000
3001
0000
,
1001
0000
0010
1000
,
0001
0000
0100
0000
0010
1000
0000
1000
,
0000
1000
0001
1000
0001
1000
0001
0000
,
2001
0000
0000
0001
0000
0000
3010
0000
,
1001
0000
0010
1000
,
0001
1000
0010
1000
0001
0010
0100
0010
,
0001
1000
0010
0100
,
1001
0000
1010
0000
0101
0000
0001
0010
,
0000
0010
0000
0001
0000
0000
0000
0000
,
0010
0000
0010
1000
0000
1000
0010
0100
,
0001
0000
0001
0010
0000
0010
0110
0000
,
1001
0000
1010
0000
0101
0000
0001
0100
,
0000
0100
0000
0100
0000
0000
0000
0000
,
0001
0000
0001
0010
0000
0010
0100
1000
,
0001
0100
0010
1000
,
2002
0000
0000
3003
,
0220
0000
0330
0000
2002
0000
0000
3003
,
0000
0000
0010
0000
1000
0001
0000
0100
,
0000
0010
0000
1000
0000
0001
1000
0000
,
0000
0000
0010
0000
0100
0001
0000
0010
,
0000
0100
0000
1000
0000
0001
1000
0000
,
0000
0000
0010
0000
0100
0001
0000
0010
,
0000
0100
0000
0010
0000
0001
0010
0000
,
0000
0000
0001
0000
1000
0001
0000
1000
,
0001
1000
0000
0001
1000
0000
0001
1000
0000
0001
1000
0000
0001
1000
0000
0001
,
1000
0000
0000
0000
;

//---------------dance-single - ----------------
#NOTES:
     dance-single:
     :
     Easy:
     4:
     0.301,0.416,0.184,0.000,0.000:
0000
0000
0000
0000
,
0000
0000
0000
0000
,
0000
0000
0000
0000
,
0000
0000
0000
0000
,
0000
0000
0000
0000
,
0001
0000
0000
0000
,
1000
0000
0000
0000
,
0001
0000
0010
0000
,
0100
0000
1000
0000
,
0010
0010
0100
0100
,
0001
1000
0001
0000
,
1000
1000
0001
0001
,
1000
0010
0100
0000
,
0001
0001
0010
0010
,
0100
1000
0010
0000
,
0100
0100
0001
0001
,
1000
1000
0001
0001
,
0010
0000
0010
0000
,
0010
0100
0010
0000
,
1000
0000
1000
0000
,
0001
1000
0001
0000
,
0001
0001
0001
0000
,
1000
1000
1000
0000
,
0010
0000
0010
0000
,
0100
0100
0100
0100
,
0001
0000
0001
0000
,
1000
0000
1000
0000
,
0010
0100
0010
0000
,
0100
0010
0100
0000
,
0001
1000
0001
1000
,
1000
0001
1000
0001
,
0001
0010
0100
1000
,
1001
1010
0101
0011
,
0001
0000
1000
0000
,
1001
0000
0010
1000
,
0001
0010
0100
0010
,
0001
1000
0010
1000
,
0001
0000
1000
0000
,
0010
0000
0001
1000
,
0010
1000
0001
0010
,
0100
0100
0100
0100
,
1010
0101
0011
1100
,
0001
0001
0001
0000
,
1000
0010
0100
0001
,
0010
0100
1000
0001
,
1010
0101
0011
1100
,
0001
0001
0001
0000
,
0010
1000
0001
1000
,
0010
0100
0001
0010
,
0100
0010
0001
1000
,
0010
0100
0010
1000
,
0001
1000
0010
1000
,
0001
0010
0100
0110
,
0000
1000
0010
0100
,
0001
0010
0100
1100
,
0000
1000
0001
0010
,
0100
0010
0001
1001
,
0000
1000
0010
0100
,
0001
0001
1000
1000
,
1001
0000
0000
0000
;
