#TITLE:踊るフィーバーロボ;
#SUBTITLE:;
#ARTIST:ダニエル & eimy と よしくん;
#TITLETRANSLIT:ODORU FEVER ROBO;
#SUBTITLETRANSLIT:;
#ARTISTTRANSLIT:DANIEL & eimy TO YOSHI-KUN;
#CREDIT:DigiMindAxel;
#BANNER:ODORU FEVER ROBO.png;
#BACKGROUND:ODORU FEVER ROBO-bg.png;
#LYRICSPATH:ODORU FEVER ROBO.lrc;
#CDTITLE:pop'n music.png;
#MUSIC:ODORU FEVER ROBO.mp3;
#OFFSET:-4.960;
#SAMPLESTART:50.640;
#SAMPLELENGTH:12.000;
#SELECTABLE:YES;
#BPMS:0.000=160.000;
#STOPS:;
#BGCHANGES:;

//---------------dance-single - ----------------
#NOTES:
     dance-single:
     :
     Easy:
     3:
     0.248,0.273,0.252,0.084,0.000:
0001
1000
0001
1000
,
1000
0001
0001
0000
,
1000
0100
0010
0001
,
0010
0100
1000
0000
,
0001
0010
0100
1000
,
0100
0010
0001
0000
,
1001
0000
0000
0000
,
0110
0000
0000
0000
,
1001
0000
0000
0000
,
0110
0000
0000
0000
,
0110
0000
0000
0000
,
0110
0000
0000
0000
,
1001
0000
0001
0000
,
1000
0100
0000
0000
,
1000
0001
1000
0000
,
0001
0100
0001
0000
,
1000
0010
1000
0000
,
0010
0100
0010
0000
,
0100
0010
0100
0000
,
0001
0010
0001
0000
,
1000
0100
1000
0000
,
0001
0010
0100
1000
,
0010
0000
0100
0001
,
0010
0000
0100
1000
,
0020
0000
0230
0000
,
0310
1000
0100
0010
,
0001
0001
0001
0000
,
1000
1000
1000
0000
,
1001
0000
0110
0000
,
1001
0000
0000
1000
0000
0000
0001
0000
,
0000
0000
0000
0000
,
0110
0000
0110
0000
,
0110
0000
0000
0000
,
0001
1000
0100
0010
,
0001
0000
1000
0000
,
0110
0000
0110
0000
,
0110
0000
2000
0000
,
3001
0000
0010
0000
,
0100
0000
1000
0000
,
0001
0000
1001
0000
,
0000
0000
1001
0000
,
0000
0000
0002
0000
,
0000
0000
0023
0000
,
0000
0000
0230
0000
,
0000
0000
2300
0000
,
0000
3000
0001
1000
,
0001
1000
0100
1000
,
0100
1000
0001
0010
,
0100
1000
0010
0010
,
0010
0010
0110
0000
,
0000
0000
0000
0000
1001
0000
0000
1000
,
0000
0001
0000
0000
,
0000
0000
1001
0000
,
1001
0000
1001
0000
,
0000
0000
0010
0100
,
0001
0010
0100
1000
,
0001
0100
1001
0000
,
1001
0000
1001
0000
,
0002
0000
1003
0000
,
0100
0000
0010
0000
,
0001
0000
0100
0000
,
0110
0000
0000
0010
0000
0000
0100
0000
,
0001
0000
0000
1000
0000
0000
0001
0000
,
0200
0000
0000
0000
,
0000
0000
0000
0000
,
0300
0000
0000
0000
;

//---------------dance-single - ----------------
#NOTES:
     dance-single:
     :
     Medium:
     6:
     0.417,0.486,0.177,0.364,0.000:
1001
0001
0010
0100
,
1000
0010
0010
0100
,
0001
0100
0001
0000
1000
0100
1000
0000
,
0010
0100
0010
0000
1000
0100
0010
0000
,
0001
0010
0001
0000
1000
0010
1000
0000
,
0010
0100
0010
0000
1000
0000
0100
0000
,
0020
0030
0000
0001
,
2000
3000
0000
0100
,
0020
0030
0000
0001
,
0200
0300
0000
0010
,
2000
3000
0000
0100
,
0020
0030
0000
0001
,
1000
0000
0010
0100
0010
0000
1000
0100
,
0010
0001
1000
0010
0000
0000
0000
0000
,
1001
0000
1000
0000
0001
0000
0100
0001
,
0010
0000
0001
0000
0010
0000
0100
1000
,
0010
0000
0100
0000
0010
0000
1000
0100
,
0010
0000
0001
0000
0100
0010
0100
0000
,
1001
0000
0010
0000
0100
0000
1000
0010
,
0100
0010
0100
0010
,
1000
0100
0010
0000
0001
0000
1000
0000
,
0001
0010
0100
1000
0010
0100
0001
0010
,
0100
0000
0000
0000
1000
0100
1000
0000
,
1100
0000
0000
0000
0001
0010
0001
0000
,
0012
0000
0203
0000
,
0310
1000
0100
0010
,
0001
0000
1000
0001
1000
0000
0001
0000
,
1000
0000
0010
0100
0010
0000
1000
0000
,
0102
0000
2003
0000
,
3001
0001
0000
0100
0100
0000
0010
0010
,
0000
0000
1000
0010
,
0200
0020
0330
0000
0200
0020
0330
0000
,
0100
0010
0200
0020
0000
0000
0330
0000
,
1000
0000
0001
0010
0100
1000
0001
0000
,
0100
1000
0100
0001
,
0200
0020
0330
0000
0200
0020
0330
0000
,
0200
0020
0330
0000
2000
0000
0000
0000
,
3100
0000
0110
0000
,
0011
0000
1100
0000
,
1001
0000
0000
0000
1000
1000
0000
0010
,
0010
0000
0100
0100
0001
0001
0000
0000
,
0000
0000
1000
0100
,
0001
0100
1000
0001
,
1000
0001
1000
0010
,
0001
0010
1000
0010
,
0100
0010
1000
0100
,
0010
1001
0010
0100
,
1000
0110
0001
0010
,
0001
1000
0100
0010
,
0001
1000
0220
0000
,
0000
0000
0330
0000
0001
0001
0000
0100
,
0100
0000
0010
0010
0000
1000
0001
0000
,
1000
0000
1000
0000
0020
0200
0330
0000
,
0020
0200
0330
0000
0010
0100
0020
0200
,
0000
0330
0101
0100
,
0001
0010
0100
0000
1000
0000
0100
0010
,
0001
1000
0010
0000
0200
0020
0330
0000
,
0200
0020
0330
0000
0200
0020
0330
0000
,
2000
0000
3001
0000
,
0110
0000
1010
0000
,
0101
0000
0110
0110
,
1000
1000
0000
0100
0100
0000
0010
0010
,
0001
0100
0000
0001
1000
0000
0100
0010
,
0002
0000
0000
0000
,
0000
0000
0000
0000
,
0003
0000
0000
0000
;

//---------------dance-single - ----------------
#NOTES:
     dance-single:
     :
     Hard:
     9:
     0.703,0.728,0.243,0.224,0.467: // measure 1
1001
0000
0001
0010
0100
0000
0010
0000
,  // measure 2
0011
0000
0110
0000
1000
0100
0100
1000
,  // measure 3
0001
0010
1000
0010
0001
1000
0100
0001
,  // measure 4
0100
1000
0010
0100
0001
0100
0010
0000
,  // measure 5
1000
0010
0001
0010
1000
0100
0001
0100
,  // measure 6
1000
0000
1000
0000
0001
0000
0000
0000
0100
0000
0010
0000
1000
0001
1000
0001
,  // measure 7
2000
0000
3010
0000
0001
0000
0010
1000
,  // measure 8
0002
0000
0013
0000
0100
0000
0010
0001
,  // measure 9
0200
0000
0310
0000
1000
0000
0010
0001
,  // measure 10
0020
2030
3200
0320
,  // measure 11
0032
0000
0103
0000
1000
0000
0100
0001
,  // measure 12
2000
0000
3100
0000
0010
0000
0100
1000
,  // measure 13
0001
0100
0001
0000
0000
0000
1000
0010
1000
0000
0000
0000
0100
0000
0010
0000
,  // measure 14
0001
0000
0001
0000
1000
0000
0100
0000
0000
0000
0000
0000
1000
0001
1000
0001
,  // measure 15
1000
0000
0100
0000
1000
0000
0001
0000
0100
0000
0001
0100
0001
0000
1000
0100
,  // measure 16
1000
0000
0001
0010
0100
1000
0010
0100
,  // measure 17
0001
0000
0100
0010
0100
0000
0001
1000
0001
0000
0000
0000
0010
0000
0100
0000
,  // measure 18
1000
0000
0010
0000
0100
0000
0010
0000
1000
0000
0010
0100
0010
0000
1000
0001
,  // measure 19
1000
0000
0000
0000
0100
0000
0010
0000
0001
0000
1000
0100
1000
0000
0100
0010
,  // measure 20
0100
0000
0010
0100
1000
0010
0100
0001
,  // measure 21
1000
0000
0001
0100
0001
0000
0010
0100
0010
0000
0000
0000
0001
0000
0001
0000
,  // measure 22
1000
0000
0100
0000
0010
0000
0001
0000
0100
0000
0010
0000
1000
0010
1000
0010
,  // measure 23
1000
0001
0001
0000
0010
1000
0010
0001
,  // measure 24
1000
0001
0001
0000
0100
1000
0100
0001
,  // measure 25
2000
0000
3010
0100
0002
0000
0013
0100
,  // measure 26
1000
0010
0001
0010
1000
0001
0001
0001
,  // measure 27
0200
0000
0001
0000
0310
1000
1000
1000
,  // measure 28
0020
1000
0130
0101
,  // measure 29
2010
0100
3002
0100
,  // measure 30
1003
0100
1000
0000
0000
0000
0100
0010
0100
0000
0000
0000
0010
0001
0010
0000
,  // measure 31
0000
0000
0001
1000
0001
0000
0000
0000
0201
0000
0000
0000
0320
0000
0000
0000
,  // measure 32
1030
0000
0001
0000
1000
0001
1000
0001
1000
0000
0001
0000
1000
0010
1000
0010
,  // measure 33
1000
0000
0001
0000
0010
0001
0010
0001
0010
0000
0100
0000
1000
0000
0000
0000
,  // measure 34
0001
0100
0010
0001
0010
1000
0001
0000
,  // measure 35
0010
0000
0100
0000
1000
0000
0001
0000
0100
0000
0100
0000
0010
0100
0010
0000
,  // measure 36
1000
0000
0001
0000
1000
0001
1000
0001
1000
0000
0001
0000
0100
0001
0100
0001
,  // measure 37
0100
0000
0000
0000
0000
0000
0001
0000
0000
0000
0000
0000
1000
0000
0000
0100
0000
0000
1000
0000
0000
0100
0000
0000
1000
0000
0000
0000
0000
0000
0000
0000
0010
0000
0000
0000
0000
0000
0000
0000
0100
0000
0000
0000
0000
0000
0000
0000
,  // measure 38
0001
0000
0010
0000
0100
0000
1001
0000
1001
0000
1000
0000
,  // measure 39
0110
0000
0110
0000
0110
0000
0001
0000
1001
0000
1001
0000
,  // measure 40
1001
0000
0000
0000
0002
0000
0000
0000
1003
0010
1000
0000
0000
0000
0010
0100
,  // measure 41
0010
0000
0000
0000
0100
0001
0100
0000
0001
1000
0001
0000
0000
0000
0000
0000
,  // measure 42
0200
0000
0000
0000
0320
0000
0000
0000
1030
0000
0000
1000
0001
0000
0000
0001
,  // measure 43
0010
0000
0000
0010
0100
0000
0000
0000
0010
0000
0000
0010
0001
0000
0000
0001
,  // measure 44
1000
0000
0000
1000
0010
0000
0000
0000
0100
0000
0000
0100
0001
0000
0000
0001
,  // measure 45
0100
0000
0000
0100
0010
0000
0000
0000
1000
0000
0001
0000
0100
0001
0000
0001
,  // measure 46
0100
0000
0000
0000
0001
1000
0001
1000
0001
0000
0100
0000
1000
0000
0100
0000
,  // measure 47
0001
0100
0110
0010
1000
0100
0001
0100
,  // measure 48
1000
0010
0110
0100
0001
0010
0100
0001
,  // measure 49
0100
1000
0001
1000
0010
0100
1000
0100
,  // measure 50
0001
0000
1000
0000
0001
0100
0001
0100
0020
0000
0000
0000
0000
0000
0000
0000
,  // measure 51
0000
0000
0000
0000
0030
0000
0000
0000
1000
0010
1000
0000
0000
0000
0001
0100
,  // measure 52
0001
0000
0000
0000
0100
0010
0100
0000
0000
0000
0001
1000
0001
0000
0000
0000
,  // measure 53
2000
0000
0000
0000
3002
0000
0000
0000
0013
0000
0100
0000
1000
0010
1000
0010
,  // measure 54
1000
0000
0001
0000
0010
0100
0010
0100
0010
0000
0001
0000
0010
0001
0010
0001
,  // measure 55
0010
0100
1000
0010
0100
0000
0010
1000
,  // measure 56
0100
0010
0100
1000
0001
0100
1000
0100
,  // measure 57
0001
0000
0001
0000
0100
0010
0100
0000
0010
0000
1000
0000
0100
1000
0100
1000
,  // measure 58
0100
0000
0010
0000
0001
0100
0001
0100
0001
0000
1000
0000
0010
0100
0010
0100
,  // measure 59
0010
0000
1000
0000
0100
0000
0001
0000
0100
0000
1000
0000
,  // measure 60
0110
0000
0110
0000
0110
0000
0101
0000
0101
0000
0101
0000
,  // measure 61
1010
0000
0000
0000
0000
0000
0000
0000
1010
0000
0000
0000
0000
0000
0000
0000
1010
0000
0000
0000
0000
0000
0000
0000
0110
0000
0000
0000
0000
0000
0000
0000
0000
0000
0000
0000
0010
0000
0000
0100
0000
0000
0010
0000
0000
0100
0000
0000
,  // measure 62
0001
0100
0001
0000
0000
0000
0010
0100
0010
0000
0000
0000
0100
1000
0100
0000
,  // measure 63
1000
0001
1000
0000
0000
0000
0100
0010
0100
0000
0000
0000
1000
0001
1000
0001
,  // measure 64
0200
0000
0000
0000
,  // measure 65
0000
0000
0000
0000
,  // measure 66
0300
0000
0000
0000
;

//---------------dance-single - ----------------
#NOTES:
     dance-single:
     :
     Beginner:
     2:
     0.117,0.147,0.168,0.000,0.000:
1001
0000
0000
0000
,
0001
0000
0000
0000
,
1001
0000
1000
0000
,
1000
0000
0000
0000
,
0001
0000
0001
0000
,
0001
0000
0000
0000
,
0110
0000
0000
0000
,
0100
0000
0000
0000
,
0010
0000
0000
0000
,
0100
0000
0000
0000
,
0110
0000
0000
0000
,
1001
0000
0000
0000
,
0001
0000
1000
0000
,
0001
0000
0000
0000
,
1001
0000
0000
0000
,
1000
0000
0000
0000
,
1000
0000
0000
0000
,
0001
0000
0000
0000
,
0001
0000
0000
0000
,
0001
0000
0000
0000
,
1000
0000
0000
0000
,
1001
0000
0000
0000
,
0010
0000
0000
0000
,
0010
0000
0000
0000
,
0010
0000
0000
0000
,
0100
0000
0000
0000
,
0110
0000
0000
0000
,
0001
0000
0000
0000
,
1001
0000
0000
0000
,
1000
0000
0000
0000
,
0000
0000
0000
0000
,
1001
0000
0001
0000
,
1000
0000
0000
0000
,
0001
0000
0000
0000
,
0001
0000
0000
0000
,
1001
0000
1000
0000
,
0001
0000
1000
0000
,
1001
0000
0000
0000
,
0000
0000
0000
0000
,
0000
0000
0110
0000
,
0000
0000
0010
0000
,
0000
0000
1000
0000
,
0000
0000
1000
0000
,
0000
0000
1000
0000
,
0000
0000
1000
0000
,
0000
0000
1001
0000
,
0000
0000
1000
0000
,
0000
0000
0001
0000
,
0000
0000
0010
0000
,
0000
0000
0010
0000
,
0000
0000
1001
0000
,
0000
0000
0000
0000
,
0001
0000
1000
0000
,
0001
0000
1000
0000
,
0000
0000
0010
0000
,
0010
0000
0010
0000
,
0000
0000
0100
0000
,
0010
0000
0100
0000
,
0010
0000
1001
0000
,
0000
0000
0000
0000
,
0000
0000
0000
0000
,
0110
0000
0000
0000
,
0010
0000
0000
0000
,
0110
0000
0000
0000
;
