#TITLE:MAGICAL VOICE SHOWER;
#SUBTITLE:;
#ARTIST:ウッチーズ;
#TITLETRANSLIT:;
#SUBTITLETRANSLIT:;
#ARTISTTRANSLIT:;
#GENRE:;
#CREDIT:;
#BANNER:shower-banner.png;
#BACKGROUND:shower-bg.png;
#LYRICSPATH:;
#CDTITLE:cdtitle.png;
#MUSIC:Magical Voice Shower.mp3;
#OFFSET:-1.391;
#SAMPLESTART:8.897;
#SAMPLELENGTH:16.383;
#SELECTABLE:YES;
#BPMS:0.000=120.020
;
#STOPS:
;
#BGCHANGES:;
#KEYSOUNDS:;
#ATTACKS:;

//---------------dance-single - Blank----------------
#NOTES:
     dance-single:
     :
     Hard:
     9:
     0.575,0.596,0.371,0.199,0.634,400.000,43.000,23.000,0.000,0.000,0.000,0.575,0.596,0.371,0.199,0.634,400.000,43.000,23.000,0.000,0.000,0.000: // measure 0
0000
0000
0000
0000
,  // measure 1
0000
0000
0000
0000
,  // measure 2
0010
0000
0100
0000
1000
0100
0000
0001
0000
0010
0000
0100
1000
0000
0010
0000
,  // measure 3
0010
1000
0010
1000
0010
1000
0000
0001
0000
0010
0000
0100
0010
0000
0001
0000
,  // measure 4
1000
0000
0000
0000
1010
0000
0000
0011
0000
0000
0000
0100
0010
0000
0100
0000
,  // measure 5
1000
0000
0000
0100
0000
0010
0000
0001
0000
0000
0000
0010
0100
0000
0001
0000
,  // measure 6
0100
0000
0000
0010
0000
1000
0000
0100
0000
0000
0000
0001
0100
0000
0010
0000
,  // measure 7
0100
0000
0010
1000
0000
0000
0010
0000
0100
1000
0100
0010
1000
0000
0010
0000
,  // measure 8
0001
0000
0000
0000
0010
0000
0100
1000
0000
0000
0000
0100
0010
0000
1000
0000
,  // measure 9
0100
0000
0000
0001
0000
0100
0000
0000
1000
0000
0000
0000
0001
0000
0100
0000
,  // measure 10
0001
0000
0010
0100
0000
0000
1000
0000
0001
0000
0000
1000
0000
0000
0010
0000
,  // measure 11
1000
0000
0000
0010
0000
0000
0100
0001
0000
0100
0000
0010
1000
0000
0001
0000
,  // measure 12
0012
0000
0000
1000
0000
0000
0010
0000
0000
0000
1000
0000
0000
0010
0000
0000
,  // measure 13
0100
0000
0000
1000
0000
0000
0010
0000
0000
0000
0100
0000
0003
0010
0000
0000
,  // measure 14
2010
0000
0000
0010
0000
0000
0100
0000
0001
0000
0000
0010
0000
0100
0000
0000
,  // measure 15
0001
0000
0000
0010
0000
0000
0001
0000
0200
0000
0000
0000
3300
0000
0000
0000
,  // measure 16
1000
0000
0000
1000
0010
0000
0100
0000
0001
0000
0000
0001
0010
0000
0100
0000
,  // measure 17
1000
0000
0000
1000
0010
0000
0100
0000
0010
0000
0000
0010
0100
0000
0000
0000
,  // measure 18
1000
0000
0000
0100
0010
0000
0100
1000
0000
0100
0000
0001
0100
0001
0100
0000
,  // measure 19
0010
0100
0000
0001
0000
1000
0001
0000
1010
0000
0000
0000
0101
0000
0000
0000
,  // measure 20
0001
0000
1000
0010
0000
0100
0000
0001
0000
0000
0000
0001
0010
0000
0001
0000
,  // measure 21
0100
0000
0010
1000
0000
0010
0000
0100
0000
0000
0000
0001
0100
0000
0010
0000
,  // measure 22
1000
0100
1000
0100
1000
0100
0000
0001
0000
0100
0000
0010
1000
0000
0010
0000
,  // measure 23
0001
0000
0010
0100
0010
0100
1000
0010
0100
0001
0010
0001
0100
0000
0010
0100
,  // measure 24
1000
0000
0100
0001
0100
0001
0100
0000
0001
0000
0010
1000
0010
1000
0010
0000
,  // measure 25
1000
0000
0001
0100
0001
0100
0001
0000
0100
0000
0010
0001
0010
0001
0010
0000
,  // measure 26
0001
0000
1000
0100
1000
0100
1000
0000
0001
0000
0000
0000
1001
0000
0000
0000
,  // measure 27
0110
0000
0001
1000
0000
1000
0001
0000
2002
0000
0000
0000
3003
0000
0000
0000
,  // measure 28
1010
0000
0000
0101
0000
0011
0000
1100
0000
0010
0000
0000
0010
0000
0000
0000
,  // measure 29
0110
0000
0000
0000
0000
0000
0000
0000
0000
1100
0000
0000
0000
0000
0000
0110
0000
0000
0000
0000
0000
0011
0000
0000
0000
0000
0000
0000
0001
0000
0000
0000
0100
0000
0000
0000
0010
0000
0000
0000
0000
0000
0000
0000
0000
0000
0000
0000
,  // measure 30
0100
0000
0010
1000
0000
0100
0000
0001
0000
0100
0000
0010
0001
0000
0000
0000
,  // measure 31
0100
0000
0000
0000
0010
1000
0000
0001
0100
0000
0001
0010
0001
0010
0001
0000
,  // measure 32
1000
0000
0010
0100
0000
0001
0000
0010
0000
0001
0000
0100
0010
0000
0000
0000
,  // measure 33
0100
0000
0000
0000
1000
0000
0100
0000
0000
0000
0010
0000
0000
0000
0100
0000
0000
0000
0011
0000
0000
0011
0000
0000
0011
0000
0000
0000
0000
0000
0000
0000
,  // measure 34
0210
0000
0010
0300
2020
0000
0000
3030
,  // measure 35
0000
0000
0001
0000
0000
0100
0000
0000
0010
0000
1000
0000
0000
0000
0001
0000
0100
0000
0010
0000
0000
0000
0100
0000
0000
0000
0000
0000
0000
0000
0000
0000
,  // measure 36
2100
0000
0000
0100
3000
0000
0210
0000
0000
0010
0300
0000
0021
0000
0001
0030
,  // measure 37
0210
0000
0000
0010
0300
0000
2100
0000
0000
0100
3000
0000
0210
0000
0010
0300
,  // measure 38
0021
0000
0000
0001
0030
0000
0210
0000
0000
0310
0000
0000
2100
0000
3010
0000
,  // measure 39
0101
0000
0001
0000
1000
0000
0001
0000
1000
0001
1000
0001
1000
0000
0001
0000
,  // measure 40
0010
0000
1000
0010
0000
0000
1000
0000
0010
1000
0000
0000
1010
0000
1010
0000
,  // measure 41
0100
0000
0010
0100
0000
0000
0010
0000
0100
0010
0000
0000
0110
0000
0110
0000
,  // measure 42
0100
0000
0001
0100
0000
0000
0001
0000
0100
0001
0000
0000
0101
0000
0101
0000
,  // measure 43
1000
0000
0000
0001
0000
1000
0000
0000
0001
0000
0000
0000
0010
0000
0100
0000
,  // measure 44
1000
0000
0000
0001
0000
0000
0100
0000
0010
0000
1000
0000
0001
0000
0100
0000
,  // measure 45
0001
0000
0000
0010
0000
0000
0001
0000
0100
0000
0010
0000
1000
0000
0100
0000
,  // measure 46
0010
0110
0010
0101
,  // measure 47
1000
0000
0101
0000
0010
1000
1001
0100
,  // measure 48
0001
0000
0010
0100
0010
0000
0100
0000
0001
0000
0100
0000
1000
0000
0010
0000
,  // measure 49
0100
0000
0001
0010
0001
0000
0100
0000
0010
0000
1000
0000
0100
0000
0010
0000
,  // measure 50
0100
0000
1000
0010
0100
0000
0010
0000
0001
0000
1000
0100
1000
0000
0100
0000
,  // measure 51
0010
0000
0100
0010
0000
0000
1000
0000
0100
0000
0001
0000
0100
0000
0010
0000
,  // measure 52
0002
0023
0230
2300
,  // measure 53
3010
0000
0000
1000
0000
0000
0001
0000
0000
0000
0010
0000
1000
0010
0000
0000
,  // measure 54
0100
0000
0000
1000
0000
0000
0000
0000
0000
0010
0000
0100
0000
0000
2002
0000
,  // measure 55
0000
3003
0000
0000
;

//---------------dance-single - Blank----------------
#NOTES:
     dance-single:
     :
     Medium:
     5:
     0.335,0.355,0.207,0.147,0.082,231.000,24.000,17.000,0.000,0.000,0.000,0.335,0.355,0.207,0.147,0.082,231.000,24.000,17.000,0.000,0.000,0.000:
0000
0000
0000
0000
,
0000
0000
0000
0000
,
0001
0100
0010
0000
0100
1000
0100
0000
,
0001
1000
0001
0000
0010
0100
0010
0000
,
2100
0100
3100
0000
,
0210
0010
0310
0000
,
0012
0000
0010
0003
2100
0000
3100
0000
,
0010
0100
0010
0001
0010
0000
1001
0000
,
1000
0010
1000
0100
1000
0000
0000
0000
,
0001
0100
0001
0010
,
0001
0100
1000
0000
0100
1000
0100
0000
,
0100
0001
0010
0001
0100
0000
0010
0000
,
0001
0100
0001
0010
,
0100
0010
1000
0000
,
0010
0010
0100
0100
,
0001
0100
1000
0000
,
0001
0011
0100
1010
,
0001
1100
0010
0101
,
0010
0110
1000
1001
,
0001
0100
0010
1001
,
0010
0000
0001
0000
1000
1000
1000
0000
,
0010
0000
0100
0000
0001
0001
0001
0000
,
0010
0000
1000
0000
0010
0010
0010
0000
,
1000
0000
0001
0000
0100
0100
0100
0000
,
0010
0000
0100
0000
0001
0001
0001
0000
,
0010
0000
0001
0000
1000
1000
1000
0000
,
0100
0010
1000
1001
,
1001
0000
0010
0000
0020
0000
0000
0030
,
1000
0000
0000
1000
0000
1000
0000
1000
0000
0000
0000
0000
0000
0000
0000
0000
,
0010
0000
0000
0010
0000
0010
0000
0010
0000
0000
0000
0000
0000
0000
0000
0000
,
0001
0000
0000
0001
0000
0001
0000
0001
0000
0000
0000
0000
0000
0000
0000
0000
,
0010
0000
0100
0001
,
0010
0000
0000
0010
0000
0010
0000
0010
0000
0000
0000
0000
0000
0000
0000
0000
,
1000
0000
0000
1000
0000
1000
0000
1000
0000
0000
0000
0000
0000
0000
0000
0000
,
0010
0001
0100
0010
,
1002
2003
3002
1003
,
2010
0000
0000
0010
0000
0000
0010
0000
0000
0000
0000
3000
0000
0000
0000
0000
,
0102
0000
0000
0100
0000
0000
0100
0000
0000
0000
0000
0000
0000
0003
0000
0000
,
0210
0000
0000
0010
0000
0000
0010
0000
0000
0000
0000
0000
0300
0000
0000
0000
,
1020
0000
0000
1000
0000
0000
1000
0000
0000
0000
0000
0000
0030
0000
0000
0000
,
0001
0000
0100
0000
0010
2000
0010
3000
,
0100
0000
0010
0000
0001
0100
0001
0000
,
0010
0000
1000
0000
0100
0010
0100
0000
,
0001
0000
0100
0000
0010
1000
0010
0100
,
0001
0010
0200
0320
,
1030
0001
0200
0302
,
0013
0110
1000
1100
,
0010
0100
0101
1001
,
0001
0100
0001
0000
0010
1000
0010
0000
,
0010
0100
0010
0000
1000
0001
1000
0000
,
0010
0110
0010
0100
,
0100
0000
0010
0100
0001
0000
0001
1000
,
0100
0000
0010
0100
0001
0000
0100
0000
,
1000
0000
1000
0000
,
0010
0000
1000
0000
0001
1000
0001
1000
;

//---------------dance-single - Blank----------------
#NOTES:
     dance-single:
     :
     Easy:
     4:
     0.245,0.353,0.147,0.060,0.000,175.000,17.000,7.000,0.000,0.000,0.000,0.245,0.353,0.147,0.060,0.000,175.000,17.000,7.000,0.000,0.000,0.000:
0000
0000
0000
0000
,
0000
0000
0000
0000
,
0001
0000
0000
0000
,
0100
0010
0100
0000
,
1000
1000
1000
0000
,
0010
0010
0010
0000
,
0001
0000
0100
0000
,
0001
0100
0110
0110
,
1000
0100
0010
0000
,
0001
0100
0010
0001
,
0100
1000
0100
0010
,
0100
0001
0010
0000
,
0101
0000
1010
0000
,
0110
0000
1001
0000
,
0100
0100
0010
0010
,
0001
1000
1001
0000
,
0010
0010
0010
0010
,
0100
0100
0100
0100
,
0001
1000
1001
0110
,
0001
0010
0100
0001
,
0010
0010
0010
0000
,
0100
0100
0100
0000
,
1000
0100
1000
0010
,
0100
0001
0010
0001
,
0100
0010
1000
1000
,
0001
0010
0100
0100
,
0001
0010
0100
0100
,
1000
0100
1000
0000
,
0010
0000
0000
0001
,
0110
0000
0000
1000
,
1100
0000
0000
0010
,
0100
0000
0001
0000
,
0010
0100
0001
0010
,
0001
0100
0010
1000
,
0100
0000
1000
0000
,
0010
0100
0110
1100
,
0010
0100
0001
0010
,
0010
0100
0001
0010
,
1000
1000
0100
0010
,
0001
0100
0010
1000
,
0010
1000
0100
0010
,
0100
0001
0010
0100
,
0010
0001
0100
0010
,
1000
0100
0010
0100
,
2001
3000
0220
0330
,
0022
0033
2200
3300
,
0010
0100
0001
0010
,
0100
0010
1000
0100
,
0010
1000
1000
0001
,
0100
0100
0010
1000
,
0100
0100
1000
1000
,
0010
0100
0001
0010
,
0100
0000
0001
0000
,
0010
0010
0010
0000
,
0100
0000
0100
0000
;

//---------------dance-single - Blank----------------
#NOTES:
     dance-single:
     :
     Beginner:
     1:
     0.118,0.117,0.035,0.000,0.000,92.000,4.000,0.000,0.000,0.000,0.000,0.118,0.117,0.035,0.000,0.000,92.000,4.000,0.000,0.000,0.000,0.000:
0000
0000
0000
0000
,
0000
0000
0000
0000
,
0001
0000
0000
0000
,
0010
0000
0000
0000
,
1000
0000
0000
0000
,
0010
0000
0000
0000
,
0001
0000
0100
0000
,
0010
0010
0010
0000
,
0100
0000
0000
0000
,
0001
0000
0000
0000
,
0010
0000
0100
0000
,
0001
0001
0001
0000
,
0010
0000
0010
0000
,
0100
0000
0100
0000
,
0001
0000
0001
0000
,
1000
0000
1001
0000
,
0010
0000
0010
0000
,
0010
0000
0010
0000
,
0100
0000
0100
0000
,
0100
0000
0100
0000
,
1000
0000
0000
0000
,
0010
0000
0000
0000
,
0001
0000
0100
0000
,
0010
0000
0100
0000
,
1000
0000
0000
0000
,
0100
0000
0000
0000
,
0010
0000
0001
0000
,
0010
0010
0010
0000
,
0100
0000
0000
0000
,
0010
0000
0000
0000
,
1000
0000
0000
0000
,
0001
0000
0010
0000
,
0100
0000
0000
0000
,
0010
0000
0000
0000
,
1000
0000
0000
0000
,
0001
0000
0000
0000
,
0110
0000
0010
0000
,
0010
0000
0010
0000
,
1001
0000
1000
0000
,
1000
0000
1000
0000
,
0010
0000
0001
0000
,
0100
0000
1000
0000
,
0010
0000
0010
0000
,
0100
0000
0100
0000
,
0001
0000
0010
0000
,
0100
0000
1000
0000
,
0010
0000
0001
0000
,
0010
0000
0100
0000
,
0001
0000
0001
0000
,
0100
0000
0010
0000
,
1000
0000
0100
0000
,
0010
0000
0001
0000
,
0100
0000
0010
0000
,
1000
1000
1000
0000
,
1001
0000
0000
0000
;
