#TITLE:緋月の狂想曲;
#SUBTITLE:;
#ARTIST:倉持武志;
#TITLETRANSLIT:HITSUKI NO KYOUSOUKYOKU;
#SUBTITLETRANSLIT:;
#ARTISTTRANSLIT:TAKESHI KURAMOCHI;
#CREDIT:;
#BANNER:Hitsuki no Kyousoukyoku.png;
#BACKGROUND:Hitsuki no Kyousoukyoku-bg.png;
#LYRICSPATH:;
#CDTITLE:;
#MUSIC:Hitsuki no Kyousoukyoku.mp3;
#OFFSET:-0.118;
#SAMPLESTART:16.965;
#SAMPLELENGTH:16.420;
#SELECTABLE:YES;
#BPMS:0.000=270.000,68.000=135.000,72.000=270.000;
#STOPS:;
#BGCHANGES:;

//---------------dance-single - ----------------
#NOTES:
     dance-single:
     :
     Hard:
     10:
     0.855,1.000,0.387,0.330,0.038:
0000
0000
0000
0000
,
0000
0000
0000
0000
,
0000
0000
0000
0000
,
0000
0000
0000
0000
,
0000
0000
0000
0000
,
0000
0000
0000
0000
,
0000
0000
0000
0000
,
0000
0000
0000
0000
,
0000
0000
0000
0000
,
2001
3100
2000
3100
,
0020
0031
0200
0310
,
2000
0000
3001
0100
0020
0000
1000
0000
,
0130
0110
1010
1001
,
0101
0000
0100
0010
0000
0010
1000
0000
,
1000
0001
0000
0001
0010
0000
0010
0100
,
1000
0000
0010
0100
0000
0010
0100
0000
,
0001
0100
0010
1000
0002
0000
1003
0000
,
0001
0100
0001
0200
0000
0000
0310
0000
1000
0001
1000
0002
0000
0000
0103
0000
,
0110
0000
0010
0000
1000
0100
0010
0000
,
0001
0000
0100
0010
1000
0010
0100
0000
,
0001
0000
0010
0000
0100
1000
0001
0000
,
0010
0000
0001
0100
0010
0100
0001
0000
,
0010
0000
0100
0000
1000
0001
0010
0000
,
0100
0000
1000
0010
0100
0010
1000
0000
,
0100
0000
0010
0000
0001
0100
0010
0000
,
1000
0000
0001
0010
0100
0010
0001
0000
,
0101
0000
0100
0000
0010
1000
0100
0000
,
1000
0000
0001
0010
0100
0010
0001
0000
,
0100
0000
0010
0000
1000
0100
0010
0000
,
0001
0000
0100
0010
1000
0010
0100
0000
,
0101
0000
0001
0000
0010
0100
1000
0000
,
0001
0000
0100
0010
1000
0010
0100
0000
,
0001
0000
0000
0001
2000
0000
3010
0000
,
1000
0010
0100
0010
1000
0100
0010
0000
,
0011
0000
0001
0000
0100
0010
1000
0000
,
0100
0000
1000
0001
0100
0001
1000
0000
,
0010
0000
1000
0000
0100
1000
0001
0000
,
0010
0000
0001
0100
0010
1000
0001
0000
,
1000
0000
0100
0000
0010
0001
0100
0000
,
0010
0000
1000
0100
0010
0001
1000
0000
,
0001
0000
0010
0000
0100
1000
0010
0000
,
0100
0000
0001
0010
0100
1000
0010
0000
,
1010
0000
0010
0000
0100
0001
1000
0000
,
0010
0000
0100
0001
0100
1000
0100
0000
,
0001
0000
0100
0000
0010
1000
0001
0000
,
0010
0000
0001
0100
0010
0100
1000
0000
,
1100
0000
0100
0000
0001
0010
0100
0000
,
1000
0000
0010
0100
0001
0010
1000
0000
,
0010
0000
0000
0010
0002
0000
1003
0000
,
0010
0100
0010
1000
0001
0010
0001
0000
,
2002
0000
3003
0000
1000
0010
1000
0000
,
1000
0001
1000
0000
1000
0100
1000
0000
,
0001
0010
0001
0000
0001
1000
0001
0000
,
0001
0100
0001
0000
0001
1000
0001
0000
,
0220
0000
0330
0000
0010
1000
0010
0000
,
0010
0100
0010
0000
0010
0001
0010
0000
,
0100
1000
0100
0000
0100
0010
0100
0000
,
0100
0001
0100
0000
0100
0010
0100
0000
,
2002
0000
3003
0000
0001
0100
0001
0000
,
0001
1000
0001
0000
1000
0100
1000
0000
,
1000
0001
1000
0000
0001
0010
0001
0000
,
0001
1000
0001
0000
1000
0100
1000
0000
,
1001
0000
1000
0000
0010
0100
0001
0000
,
0010
0000
0100
1000
0001
0010
0001
0000
,
0100
0000
0010
0000
1000
0100
0010
0000
,
0001
0000
0100
0010
1000
0001
0010
0000
,
0001
0000
0100
0000
0010
1000
0001
0000
,
0010
0000
0001
0100
0010
1000
0100
0000
,
1000
0000
0100
0000
0010
0001
0100
0000
,
0010
0000
1000
0001
0010
0001
1000
0000
,
1100
0011
0101
1010
,
1001
0101
0110
1010
,
1002
0000
0000
0203
0000
0000
0310
0000
,
0110
0010
1000
0001
,
0102
0000
1003
0100
,
1100
0100
0010
0001
,
0011
0000
0001
0100
0000
0010
1000
0000
,
0001
0010
0100
0010
0002
0000
1003
0000
,
0001
0000
0100
0000
0001
0000
1000
0000
0100
0000
1000
0000
,
0101
1010
1100
0011
,
0102
0000
0013
0000
0001
0010
0100
0000
,
0010
0100
1000
0000
0100
1000
0001
0000
,
1000
0001
0100
0000
0001
0100
0010
0000
,
0100
0010
1000
0000
0010
1000
0001
0000
,
0010
0000
0100
1000
0000
1000
0010
0000
,
1000
0000
0100
0010
0000
0010
0001
0000
,
1001
0000
0000
0102
0000
0000
1003
0000
,
0001
0100
0010
1000
0001
0010
0001
0000
,
2001
0000
3100
0000
1000
0010
0100
0000
,
0001
0010
0100
1000
0200
0000
0310
0000
,
0001
0000
0010
0000
0100
1000
0010
0000
,
1000
0010
0100
0001
1000
0100
0010
0001
,
2000
0010
3001
1000
,
0001
0000
0100
0010
0000
0010
1000
0000
,
0011
0000
0001
0010
0100
1000
0100
0010
,
0002
0000
0103
0020
0000
1030
0001
0000
,
1000
0100
0010
0001
0100
0010
1000
0000
,
0001
0010
0100
1000
0100
0010
0001
0000
,
0100
0010
1000
0001
0010
0001
1000
0000
,
0100
1000
0010
0100
0001
0010
0001
0000
,
2000
0010
0001
3100
,
0002
0000
0010
0000
1000
0000
0103
0001
,
0020
0000
0100
0000
1030
0000
0010
0001
,
0100
0000
0010
1000
0000
0001
0100
0000
,
0101
0000
0100
0000
0010
1000
0100
0000
,
1000
0000
0001
0010
0001
1000
0010
0000
,
1000
0000
0010
0100
0000
0001
0010
0000
,
0100
1000
0000
0001
0020
0000
0031
0000
,
0012
0010
0103
0001
,
0100
0000
0100
0010
0000
0010
1000
0000
,
1001
0000
1000
0010
0100
0010
1000
0100
,
0010
0001
0100
0010
1000
0001
1000
0000
,
2002
0000
0000
0000
,
0000
0000
0000
0000
,
3003
0000
0000
0000
;

//---------------dance-single - ----------------
#NOTES:
     dance-single:
     :
     Beginner:
     3:
     0.205,0.317,0.009,0.000,0.000: // measure 1
0000
0000
0000
0000
,  // measure 2
0000
0000
0000
0000
,  // measure 3
0000
0000
0000
0000
,  // measure 4
0000
0000
0000
0000
,  // measure 5
0000
0000
0000
0000
,  // measure 6
0000
0000
0000
0000
,  // measure 7
0000
0000
0000
0000
,  // measure 8
0000
0000
0000
0000
,  // measure 9
0000
0000
0000
0000
,  // measure 10
1000
0000
0000
0000
,  // measure 11
0001
0000
0000
0000
,  // measure 12
0100
0000
0000
0000
,  // measure 13
0010
0000
0000
0000
,  // measure 14
1000
0000
0000
0000
,  // measure 15
0001
0000
0000
0000
,  // measure 16
0100
0000
0100
0000
,  // measure 17
0010
0000
0010
0000
,  // measure 18
1000
0000
0001
0000
,  // measure 19
1000
0000
0000
0000
,  // measure 20
0100
0000
0000
0000
,  // measure 21
0010
0000
0000
0000
,  // measure 22
0001
0000
0001
0000
,  // measure 23
0001
0000
0000
0000
,  // measure 24
1000
0000
1000
0000
,  // measure 25
1000
0000
0000
0000
,  // measure 26
0010
0000
0010
0000
,  // measure 27
0010
0000
0000
0000
,  // measure 28
0100
0000
0100
0000
,  // measure 29
0100
0000
0000
0000
,  // measure 30
0001
0000
0001
0000
,  // measure 31
0001
0000
0000
0000
,  // measure 32
1000
0000
1000
0000
,  // measure 33
1000
0000
0000
0000
,  // measure 34
0010
0000
0010
0000
,  // measure 35
0010
0000
0000
0000
,  // measure 36
0100
0000
0000
0000
,  // measure 37
0001
0000
0000
0000
,  // measure 38
1000
0000
1000
0000
,  // measure 39
1000
0000
0000
0000
,  // measure 40
0001
0000
0001
0000
,  // measure 41
0001
0000
0000
0000
,  // measure 42
0010
0000
0010
0000
,  // measure 43
0010
0000
0000
0000
,  // measure 44
0100
0000
0100
0000
,  // measure 45
0100
0000
0000
0000
,  // measure 46
1000
0000
1000
0000
,  // measure 47
1000
0000
0000
0000
,  // measure 48
0001
0000
0000
0000
,  // measure 49
0100
0000
0000
0000
,  // measure 50
0010
0000
0010
0000
,  // measure 51
1000
0000
1000
0000
,  // measure 52
0001
0000
0001
0000
,  // measure 53
0100
0000
0100
0000
,  // measure 54
0010
0000
0010
0000
,  // measure 55
1000
0000
1000
0000
,  // measure 56
0100
0000
0100
0000
,  // measure 57
0001
0000
0001
0000
,  // measure 58
0100
0000
0100
0000
,  // measure 59
1000
0000
1000
0000
,  // measure 60
0010
0000
0010
0000
,  // measure 61
0100
0000
0100
0000
,  // measure 62
0001
0000
0000
0000
,  // measure 63
1000
0000
0000
0000
,  // measure 64
0010
0000
0000
0000
,  // measure 65
0100
0000
0000
0000
,  // measure 66
0001
0000
0000
0000
,  // measure 67
1000
0000
0000
0000
,  // measure 68
0100
0000
0000
0000
,  // measure 69
0010
0000
0000
0000
,  // measure 70
0001
0000
0001
0000
,  // measure 71
1000
0000
1000
0000
,  // measure 72
0010
0000
0000
0000
,  // measure 73
0100
0000
0000
0000
,  // measure 74
0001
0000
0000
0000
,  // measure 75
1000
0000
0000
0000
,  // measure 76
0001
0000
0001
0000
,  // measure 77
0100
0000
0100
0000
,  // measure 78
1000
0000
1000
0000
,  // measure 79
0100
0000
0100
0000
,  // measure 80
0001
0000
0000
0000
,  // measure 81
1000
0000
0000
0000
,  // measure 82
0010
0000
0000
0000
,  // measure 83
0100
0000
0000
0000
,  // measure 84
0001
0000
0000
0000
,  // measure 85
1000
0000
0000
0000
,  // measure 86
0010
0000
0000
0000
,  // measure 87
0100
0000
0100
0000
,  // measure 88
0010
0000
0010
0000
,  // measure 89
0001
0000
0000
0000
,  // measure 90
1000
0000
0000
0000
,  // measure 91
0010
0000
0000
0000
,  // measure 92
0100
0000
0000
0000
,  // measure 93
0001
0000
0000
0000
,  // measure 94
1000
0000
0000
0000
,  // measure 95
0010
0000
0010
0000
,  // measure 96
1000
0000
1000
0000
,  // measure 97
0100
0000
0100
0000
,  // measure 98
0010
0000
0010
0000
,  // measure 99
0001
0000
0001
0000
,  // measure 100
1000
0000
1000
0000
,  // measure 101
0100
0000
0000
0000
,  // measure 102
0010
0000
0000
0000
,  // measure 103
0001
0000
0000
0000
,  // measure 104
1000
0000
1000
0000
,  // measure 105
1000
0000
0000
0000
,  // measure 106
0001
0000
0000
0000
,  // measure 107
0100
0000
0100
0000
,  // measure 108
0001
0000
0001
0000
,  // measure 109
0010
0000
0000
0000
,  // measure 110
0100
0000
0100
0000
,  // measure 111
1000
0000
0010
0000
,  // measure 112
0100
0000
0001
0000
,  // measure 113
1001
0000
0000
0000
;

//---------------dance-single - ----------------
#NOTES:
     dance-single:
     :
     Easy:
     6:
     0.453,0.528,0.292,0.000,0.000: // measure 1
0000
0000
0000
0000
,  // measure 2
0000
0000
0000
0000
,  // measure 3
0000
0000
0000
0000
,  // measure 4
0000
0000
0000
0000
,  // measure 5
0000
0000
0000
0000
,  // measure 6
0000
0000
0000
0000
,  // measure 7
0000
0000
0000
0000
,  // measure 8
0000
0000
0000
0000
,  // measure 9
0000
0000
0000
0000
,  // measure 10
1000
0000
1100
0000
,  // measure 11
0001
0000
0101
0000
,  // measure 12
1000
0001
1000
0000
,  // measure 13
0010
0000
0101
0000
,  // measure 14
0001
0100
0001
0000
,  // measure 15
0100
1000
0100
0000
,  // measure 16
1000
0010
1000
0000
,  // measure 17
0010
0001
0010
0000
,  // measure 18
0011
0000
1100
0000
,  // measure 19
1001
0000
0001
0000
,  // measure 20
0100
0010
0100
0000
,  // measure 21
0001
0000
0010
0000
,  // measure 22
0100
1000
0100
0000
,  // measure 23
0010
0000
0001
0000
,  // measure 24
1000
0100
1000
0000
,  // measure 25
0010
0000
0100
0000
,  // measure 26
0001
0010
0001
0000
,  // measure 27
0101
0000
0100
0000
,  // measure 28
0010
1000
0010
0000
,  // measure 29
0100
0000
0001
0000
,  // measure 30
1000
0100
1000
0000
,  // measure 31
0011
0000
0001
0000
,  // measure 32
0100
0010
0100
0000
,  // measure 33
0010
1000
0100
0001
,  // measure 34
0100
1000
0010
0001
,  // measure 35
1001
0000
0001
0000
,  // measure 36
0100
0010
1000
0000
,  // measure 37
0010
0000
0100
0000
,  // measure 38
0001
1000
0100
0000
,  // measure 39
0010
0000
0001
0000
,  // measure 40
1000
0010
0100
0000
,  // measure 41
0001
0000
0100
0000
,  // measure 42
0010
1000
0001
0000
,  // measure 43
1000
0000
0100
0000
,  // measure 44
0010
0001
0100
0000
,  // measure 45
0010
0000
1000
0000
,  // measure 46
0100
1000
0010
0000
,  // measure 47
0101
0000
0001
0000
,  // measure 48
0010
0100
1000
0000
,  // measure 49
1001
0000
0001
0000
,  // measure 50
0100
0010
1000
0010
,  // measure 51
0100
0000
0001
0001
,  // measure 52
0010
0010
0100
0100
,  // measure 53
1000
1000
0010
0010
,  // measure 54
0100
0100
0001
0001
,  // measure 55
1001
0000
1000
1000
,  // measure 56
0100
0100
0001
0001
,  // measure 57
0100
0100
1000
1000
,  // measure 58
0010
0010
0001
0001
,  // measure 59
0011
0000
0001
0001
,  // measure 60
0010
0010
1000
1000
,  // measure 61
0100
0100
0001
0001
,  // measure 62
0010
0010
1000
1000
,  // measure 63
0001
0100
0001
0000
,  // measure 64
0100
0010
0100
0000
,  // measure 65
0010
1000
0010
0000
,  // measure 66
1000
0100
1000
0000
,  // measure 67
0100
0010
0100
0000
,  // measure 68
0010
0001
0010
0000
,  // measure 69
0001
0100
0001
0000
,  // measure 70
0100
0010
0100
0000
,  // measure 71
0010
1000
0100
1000
,  // measure 72
0001
0010
0001
1000
,  // measure 73
0001
0000
0101
0000
,  // measure 74
1000
0000
1100
0000
,  // measure 75
0001
0000
0011
0000
,  // measure 76
1000
0010
1000
0000
,  // measure 77
0001
0100
0010
1000
,  // measure 78
0010
0100
0001
0000
,  // measure 79
1000
0100
0010
0001
,  // measure 80
0010
0100
1000
0001
,  // measure 81
1001
0000
0001
0001
,  // measure 82
0100
0100
0010
0010
,  // measure 83
1000
1000
0100
0100
,  // measure 84
0010
0010
0001
0001
,  // measure 85
1000
0000
1100
0000
,  // measure 86
0001
0000
0101
0000
,  // measure 87
1001
0000
1001
0000
,  // measure 88
0001
0010
0100
1000
,  // measure 89
0001
0000
1000
0000
,  // measure 90
0010
0100
0010
0000
,  // measure 91
1000
0000
0100
0000
,  // measure 92
0010
0001
0100
0001
,  // measure 93
0010
0000
0100
1000
,  // measure 94
0010
0000
0100
0000
,  // measure 95
1001
0000
1001
0000
,  // measure 96
0110
0000
0110
0000
,  // measure 97
1000
1000
1000
1000
,  // measure 98
0100
0100
0100
0100
,  // measure 99
0010
0010
0010
0010
,  // measure 100
0001
0001
0001
0001
,  // measure 101
1000
0000
1010
0000
,  // measure 102
0001
0000
0011
0000
,  // measure 103
1001
0000
1001
0000
,  // measure 104
0001
0100
0010
1000
,  // measure 105
0010
0000
0100
0000
,  // measure 106
0001
0010
0100
0000
,  // measure 107
1000
0010
0001
0010
,  // measure 108
1000
0100
0001
0100
,  // measure 109
1000
0000
1001
0000
,  // measure 110
0001
0000
0101
0000
,  // measure 111
0010
1000
0100
1000
,  // measure 112
0001
0010
0001
0100
,  // measure 113
0010
0000
0000
0000
;

//---------------dance-single - ----------------
#NOTES:
     dance-single:
     :
     Medium:
     8:
     0.617,0.951,0.349,0.066,0.019: // measure 1
0000
0000
0000
0000
,  // measure 2
0000
0000
0000
0000
,  // measure 3
0000
0000
0000
0000
,  // measure 4
0000
0000
0000
0000
,  // measure 5
0000
0000
0000
0000
,  // measure 6
0000
0000
0000
0000
,  // measure 7
0000
0000
0000
0000
,  // measure 8
0000
0000
0000
0000
,  // measure 9
0000
0000
0000
0000
,  // measure 10
1000
0100
0010
0001
,  // measure 11
1000
0010
0100
0001
,  // measure 12
1000
0100
0001
0100
,  // measure 13
1000
0010
0001
0010
,  // measure 14
1000
0100
0010
0001
,  // measure 15
1000
0010
0100
0001
,  // measure 16
1000
0010
0001
0010
,  // measure 17
1000
0100
0001
0100
,  // measure 18
1000
0000
0000
0001
0000
0000
0100
0000
0010
0000
0000
1000
0000
0000
0001
0000
,  // measure 19
0100
0010
1000
0010
,  // measure 20
0100
0001
1000
0100
,  // measure 21
0010
0001
0100
0001
,  // measure 22
0010
0100
1000
0010
,  // measure 23
0001
0010
1000
0100
,  // measure 24
0001
0100
0010
0100
,  // measure 25
0001
0100
0010
1000
,  // measure 26
0100
0010
0001
1000
,  // measure 27
1100
1000
0010
0100
,  // measure 28
0010
1000
0100
0010
,  // measure 29
0001
0100
0001
0010
,  // measure 30
0100
1000
0001
0100
,  // measure 31
0110
0010
1000
0100
,  // measure 32
0010
0001
1000
0001
,  // measure 33
0100
0000
0000
0100
0010
0000
1000
0000
,  // measure 34
0001
0000
0100
0000
0010
1000
0010
0000
,  // measure 35
1001
1000
0100
0010
,  // measure 36
0100
1000
0010
0100
,  // measure 37
0010
0001
0010
1000
,  // measure 38
0100
0001
0100
0010
,  // measure 39
0100
1000
0100
0010
,  // measure 40
0001
0100
0010
1000
,  // measure 41
0010
0001
0010
1000
,  // measure 42
0100
0010
0001
1000
,  // measure 43
1001
0001
0100
0010
,  // measure 44
1000
0010
0100
0001
,  // measure 45
1000
0100
0010
0001
,  // measure 46
0100
0001
0010
0100
,  // measure 47
1100
0100
0010
0001
,  // measure 48
1000
0010
0100
0001
,  // measure 49
1000
0000
0000
1000
0010
0000
0100
0000
,  // measure 50
0001
0000
0010
0000
0100
1000
0100
0000
,  // measure 51
0022
0033
0001
0001
,  // measure 52
0100
0100
0010
0010
,  // measure 53
1000
1000
0001
0001
,  // measure 54
1000
1000
0100
0100
,  // measure 55
0220
0330
0010
0010
,  // measure 56
0001
0001
1000
1000
,  // measure 57
0100
0100
1000
1000
,  // measure 58
0010
0010
0100
0100
,  // measure 59
0101
0000
0001
0001
,  // measure 60
0010
0010
1000
1000
,  // measure 61
0100
0100
0001
0001
,  // measure 62
1000
1000
0001
0001
,  // measure 63
0101
0100
0010
1000
,  // measure 64
0010
0100
0001
1000
,  // measure 65
0100
0010
0001
1000
,  // measure 66
0001
0100
0010
1000
,  // measure 67
0010
0100
0001
1000
,  // measure 68
0100
0010
0001
1000
,  // measure 69
0010
0001
0010
1000
,  // measure 70
0100
0001
0100
1000
,  // measure 71
1001
1001
1001
1001
,  // measure 72
0110
0110
0110
0110
,  // measure 73
2100
0000
3001
0000
,  // measure 74
0102
0000
1003
0001
,  // measure 75
2010
0000
3001
0000
,  // measure 76
1000
0010
0100
0000
,  // measure 77
0001
0001
0010
0010
,  // measure 78
0100
0100
1000
1000
,  // measure 79
0010
0000
0000
0000
0010
0000
1000
0000
0000
0000
1000
0000
,  // measure 80
1001
0101
0110
1010
,  // measure 81
1001
1000
0100
0100
,  // measure 82
0010
0010
0001
0001
,  // measure 83
1000
1000
0010
0010
,  // measure 84
0100
0100
0001
0001
,  // measure 85
1000
0000
0000
0100
0000
0000
0010
0000
,  // measure 86
0001
0000
0000
0100
0000
0000
0010
0000
,  // measure 87
1010
0000
0101
0000
,  // measure 88
0001
1000
0001
1000
0001
1000
0001
0000
,  // measure 89
1001
1000
0010
0100
,  // measure 90
0001
1000
0100
0010
,  // measure 91
0001
0100
1000
0100
,  // measure 92
0001
0010
1000
0010
,  // measure 93
1001
0001
0100
0010
,  // measure 94
1000
0100
0010
0001
,  // measure 95
1001
0001
0100
0010
,  // measure 96
1000
0001
1000
0001
1000
0001
1000
0000
,  // measure 97
1001
0001
0100
1000
,  // measure 98
0100
0001
0010
1000
,  // measure 99
0010
0001
0100
0010
,  // measure 100
1000
0100
0001
0100
,  // measure 101
1100
1000
0010
0100
,  // measure 102
0001
1000
0100
0010
,  // measure 103
0011
0001
0100
0010
,  // measure 104
1000
0001
1000
0001
1000
0001
1000
0000
,  // measure 105
1001
1000
0010
0100
,  // measure 106
0010
1000
0100
0010
,  // measure 107
0001
0000
0000
0100
0000
0000
0010
0000
,  // measure 108
0000
1000
0000
0000
0001
0000
1000
0000
,  // measure 109
1100
0100
0010
0001
,  // measure 110
1000
0010
0100
0001
,  // measure 111
1001
0001
0100
0010
,  // measure 112
1000
0001
1000
0001
1000
0001
1000
0000
,  // measure 113
1001
0000
0000
0000
;
