#TITLE:GET WILD;
#SUBTITLE:;
#ARTIST:NMR;
#TITLETRANSLIT:;
#SUBTITLETRANSLIT:;
#ARTISTTRANSLIT:;
#GENRE:;
#CREDIT:;
#BANNER:wild-banner.png;
#BACKGROUND:wild-bg.png;
#LYRICSPATH:;
#CDTITLE:;
#MUSIC:Get Wild.mp3;
#OFFSET:-1.050;
#SAMPLESTART:50.339;
#SAMPLELENGTH:13.000;
#SELECTABLE:YES;
#BPMS:0.000=149.970
;
#STOPS:
;
#BGCHANGES:;
#KEYSOUNDS:;
#ATTACKS:;

//---------------dance-single - Blank----------------
#NOTES:
     dance-single:
     :
     Hard:
     9:
     0.689,0.657,0.478,0.134,0.336,502.000,57.000,16.000,0.000,0.000,0.000,0.689,0.657,0.478,0.134,0.336,502.000,57.000,16.000,0.000,0.000,0.000: // measure 0
0000
0000
0000
0000
,  // measure 1
0000
0000
0000
0000
,  // measure 2
0000
0000
0000
0000
,  // measure 3
0000
0000
0000
0000
,  // measure 4
0001
0000
1000
0000
0010
0000
0001
0000
0010
0000
1000
0010
0000
1000
0010
0000
,  // measure 5
0100
0000
0001
0000
0010
0000
0001
0000
0100
0000
0010
0100
0000
0010
0100
0000
,  // measure 6
0010
0000
1000
0000
0001
0000
0100
0000
0001
0000
0010
0001
0000
0010
0001
0000
,  // measure 7
0100
0000
0010
0000
1000
0000
0100
0000
1000
0000
0010
1000
0000
0010
1000
0000
,  // measure 8
0001
0000
0100
0000
0001
0000
0010
0000
0100
0000
1000
0100
0000
0010
0001
0000
,  // measure 9
0100
0000
0010
0000
1000
0000
0001
0000
0100
0000
0010
0100
0000
0001
1000
0000
,  // measure 10
0001
0000
0100
0000
1000
0000
0100
0000
1000
0000
0100
1000
0000
0100
0010
0000
,  // measure 11
1000
0000
0010
0000
0100
0000
0001
0000
0010
0000
0001
0100
0000
0001
1000
0000
,  // measure 12
0001
0000
0000
0100
0000
0000
0010
0100
0001
0000
0010
0000
0100
0000
1000
0100
,  // measure 13
1000
0000
0000
0010
0000
0000
1000
0100
1000
0000
0001
0000
0100
0000
0100
0000
,  // measure 14
0001
0000
0000
0010
0000
0000
1000
0000
0010
0000
0000
0000
0001
0000
0100
0001
,  // measure 15
0010
0001
0100
0010
1000
0100
0010
0100
,  // measure 16
1000
0000
0000
0001
0000
0000
0010
0000
0100
0000
1000
0010
0100
0000
0001
0000
,  // measure 17
0010
0001
1000
0100
0001
0100
0010
0100
,  // measure 18
0010
0000
0001
0100
0000
0000
0001
0000
0010
0000
0100
0000
1000
0000
0010
0100
,  // measure 19
0010
0100
1000
0100
0010
0100
0001
0010
,  // measure 20
0001
0000
0100
0000
1000
0000
0010
0001
,  // measure 21
0100
0000
0000
1001
0000
0000
0010
0000
0100
0000
0000
0011
0000
0000
0001
0000
,  // measure 22
0100
0000
0000
0110
0000
0000
1010
0000
0101
0000
0000
0000
0010
0000
1000
0100
,  // measure 23
0010
0001
0010
0001
0100
0010
0100
1000
,  // measure 24
0100
0000
0000
0110
0000
0000
0011
0000
2100
0000
0000
0100
0000
0000
3100
0000
,  // measure 25
0001
0000
0000
0100
0000
0000
1000
0000
0100
0000
0000
0010
0000
0000
1000
0000
,  // measure 26
0100
0010
0100
0010
0001
0000
0101
0000
,  // measure 27
0001
0010
1000
0000
0010
0000
0100
1000
,  // measure 28
0100
0110
0011
0110
,  // measure 29
1001
0000
0000
0000
0100
0000
0000
0000
0010
0000
0000
0000
1000
0100
1000
0100
,  // measure 30
0010
0001
0010
0001
1000
0001
1000
0001
1000
0001
1000
0000
0000
0000
0010
0000
,  // measure 31
0100
0000
0011
0000
0110
0000
1100
0010
,  // measure 32
0100
0000
0000
0001
0000
0000
0010
0000
0001
0000
0000
0000
0100
0000
0010
1000
,  // measure 33
0010
0100
0001
0010
0001
0100
0010
1000
,  // measure 34
1010
0000
0000
0101
0000
0000
0011
0000
0110
0000
0000
0000
0001
0000
0100
0000
,  // measure 35
0002
0000
1000
0000
0010
0000
0103
0001
,  // measure 36
0010
0000
0000
0100
0000
0000
0010
0000
0100
0000
0010
0000
0001
0000
0010
0100
,  // measure 37
1000
0000
0100
0000
0001
0000
0100
1000
0010
0000
0001
0000
0010
0000
0001
0000
,  // measure 38
0011
0000
0000
0110
0000
0000
1001
0000
0011
0000
1000
0010
1000
0010
1000
0010
,  // measure 39
2000
0000
3200
0000
0320
0000
0031
1000
,  // measure 40
0010
0000
0100
0000
0001
0000
0010
0000
1000
0000
0010
0000
1000
0000
0010
0100
,  // measure 41
1000
0001
0100
0001
0010
0100
0010
1000
,  // measure 42
0010
0001
0000
1000
0100
0010
1001
0000
,  // measure 43
1000
0100
1000
0100
0010
1000
0010
1000
,  // measure 44
0001
0100
0001
0100
1000
0001
1000
0001
,  // measure 45
2010
3010
0102
0103
,  // measure 46
1001
0000
0000
0110
0000
0000
1001
0000
1000
0100
1000
0000
0010
0001
0010
0000
,  // measure 47
0100
0000
1000
0000
0010
0000
0100
0000
0001
0000
0010
0001
0000
0100
0010
0000
,  // measure 48
1000
0000
0100
0000
1000
0000
0010
0000
0100
0000
0010
0100
0000
0001
1000
0000
,  // measure 49
0010
0000
1000
0000
0100
0000
1000
0000
0010
0000
0100
0010
0000
1000
0010
0000
,  // measure 50
0100
0000
0010
0000
1000
0000
0100
0000
0010
0000
0100
0010
0000
0001
0100
0000
,  // measure 51
1000
0000
0100
0000
0010
0000
0100
0000
0011
0000
0000
0110
0000
0000
1100
0000
,  // measure 52
0010
0000
0100
0000
0001
0000
0010
0000
0101
0000
0000
1100
0000
0000
0110
0000
,  // measure 53
0001
0000
0010
0000
0001
0000
0010
0000
1100
0000
0000
0011
0000
0000
0110
0000
,  // measure 54
0001
0000
1000
0000
0100
0000
1000
0000
0011
0000
0000
0110
0000
0000
0100
0010
,  // measure 55
0001
0010
0001
0100
0011
0000
0101
0010
,  // measure 56
1000
0000
0100
0000
0001
0000
0100
0000
0010
0000
0100
0000
0010
0000
0100
1000
,  // measure 57
0010
0100
0001
0010
0001
0100
0010
0100
,  // measure 58
1000
0000
0000
1100
0000
0000
0001
0000
0110
0000
0000
0000
0101
0000
0000
0000
,  // measure 59
0010
1000
0100
1000
0010
1000
0010
1000
,  // measure 60
0001
0000
0100
0000
0001
0000
0010
0000
0001
0000
0000
0000
1010
0000
0010
1000
,  // measure 61
0010
0100
0001
0010
0001
0100
0010
1000
,  // measure 62
0010
0000
0000
0100
0000
0000
0001
0000
1000
0010
1000
0100
0010
0000
0001
0000
,  // measure 63
0100
0000
0010
0000
0100
0000
0001
0010
,  // measure 64
0100
0000
0000
0010
0000
0000
0100
0000
1000
0000
0010
0000
1000
0000
0100
0000
,  // measure 65
1010
0010
0100
0001
0011
0010
0100
1000
,  // measure 66
1100
0000
0000
0110
0000
0000
0011
0000
0100
0000
0010
0000
1000
0000
0100
0000
,  // measure 67
0020
0000
0032
0000
0203
0000
0300
0010
,  // measure 68
2000
0000
0000
0200
3000
0000
0320
0000
0002
0000
0000
0000
0033
0000
0001
0010
,  // measure 69
0001
1000
0100
0010
0001
0010
0001
0010
,  // measure 70
0110
0000
0000
0110
0000
0000
1100
0000
0011
0000
0000
0000
2002
0000
0000
0000
,  // measure 71
0000
3003
0000
0000
;

//---------------dance-single - Blank----------------
#NOTES:
     dance-single:
     :
     Medium:
     6:
     0.407,0.415,0.159,0.235,0.042,293.000,19.000,28.000,0.000,0.000,0.000,0.407,0.415,0.159,0.235,0.042,293.000,19.000,28.000,0.000,0.000,0.000:
0000
0000
0000
0000
,
0000
0000
0000
0000
,
0000
0000
0000
0000
,
0000
0000
0000
0000
,
0001
0000
0010
0000
0001
0000
0000
0000
1000
0000
0000
1000
0000
0000
1000
0000
,
0100
0000
0010
0000
1000
0000
0000
0000
0010
0000
0000
0010
0000
0000
0010
0000
,
0100
0000
1000
0000
0010
0000
0000
0000
0100
0000
0000
0100
0000
0000
0100
0000
,
0001
0000
0100
0000
0001
0000
0000
0000
0001
0000
0000
0001
0000
0000
0001
0000
,
0010
0000
1000
0000
0100
0000
0000
0000
0010
0000
0000
0010
0000
0000
0010
0000
,
0100
0000
0001
0000
0100
0000
0000
0000
1000
0000
0000
1000
0000
0000
1000
0000
,
0100
0000
0010
0000
0100
0000
0000
0000
0010
0000
0000
0010
0000
0000
0010
0000
,
0001
0000
0100
0000
0010
0000
0000
0000
0001
0000
0000
0001
0000
0000
0001
0000
,
1000
0000
0000
0001
0010
0100
1000
0001
,
1000
0000
0000
0001
0100
0000
0000
0010
,
1000
0000
0001
0000
2000
0000
0000
3001
,
0010
0000
0000
0100
1000
0000
0000
0010
,
0100
0000
1000
0000
0020
0000
0000
1030
,
0100
0000
0000
0100
1000
0000
0000
0010
,
0100
0000
0010
0000
1000
0000
0000
0001
,
0010
0000
0000
0001
1000
0000
0000
0010
,
0200
0000
2300
0000
3200
0000
0301
0010
,
0001
0000
0100
1000
0100
0000
0001
1000
,
0001
0110
1001
0001
,
0100
0010
0100
0000
0001
1000
0001
0000
,
0010
0000
0100
0000
0010
0000
0000
0100
,
1000
0000
0000
0010
0001
0000
0000
0100
,
1000
0100
1000
0100
1000
0000
0000
1000
,
0010
0100
0001
0000
0010
0000
0000
0001
,
2000
0100
0010
0100
,
0001
0010
0100
3001
,
2002
0000
0000
0000
0000
3003
0000
0001
,
0100
0000
0010
0000
1000
0000
0000
0100
,
0010
0100
0001
0000
,
0010
1000
0010
0000
0001
0100
0001
0000
,
0010
0001
0100
0000
,
0010
0000
0100
0000
1000
0000
0000
0001
,
0100
0010
0001
0000
,
0100
1000
0010
0100
,
0001
0000
0000
0100
0000
0000
0010
0000
1000
0000
0000
0000
0000
0000
2000
0000
,
0100
0000
0100
0000
0100
3000
0000
0020
,
0100
0000
0100
0000
0100
0030
0000
0000
,
0001
1000
0001
0000
0010
0100
0010
0000
,
0001
0010
0001
0000
0100
1000
0100
0000
,
0010
0010
0010
0000
,
0100
0100
0100
0000
,
0011
0001
1010
0010
,
0100
0001
1001
0110
,
0010
0100
0010
0000
0220
0000
0000
0330
,
0001
0010
0001
0000
2200
0000
3300
0000
,
0010
0100
0010
0000
0220
0000
0330
0000
,
0001
0010
0100
0000
2200
0000
3300
0000
,
0001
0010
0001
0000
0022
0000
0033
0000
,
0010
0100
0001
0000
0202
0000
0303
0000
,
0010
1000
0100
0000
0220
0000
0330
0000
,
0001
0010
0001
0000
0022
0000
0033
0000
,
1100
0110
0011
0000
,
0010
0100
0001
0000
,
0010
1000
0010
0000
0001
0100
0001
0000
,
0010
0100
0001
0000
,
0020
0000
0100
0000
0100
0030
0000
0000
,
0002
0000
1000
0000
1000
0003
0000
0000
,
0010
0100
0010
0000
0100
1000
0100
0000
,
0010
0100
0001
0000
,
1000
0000
0100
0000
0010
0000
0000
0001
,
0100
0010
0001
0000
,
0100
0000
1000
0010
0100
0000
0001
0010
,
0001
0000
0100
0010
1000
0000
0000
0000
,
0010
0001
0100
0000
,
0010
1000
0100
0000
,
0010
0100
0010
0000
0001
1000
0001
0000
,
0010
0000
0000
0001
0000
0000
0100
0000
0010
0000
0000
0000
0110
0000
0000
0000
;

//---------------dance-single - Blank----------------
#NOTES:
     dance-single:
     :
     Easy:
     3:
     0.272,0.266,0.101,0.017,0.000,213.000,12.000,2.000,0.000,0.000,0.000,0.272,0.266,0.101,0.017,0.000,213.000,12.000,2.000,0.000,0.000,0.000:
0000
0000
0000
0000
,
0000
0000
0000
0000
,
0000
0000
0000
0000
,
0000
0000
0000
0000
,
0001
0010
0100
0000
,
0001
1000
0100
0000
,
0010
0100
0001
0000
,
0010
1000
0100
0000
,
1000
0010
0100
0000
,
0001
0100
0010
0000
,
1000
0100
1000
0000
,
0010
0100
0001
0000
,
1001
0000
0110
0000
,
0001
0010
0100
0001
,
0010
1000
1100
0000
,
0010
0100
0001
0010
,
0100
1000
0010
0100
,
0001
0010
0100
0010
,
0001
0100
0110
0000
,
0001
0100
0010
0001
,
0100
1000
0010
1000
,
0100
0000
0010
0000
,
0001
0010
1000
0000
,
0100
0000
0001
0000
,
0010
0001
1000
0010
,
0100
0000
0001
0000
,
0010
0001
1000
0000
,
0001
1000
0010
0000
,
0001
0100
0001
0000
,
0010
0000
1000
0000
,
2002
0000
0000
3003
,
0010
0100
0001
0000
,
0010
1000
0100
0000
,
0001
1001
0010
0110
,
0001
0010
0100
0000
,
1000
0100
1000
0000
,
0010
0001
0010
0000
,
0100
0010
0001
0100
,
1000
0100
0010
0000
,
0101
0010
1100
0000
,
0010
0100
0001
0000
,
0010
0010
0100
0100
,
0001
1000
1001
0000
,
0010
0001
0100
0000
,
0010
1000
0010
0000
,
0100
0010
1000
0100
,
0001
0010
0001
0000
,
0100
0010
1000
0000
,
0001
0010
0100
0000
,
0001
0010
0100
0000
,
1000
0100
0010
0000
,
0001
1000
0100
0010
,
0001
0100
0001
0010
,
0001
0100
0010
1000
,
0100
1000
0010
1000
,
0100
0010
0001
0000
,
0100
0010
0001
0000
,
1000
0100
1000
0010
,
0100
1000
0010
0000
,
0100
0010
1000
0000
,
0001
0100
1000
0000
,
0010
1000
0100
0001
,
0100
0010
0001
0000
,
1100
0010
0001
0000
,
0100
0010
1000
0000
,
0100
0010
0100
1000
,
0100
0001
0100
0000
,
0110
0001
0010
0000
,
0001
0100
0010
0000
,
1000
0100
0010
0100
,
1000
0001
0100
0000
;

//---------------dance-single - Blank----------------
#NOTES:
     dance-single:
     :
     Beginner:
     1:
     0.157,0.177,0.034,0.000,0.000,127.000,4.000,0.000,0.000,0.000,0.000,0.157,0.177,0.034,0.000,0.000,127.000,4.000,0.000,0.000,0.000,0.000:
0000
0000
0000
0000
,
0000
0000
0000
0000
,
0000
0000
0000
0000
,
0000
0000
0000
0000
,
0010
0000
0000
0000
,
0001
0000
0000
0000
,
0100
0000
0000
0000
,
1000
0000
0000
0000
,
0010
0000
0010
0000
,
0100
0000
0100
0000
,
0001
0000
0001
0000
,
1000
0000
1000
0000
,
1001
0000
0000
0000
,
0010
0000
0010
0000
,
0010
0000
0010
0000
,
0100
0000
0100
0000
,
0100
0000
0100
0000
,
0001
0000
0001
0000
,
0001
0000
0001
0000
,
1000
0000
1000
0000
,
1000
0000
0000
0000
,
0010
0000
0100
0000
,
0001
0000
0010
0000
,
1000
1000
1000
0000
,
0001
0001
0001
0000
,
0010
0000
0100
0000
,
1000
0000
0001
0000
,
0010
0000
0001
0000
,
0100
0100
0100
0000
,
0010
0010
0010
0000
,
1001
0000
0000
0000
,
0010
0000
0001
0000
,
0010
0000
0100
0000
,
0001
0001
0001
0000
,
1000
1000
1000
0000
,
0010
0000
0100
0000
,
1000
0000
1000
0000
,
0010
0010
0010
0000
,
0001
0001
0001
0000
,
0001
0001
0001
0000
,
0100
0100
0100
0000
,
1000
0000
0010
0000
,
0100
0000
1000
0000
,
1000
1000
1000
0000
,
0010
0010
0010
0000
,
0100
0000
0010
0000
,
0001
0000
1000
0000
,
0010
0000
0000
0000
,
1000
0000
0000
0000
,
0001
0000
0000
0000
,
0100
0000
0000
0000
,
0010
0000
0001
0000
,
0100
0000
0010
0000
,
1000
0000
0100
0000
,
1000
0000
0001
0000
,
1001
0000
0000
0000
,
0110
0000
0000
0000
,
0010
0000
0100
0000
,
0010
0000
0100
0000
,
0001
0000
0000
0000
,
0100
0000
0000
0000
,
1000
0000
0010
0000
,
1000
0000
0100
0000
,
0010
0000
0000
0000
,
0100
0000
0000
0000
,
0001
0000
0100
0000
,
1000
0000
0010
0000
,
0100
0000
0000
0000
,
0010
0000
0000
0000
,
1000
0000
0001
0000
,
0010
0000
0100
0000
;
