#TITLE:A change of probability;
#SUBTITLE:;
#ARTIST:18times per 1,000;
#TITLETRANSLIT:;
#SUBTITLETRANSLIT:;
#ARTISTTRANSLIT:;
#CREDIT:DigiMindAxel;
#BANNER:A change of probability.png;
#BACKGROUND:A change of probability-bg.png;
#LYRICSPATH:;
#CDTITLE:pop'n music.png;
#MUSIC:A change of probability.mp3;
#OFFSET:-7.720;
#SAMPLESTART:32.911;
#SAMPLELENGTH:12.000;
#SELECTABLE:YES;
#BPMS:0.000=149.960;
#STOPS:;
#BGCHANGES:;

//---------------dance-single - ----------------
#NOTES:
     dance-single:
     :
     Easy:
     3:
     0.195,0.257,0.109,0.101,0.000:
1000
0000
1000
0000
,
1000
0000
1000
0000
,
0001
0000
0001
0000
,
0001
0000
0001
0000
,
0110
0000
0000
0000
,
0100
0000
0000
0000
,
0100
0000
0000
0000
,
0010
0000
0010
0000
,
0110
0000
1000
0000
,
0001
0000
1000
0000
,
0100
0000
0010
0000
,
0002
0000
1003
0000
,
0001
0000
1000
0000
,
0010
0000
0100
0000
,
0010
0000
0010
0000
,
0010
0000
0000
0000
,
0110
0000
0100
0000
,
0010
0000
1000
0000
,
0100
0000
0010
0000
,
0001
0000
1000
0000
,
1001
0000
0001
0000
,
1000
0000
0001
0000
,
0010
0000
0100
0000
,
1000
0000
0010
0000
,
0110
0000
0100
0000
,
0100
0000
0100
0000
,
0200
0000
0000
0000
,
0310
0000
0000
0000
,
1001
1000
0001
0000
,
1000
0001
1000
0000
,
0020
0000
0100
0000
,
0100
0000
0130
0000
,
0001
1000
0001
0000
,
1000
0001
1000
0000
,
0020
0000
0130
0000
,
0002
0000
1003
0000
,
0001
0000
1000
0000
,
0100
0010
0100
0000
,
2000
0000
3001
0000
,
0200
0000
0310
0000
,
1000
0001
1000
0000
,
0100
1000
0100
0000
,
1001
0000
0001
0000
,
1000
0000
0001
0000
,
0010
0001
0010
0000
,
0001
1000
0001
0000
,
1001
0000
0001
0000
,
2000
0000
0000
0000
3000
0000
0000
1001
,
0000
0000
0000
0000
,
0000
0001
0000
0000
0000
0000
0000
0000
,
0000
1000
0000
0000
0000
0000
0000
0000
,
0000
0001
0000
0000
0100
0000
0010
0000
,
0200
0000
0000
0000
,
0320
0000
0000
0000
,
0230
0000
0000
0000
,
0302
0000
0003
0000
,
1001
0000
1000
0001
,
1000
0000
0100
1000
,
0100
0000
0010
0000
,
0001
0000
0100
0010
,
0100
0110
0000
0010
,
1000
0000
0001
0000
,
1001
0000
0000
0000
,
0000
0000
0000
0000
,
0001
1000
0001
0000
,
1000
0001
0100
0100
,
0110
0000
0100
0000
,
0010
0000
1000
0100
;

//---------------dance-single - ----------------
#NOTES:
     dance-single:
     :
     Medium:
     5:
     0.387,0.400,0.236,0.093,0.004:
0001
0001
0001
0001
,
1000
1000
1000
1000
,
0001
0001
0001
0001
,
1000
1000
1000
1000
,
0020
0000
0100
0000
,
0100
0000
0100
0000
,
0130
0001
0100
0000
,
0010
1000
0200
0000
,
1300
0100
0010
0001
,
1000
0100
0010
0001
,
1000
0010
0100
0001
,
0010
0100
1000
1001
,
0001
0010
0100
1000
,
0001
0010
0100
1000
,
0010
0100
0001
1000
,
0002
0000
0000
0003
,
0100
0001
0100
0000
0001
0000
1000
0000
,
0010
1000
0010
0000
0100
0000
0010
0000
,
1000
0100
1000
0002
0000
0000
0000
0000
,
0013
0000
0001
0010
0100
1000
0001
0000
,
1001
0000
0001
0000
0010
0001
0010
0000
,
0100
0000
1100
0000
0010
0100
0010
0000
,
1000
0000
1001
0000
0010
0100
0010
0000
,
0101
0000
0001
0000
0100
0000
0001
0010
,
0100
1000
0100
0010
,
0001
1000
0100
0010
,
0002
0000
0003
0000
,
1000
1000
1000
1000
,
1001
0001
0011
0001
,
1001
0100
1100
1000
,
0010
0100
0010
0000
1000
0100
1000
0000
,
0001
0010
0001
0000
0100
0010
0100
0000
,
1001
0001
0101
0001
,
0110
0010
1010
1000
,
1000
1000
1000
1000
,
0001
0000
0001
0000
0001
0000
0001
1000
,
0100
0000
1000
0001
0100
0000
0001
0100
,
0001
1000
0010
0000
,
1000
1000
1000
1000
,
0001
0001
0001
0001
,
1001
0010
0100
1000
,
0010
0100
0010
0000
,
1001
1000
1100
0001
,
1001
0001
0101
0100
,
0010
0100
0010
0000
1000
0010
1000
0000
,
0001
0010
0100
0000
1000
0001
1000
0000
,
1001
1000
1100
0010
,
0110
0000
0000
0110
0000
0000
0000
1001
,
0000
1000
1000
0000
0100
0000
0010
0000
,
0001
1000
1000
0000
0010
0000
0100
0000
,
0001
1000
1000
0000
0001
0000
0010
0000
,
0100
1000
1000
0000
0010
0100
0010
0100
,
0020
0000
0000
0100
0000
0000
0100
0000
,
0000
0230
0000
0000
0301
0000
1000
0000
,
0200
0000
0000
0010
0000
0000
0010
0000
,
0000
0310
0000
0000
0001
1000
0001
0000
,
1001
0000
1000
0001
,
0100
0001
0100
0000
0010
0100
0010
0000
,
1000
0001
0010
0001
0000
1000
0010
1000
,
0000
0010
0100
0010
1000
0000
1000
0000
,
0001
1001
0000
0001
,
0100
0001
0010
0000
0100
1000
0010
0000
,
0220
0000
0000
0000
,
0000
0000
0000
0330
,
0010
0100
0010
0000
1000
0001
1000
0000
,
0200
0310
0001
1001
,
0001
0100
0001
0000
0100
0010
0100
0000
,
0001
0000
0010
0000
0100
0000
0000
0000
1000
0000
0000
1000
0000
0000
1001
0000
;

//---------------dance-single - ----------------
#NOTES:
     dance-single:
     :
     Hard:
     8:
     0.582,0.571,0.143,0.396,0.349: // measure 1
0100
0000
0100
0000
0100
0000
0100
1000
,  // measure 2
0010
0000
0010
0000
0010
0000
0010
0100
,  // measure 3
0001
0000
0001
0000
0001
0000
0001
0010
,  // measure 4
0100
0000
0100
0000
0100
0000
0100
1000
,  // measure 5
0002
0100
0010
0100
,  // measure 6
0010
1000
0010
1003
,  // measure 7
0001
0010
1000
0000
0010
0000
0001
1000
,  // measure 8
0100
0000
0000
0000
0001
0000
0000
0000
0100
0000
0000
0000
1000
0001
1000
0001
,  // measure 9
1000
0100
0001
0100
1000
0100
0010
0000
,  // measure 10
0100
1000
0010
0001
0010
1000
0001
0000
,  // measure 11
0100
0000
0001
0000
0010
0000
0100
0000
1000
0000
0100
0000
0010
0000
0001
0100
,  // measure 12
0001
0000
1000
0000
1000
0000
0100
0000
0010
0000
0001
0100
0001
0000
1000
0000
,  // measure 13
0001
0100
1000
0100
0001
0010
0100
0000
,  // measure 14
0010
0001
1000
0010
0001
0010
1000
0000
,  // measure 15
0100
0010
0001
0100
0010
1000
0001
0100
,  // measure 16
0020
0000
0000
0000
0000
0000
0000
0000
0000
0000
0000
0000
0130
0010
0100
0010
,  // measure 17
0100
0000
0000
0001
0000
0000
0100
0000
0000
1000
0000
0000
0100
0000
0010
0000
,  // measure 18
1000
0000
0000
0100
0000
0000
0001
0000
0000
0100
0000
0000
0010
0000
0001
0000
,  // measure 19
1000
0000
0000
0010
0000
0000
0220
0000
0000
0000
0000
0000
0000
0000
0330
0000
,  // measure 20
0000
0000
0010
0000
0100
0001
0000
0020
0000
0000
0031
0000
0010
0000
0100
0000
,  // measure 21
1000
0000
0000
0010
0000
0000
0001
0000
0000
0010
0000
0000
0100
0000
0001
0000
,  // measure 22
1000
0000
0000
0100
0000
0000
0001
0000
0000
0100
0000
0000
0010
0000
0001
0000
,  // measure 23
1000
0000
0000
0010
0000
0000
0120
0000
0000
0000
0000
0000
0130
0000
0001
0000
,  // measure 24
0010
0000
0000
1000
0000
0000
0010
0000
0001
0000
0000
0100
0000
0000
1000
0000
,  // measure 25
0210
0302
0203
2300
,  // measure 26
3200
0320
2030
3002
,  // measure 27
0023
0000
0100
0000
0001
0000
0130
1000
,  // measure 28
0010
0010
0010
0010
,  // measure 29
1002
0000
0000
1000
0000
0000
1003
0000
0020
0000
0000
1000
0000
0000
1030
0000
,  // measure 30
0002
0000
0000
0010
0000
0000
0013
0000
0200
0000
0000
1000
0000
0000
1300
0000
,  // measure 31
0001
0000
0010
0000
1000
0000
0010
0000
0001
0000
0000
0100
0000
0000
0010
0000
,  // measure 32
1000
0100
0001
0100
1000
0010
0010
0000
,  // measure 33
2001
0000
0000
0001
0000
0000
3001
0000
0200
0000
0000
0001
0000
0000
0301
0000
,  // measure 34
2000
0000
0000
0100
0000
0000
3100
0000
0020
0000
0000
0100
0000
0000
0130
0000
,  // measure 35
1000
0000
0000
1000
0001
0000
0000
0001
0100
0000
0000
0100
0010
0000
0000
0010
,  // measure 36
1000
0000
0000
1000
0100
0000
0000
0100
0010
0000
0000
0010
0001
0000
1000
0000
,  // measure 37
0010
0000
0000
0001
0000
0000
0010
0000
1000
0000
0001
0000
0010
0000
0100
0000
,  // measure 38
0010
0000
0000
0001
0000
0000
1000
0010
2000
0000
0000
0000
0000
0000
0000
0000
,  // measure 39
3001
0000
0000
0001
0100
0000
0000
0100
0010
0000
0000
0010
1000
0000
0000
1000
,  // measure 40
0100
0000
0000
0100
0010
0000
0000
0010
0001
0000
0000
0001
1000
0000
0001
0000
,  // measure 41
0100
0010
0001
0010
1000
0001
0100
0010
,  // measure 42
1000
0000
0100
0000
0010
0000
0001
0000
1000
0000
0001
1000
0001
1000
0001
1000
,  // measure 43
0002
0000
0000
0100
0000
0000
0103
0000
0020
0000
0000
1000
0000
0000
1030
0000
,  // measure 44
0200
0000
0000
0010
0000
0000
0310
0000
0002
0000
0000
0100
0000
0000
0103
0000
,  // measure 45
0001
0000
0100
0000
1000
0000
0100
0000
0001
0000
0000
0100
0000
0000
0010
0000
,  // measure 46
1000
0100
0001
0100
1000
0010
0010
0000
,  // measure 47
2001
0000
0000
0001
0000
0000
3001
0000
0020
0000
0000
0100
0000
0000
0130
0000
,  // measure 48
1001
0000
0000
1001
0000
0000
2002
0000
0000
0000
0000
0000
3003
0000
1001
0000
,  // measure 49
0000
0000
0001
0100
0001
0100
0001
0000
1000
0000
0000
0100
0000
0000
0010
0000
,  // measure 50
0000
0000
0001
0010
0001
0010
0001
0000
1000
0000
0000
0010
0000
0000
0100
0000
,  // measure 51
0000
0000
0001
1000
0001
1000
0001
0000
0010
0000
0000
0100
0000
0000
1000
0000
,  // measure 52
0000
0000
0010
0100
0010
0100
0010
0000
1000
0000
0100
0000
0010
0000
0001
1000
,  // measure 53
0002
0000
0000
0203
0000
0000
0320
0000
,  // measure 54
0000
2030
0000
0000
3100
0010
0001
0010
,  // measure 55
0200
0000
0000
2300
0000
0000
3020
0000
,  // measure 56
0000
0230
0000
0000
0301
0010
0100
1000
,  // measure 57
0120
0000
1000
0000
0130
0001
1000
0100
,  // measure 58
0020
0000
0000
0000
0001
0000
0000
0000
0130
0000
0000
1000
0000
0000
0010
0000
,  // measure 59
0100
0001
0100
1000
0000
1000
0100
0001
,  // measure 60
0000
0010
0100
1000
0001
0010
0100
0000
,  // measure 61
0100
0000
0000
0000
1002
0000
0000
0000
0000
0000
1003
0000
0000
0010
0000
0000
,  // measure 62
0100
0000
0000
0001
1000
0000
0000
1000
0001
0000
0100
0010
0100
0010
0100
0010
,  // measure 63
0200
0000
0000
0000
,  // measure 64
0000
0000
0000
0000
0000
0000
0000
0000
0000
0000
0000
0000
0301
1000
0001
1000
,  // measure 65
0001
1000
0010
0001
0010
1000
0001
0010
,  // measure 66
0011
0110
1001
1001
,  // measure 67
0201
0000
0000
0010
0000
0000
0301
0000
2000
0000
0000
0001
0000
0000
3100
0000
,  // measure 68
0020
0000
0000
0001
0000
0000
0130
0000
0001
0000
0100
0010
1000
0010
1000
0000
;

//---------------dance-single - ----------------
#NOTES:
     dance-single:
     :
     Beginner:
     1:
     0.096,0.141,0.101,0.000,0.000:
1000
0000
0000
0000
,
1000
0000
0000
0000
,
1000
0000
0000
0000
,
1000
0000
0000
0000
,
1001
0000
0000
0000
,
0000
0000
0000
0000
,
0001
0000
0000
0000
,
0001
0000
0000
0000
,
0100
0000
0000
0000
,
0010
0000
0000
0000
,
0100
0000
0000
0000
,
0010
0000
0000
0000
,
1000
0000
0000
0000
,
1000
0000
0000
0000
,
0001
0000
0000
0000
,
0001
0000
0000
0000
,
1001
0000
0000
0000
,
0001
0000
0000
0000
,
1000
0000
0000
0000
,
0000
0000
0000
0000
,
0100
0000
0000
0000
,
0010
0000
0000
0000
,
0001
0000
0000
0000
,
1000
0000
0001
0000
,
1000
0000
0000
0000
,
0000
0000
0000
0000
,
0000
0000
0000
0000
,
1000
0000
0000
0000
,
1001
0000
0000
0000
,
0001
0000
0000
0000
,
0110
0000
0000
0000
,
1000
0000
0000
0000
,
0110
0000
0000
0000
,
0001
0000
0000
0000
,
1001
0000
0000
0000
,
0001
0000
0000
0000
,
1000
0000
0001
0000
,
1000
0000
0000
0000
,
1001
0000
0000
0000
,
1000
0000
0000
0000
,
0001
0000
1000
0000
,
0001
0000
0000
0000
,
0110
0000
0000
0000
,
0100
0000
0000
0000
,
0010
0000
0100
0000
,
0010
0000
0000
0000
,
0110
0000
0000
0000
,
0010
0000
0000
0000
,
1001
0000
0000
0000
,
1000
0000
0000
0000
,
1000
0000
0000
0000
,
1000
0000
0000
0000
,
0001
0000
0000
0000
,
0000
0000
0000
0000
,
0010
0000
0000
0000
,
0000
0000
0000
0000
,
0100
0000
0000
0000
,
1000
0000
0000
0000
,
0001
0000
0001
0000
,
0001
0000
0000
0000
,
0000
1001
0000
0000
,
1000
0000
0000
0000
,
1001
0000
0000
0000
,
0000
0000
0000
0000
,
0010
0000
0010
0000
,
0010
0000
0000
0000
,
0100
0000
0100
0000
,
0100
0000
0000
0000
;
