#TITLE:Yes, We Can;
#SUBTITLE:;
#ARTIST:Jim Henson;
#TITLETRANSLIT:;
#SUBTITLETRANSLIT:;
#ARTISTTRANSLIT:;
#CREDIT:;
#BANNER:[You Won't See This In DDR II] - Yes, We Can.png;
#BACKGROUND:[You Won't See This In DDR II] - Yes, We Can-bg.png;
#LYRICSPATH:;
#CDTITLE:;
#MUSIC:[You Won't See This In DDR II] - Yes, We Can.mp3;
#OFFSET:-0.060;
#SAMPLESTART:50.025;
#SAMPLELENGTH:16.420;
#SELECTABLE:YES;
#BPMS:0.000=143.900,250.000=120.000,252.000=75.000,253.000=67.000;
#STOPS:;
#BGCHANGES:;

//---------------dance-single - ----------------
#NOTES:
     dance-single:
     :
     Hard:
     8:
     0.575,0.511,0.018,0.098,0.177: // measure 1
0000
0000
0000
0000
,  // measure 2
0000
0000
0000
0000
,  // measure 3
0000
0000
0000
0000
,  // measure 4
0000
0000
0000
0000
0000
0000
0000
0000
0000
0000
0000
0000
0000
0000
0000
1000
,  // measure 5
0200
0000
0000
0000
0310
0000
0000
0010
0002
0000
0000
0000
0103
0000
0000
0100
,  // measure 6
0020
0000
1000
0000
0100
0000
0031
0010
,  // measure 7
0000
1000
0100
0010
0001
0010
0100
1000
,  // measure 8
0000
0000
0010
0000
1000
0000
0001
0000
0100
0000
0010
0000
1000
0000
0000
1000
,  // measure 9
0002
0000
0000
0000
0103
0000
0000
0100
0020
0000
0000
0000
1030
0000
0000
1000
,  // measure 10
0002
0010
0100
1003
,  // measure 11
0001
0100
0010
0100
0001
0010
0100
0000
,  // measure 12
1000
0000
0010
0000
0100
0000
0010
0000
1000
0000
0001
1000
0001
0000
1000
0000
,  // measure 13
0010
1000
0100
1000
0001
0010
0001
0000
,  // measure 14
0100
0000
0010
0000
1000
0000
0010
0000
0100
0000
0001
0010
0001
0000
0100
0000
,  // measure 15
0010
0000
1000
0000
0001
0000
0000
0001
1000
0000
0010
0000
0100
0000
0000
0000
,  // measure 16
0001
0010
0002
0000
0000
0000
1003
0000
0001
0000
0100
0010
0100
0000
0010
0000
,  // measure 17
1000
0100
0010
0001
0100
0010
1000
0000
,  // measure 18
0001
0000
0010
0000
0100
0000
0010
0000
0001
0000
0100
0010
0100
0000
0001
0000
,  // measure 19
0010
0100
1000
0000
0010
1000
0100
0000
,  // measure 20
0010
0001
0100
0010
1000
0001
0010
0000
,  // measure 21
0001
0100
0010
0000
1000
0100
0010
0000
,  // measure 22
0100
0000
1000
0000
0010
0000
0100
0000
0001
0000
1000
0100
1000
0000
0001
0000
,  // measure 23
0010
0000
0001
0000
0100
0000
0010
0000
1000
0001
0000
1000
0000
0000
0000
0000
,  // measure 24
0100
0000
1000
0000
0010
0100
0000
0001
0000
0000
1000
0001
1000
0000
0001
0000
,  // measure 25
0010
0000
0001
0000
0100
0000
0010
0000
1000
0001
0000
0010
0000
0000
0000
0000
,  // measure 26
0001
0000
0100
0000
0010
1000
0000
0001
0000
0000
1000
0100
1000
0000
0001
0000
,  // measure 27
0010
0001
0100
0001
0010
0100
1000
0100
,  // measure 28
0010
0000
0001
0000
0100
0000
0010
0000
1000
0000
0001
1000
0001
0000
0100
0000
,  // measure 29
0010
1000
0100
1000
0001
0010
0001
0100
,  // measure 30
0010
0000
1000
0000
0001
0000
0010
0000
0100
0000
1000
0001
1000
0000
0010
0000
,  // measure 31
1000
0100
0001
0000
1000
0010
0001
0000
,  // measure 32
1000
0100
0001
0100
1000
0010
0001
0000
,  // measure 33
1000
0010
0001
0000
1000
0100
0001
0000
,  // measure 34
1000
0000
0010
0000
0001
0000
0010
0000
1000
0000
0001
1000
0001
0000
0100
0000
,  // measure 35
0000
0001
0100
0010
1000
0010
0100
0001
,  // measure 36
0000
1000
0100
0010
0001
0010
0100
1000
,  // measure 37
0001
0000
0100
0000
0010
0000
0100
0000
0001
0010
0000
0000
0100
0000
0000
0000
,  // measure 38
1000
0000
0010
0000
0100
0000
0010
0000
1000
0000
0001
0100
0001
0000
1000
0000
,  // measure 39
0001
0010
0100
1000
0010
1000
0100
0010
,  // measure 40
0001
0000
1000
0000
0010
0100
0000
0001
0000
0000
1000
0100
1000
0000
0001
0000
,  // measure 41
1000
0010
0100
0000
0001
0010
0100
0000
,  // measure 42
1000
0001
0010
0001
1000
0010
1000
0000
,  // measure 43
0100
1000
0010
0000
0100
0001
0010
0000
,  // measure 44
0100
0000
1000
0000
0001
0000
0010
0000
0001
0000
0100
0010
0100
0000
0010
0000
,  // measure 45
0000
1000
0100
0001
0100
1000
0010
0001
,  // measure 46
0000
0010
1000
0100
1000
0001
0010
0001
,  // measure 47
0100
0010
1000
0010
0100
0001
0010
0000
,  // measure 48
0100
0000
1000
0000
0001
0000
0010
0000
0001
0000
1000
0100
1000
0000
0001
0000
,  // measure 49
0010
0001
0100
0001
0010
0100
1000
0000
,  // measure 50
0010
0000
1000
0000
0100
0000
0010
0000
0001
0000
1000
0001
1000
0000
0010
0000
,  // measure 51
1000
0100
0010
0001
0100
0001
0010
0000
,  // measure 52
0100
0000
1000
0000
0010
0000
0100
0000
0001
0000
1000
0001
1000
0000
0001
0000
,  // measure 53
0010
0100
0000
1000
0000
0000
0010
0000
0100
0000
0001
1000
0000
0000
0000
0000
,  // measure 54
0001
0000
0010
0000
0100
0000
1000
0000
0001
0000
0010
0001
0010
0000
0001
0000
,  // measure 55
0100
0010
1000
0000
0010
0100
0001
0000
,  // measure 56
0010
0100
1000
0001
0010
0001
0100
0000
,  // measure 57
0010
1000
0100
0000
0010
0001
0100
0000
,  // measure 58
0010
1000
0001
0100
0001
0000
1001
0000
,  // measure 59
1000
0010
0100
0000
0010
1000
0100
0000
,  // measure 60
0010
0100
1000
0001
0010
0001
0100
0000
,  // measure 61
0010
1000
0100
0000
0010
0001
0100
0000
,  // measure 62
0010
0000
1000
0000
0001
0000
0010
0000
0001
0000
1000
0100
1000
0000
0001
0000
,  // measure 63
1000
0010
0100
0001
1000
1000
0001
0001
,  // measure 64
2000
3010
0200
0301
2002
0000
0000
0000
,  // measure 65
3003
0000
0000
0000
;

//---------------dance-single - ----------------
#NOTES:
     dance-single:
     :
     Beginner:
     1:
     0.110,0.141,0.000,0.000,0.000: // measure 1
0000
0000
0000
0000
,  // measure 2
0000
0000
0000
0000
,  // measure 3
0000
0000
0000
0000
,  // measure 4
0000
0000
0000
0000
,  // measure 5
1000
0000
1000
0000
,  // measure 6
1000
0000
0000
0000
,  // measure 7
0000
0000
0000
0000
,  // measure 8
0000
0000
0000
0000
,  // measure 9
0001
0000
0001
0000
,  // measure 10
0001
0000
0000
0000
,  // measure 11
0010
0000
0000
0000
,  // measure 12
0100
0000
0000
0000
,  // measure 13
1000
0000
0000
0000
,  // measure 14
0001
0000
0000
0000
,  // measure 15
0100
0000
0000
0000
,  // measure 16
0010
0000
0000
0000
,  // measure 17
0100
0000
0000
0000
,  // measure 18
0001
0000
0000
0000
,  // measure 19
1000
0000
1000
0000
,  // measure 20
0010
0000
0010
0000
,  // measure 21
0100
0000
0100
0000
,  // measure 22
0001
0000
0001
0000
,  // measure 23
1000
0000
0000
0000
,  // measure 24
0010
0000
0000
0000
,  // measure 25
0100
0000
0000
0000
,  // measure 26
0001
0000
0000
0000
,  // measure 27
1000
0000
0000
0000
,  // measure 28
0100
0000
0000
0000
,  // measure 29
0010
0000
0000
0000
,  // measure 30
0001
0000
0000
0000
,  // measure 31
1000
0000
1000
0000
,  // measure 32
0010
0000
0010
0000
,  // measure 33
0100
0000
0100
0000
,  // measure 34
0001
0000
0001
0000
,  // measure 35
0000
0010
0000
0010
,  // measure 36
0000
0100
0000
0100
,  // measure 37
0100
0000
0000
0000
,  // measure 38
1000
0000
0000
0000
,  // measure 39
0010
0000
0000
0000
,  // measure 40
0100
0000
0000
0000
,  // measure 41
0001
0000
0001
0000
,  // measure 42
0010
0000
0010
0000
,  // measure 43
0100
0000
0100
0000
,  // measure 44
1000
0000
1000
0000
,  // measure 45
0000
0010
0000
0010
,  // measure 46
0000
0100
0000
0100
,  // measure 47
0100
0000
0000
0000
,  // measure 48
0001
0000
0000
0000
,  // measure 49
0010
0000
0000
0000
,  // measure 50
0100
0000
0000
0000
,  // measure 51
1000
0000
0000
0000
,  // measure 52
0001
0000
0000
0000
,  // measure 53
0010
0000
0000
0000
,  // measure 54
0001
0000
0000
0000
,  // measure 55
1000
0000
1000
0000
,  // measure 56
0010
0000
0010
0000
,  // measure 57
0100
0000
0100
0000
,  // measure 58
0001
0000
0001
0000
,  // measure 59
1000
0000
1000
0000
,  // measure 60
0100
0000
0100
0000
,  // measure 61
0010
0000
0010
0000
,  // measure 62
0001
0000
0001
0000
,  // measure 63
1000
0000
1000
0000
,  // measure 64
0010
0010
0010
0000
;

//---------------dance-single - ----------------
#NOTES:
     dance-single:
     :
     Easy:
     4:
     0.271,0.282,0.018,0.053,0.000: // measure 1
0000
0000
0000
0000
,  // measure 2
0000
0000
0000
0000
,  // measure 3
0000
0000
0000
0000
,  // measure 4
0000
0000
0000
0000
,  // measure 5
2000
3000
0002
0003
,  // measure 6
0200
0000
0000
0300
,  // measure 7
0000
0010
1000
0100
,  // measure 8
0000
0010
0001
0100
,  // measure 9
0020
0030
0200
0300
,  // measure 10
0002
0000
0000
0003
,  // measure 11
0010
0100
1000
0100
,  // measure 12
0010
0001
1000
0000
,  // measure 13
0010
1000
0100
0010
,  // measure 14
0001
0100
0010
0000
,  // measure 15
1000
0100
0001
0100
,  // measure 16
1000
0010
0001
0000
,  // measure 17
0010
1000
0100
0001
,  // measure 18
0100
1000
0001
0000
,  // measure 19
1000
1000
0010
0010
,  // measure 20
0100
0100
0001
0001
,  // measure 21
1000
1000
0100
0100
,  // measure 22
0010
0001
1000
0000
,  // measure 23
0001
0100
0010
0100
,  // measure 24
0001
0010
0100
0000
,  // measure 25
1000
0010
0100
0010
,  // measure 26
1000
0100
0010
0000
,  // measure 27
0100
1000
0001
0010
,  // measure 28
0001
0100
0010
0000
,  // measure 29
1000
0001
0010
0001
,  // measure 30
1000
0100
0001
0000
,  // measure 31
0100
0100
1000
1000
,  // measure 32
0010
0010
0001
0001
,  // measure 33
0010
0010
1000
1000
,  // measure 34
0001
1000
0100
0000
,  // measure 35
0000
0010
0001
0100
,  // measure 36
0000
0010
1000
0100
,  // measure 37
0001
0100
1000
0010
,  // measure 38
0100
0001
0010
0000
,  // measure 39
0001
0100
0010
1000
,  // measure 40
0100
0010
0001
0000
,  // measure 41
1000
1000
0010
0010
,  // measure 42
0100
0100
0001
0001
,  // measure 43
1000
1000
0100
0100
,  // measure 44
0010
0001
0100
0000
,  // measure 45
0000
0010
1000
0001
,  // measure 46
0000
0100
0001
1000
,  // measure 47
0100
1000
0010
0001
,  // measure 48
0010
1000
0100
0000
,  // measure 49
0001
0100
1000
0010
,  // measure 50
0100
0001
0010
0000
,  // measure 51
1000
0010
0001
0100
,  // measure 52
0010
1000
0001
0000
,  // measure 53
1000
0100
0001
0100
,  // measure 54
1000
0010
0001
0000
,  // measure 55
0010
0010
1000
1000
,  // measure 56
0100
0100
0010
0010
,  // measure 57
0001
0001
1000
1000
,  // measure 58
0100
1000
0001
1001
,  // measure 59
0001
0001
0100
0100
,  // measure 60
0010
0010
1000
1000
,  // measure 61
0100
0100
0010
0010
,  // measure 62
0001
0100
0010
1000
,  // measure 63
0001
0010
0100
1000
,  // measure 64
0001
0100
1001
0000
;

//---------------dance-single - ----------------
#NOTES:
     dance-single:
     :
     Medium:
     6:
     0.488,0.539,0.080,0.231,0.000: // measure 1
0000
0000
0000
0000
,  // measure 2
0000
0000
0000
0000
,  // measure 3
0000
0000
0000
0000
,  // measure 4
0000
0000
0000
0000
,  // measure 5
2000
3100
0020
0031
,  // measure 6
0200
0010
0010
0310
,  // measure 7
0100
0000
0010
0000
1000
0100
1000
0000
,  // measure 8
0010
0000
0100
0000
0001
0100
0001
0000
,  // measure 9
2000
3100
0020
0031
,  // measure 10
2000
0001
0001
3001
,  // measure 11
1000
0100
1000
0000
0100
0010
0100
0000
,  // measure 12
0010
0001
0010
0000
0001
0000
0101
0000
,  // measure 13
0100
0010
0100
0000
0010
1000
0010
0000
,  // measure 14
1000
0001
1000
0000
0001
0000
0101
0000
,  // measure 15
0001
0010
0100
0000
0010
0100
1000
0000
,  // measure 16
0100
1000
0010
0000
1000
0000
1010
0000
,  // measure 17
1000
0010
0100
0000
0010
0100
0001
0000
,  // measure 18
0100
0001
1000
0000
0001
0000
1001
0000
,  // measure 19
1000
0100
1000
0000
0001
0100
0001
0000
,  // measure 20
1000
0010
1000
0010
1000
0010
1000
0000
,  // measure 21
0001
0010
0001
0000
1000
0100
1000
0000
,  // measure 22
0001
0100
0001
0100
0001
0000
1001
0000
,  // measure 23
1000
0100
1000
0000
0001
0100
0001
0000
,  // measure 24
0010
0100
0010
0100
0020
0000
0031
0000
,  // measure 25
1000
0010
1000
0000
0001
0100
0001
0000
,  // measure 26
1000
0100
1000
0100
0020
0000
0031
0000
,  // measure 27
1000
0010
1000
0000
0001
0100
0001
0000
,  // measure 28
1000
0001
1000
0001
0200
0000
0310
0000
,  // measure 29
1000
0100
0010
0000
0001
0100
0010
0000
,  // measure 30
1000
0001
0010
0001
2000
0000
3001
0000
,  // measure 31
1000
0100
0010
0000
0100
0010
0001
0000
,  // measure 32
0010
0001
0100
0001
0100
0010
1000
0000
,  // measure 33
0010
1000
0100
0000
0010
0001
0100
0000
,  // measure 34
0010
1000
0001
0100
0002
0000
1003
0000
,  // measure 35
0000
0001
0100
0001
0100
0001
0100
0000
,  // measure 36
0000
0010
1000
0010
1000
0010
1000
0010
,  // measure 37
1000
0100
1000
0000
0100
0001
0100
0000
,  // measure 38
0001
0010
0001
0010
2000
0000
3010
0000
,  // measure 39
1000
0100
1000
0000
0100
0001
0100
0000
,  // measure 40
0001
0010
0001
0010
2000
0000
3010
0000
,  // measure 41
1000
0010
1000
0000
0010
0001
0010
0000
,  // measure 42
0001
0100
0001
0100
1000
0100
1000
0000
,  // measure 43
0010
1000
0010
0000
0001
0010
0001
0000
,  // measure 44
0100
0001
0100
0001
0200
0000
1300
0000
,  // measure 45
0000
0010
0100
0010
0100
0010
0100
0000
,  // measure 46
0000
0001
1000
0001
1000
0001
1000
0001
,  // measure 47
1000
0100
0001
0000
0001
0100
1000
0000
,  // measure 48
1000
0010
0001
0010
2000
0000
3001
0000
,  // measure 49
0001
0100
1000
0000
1000
0100
0001
0000
,  // measure 50
0001
0010
1000
0010
0002
0000
1003
0000
,  // measure 51
0001
0100
1000
0000
0001
0010
1000
0000
,  // measure 52
0001
0100
1000
0100
0002
0000
1003
0000
,  // measure 53
0001
0010
1000
0000
0001
0100
1000
0000
,  // measure 54
0001
0010
1000
0010
0002
0000
1003
0000
,  // measure 55
0001
0100
0010
0000
0100
0010
1000
0000
,  // measure 56
0010
1000
0100
1000
0001
0010
0001
0000
,  // measure 57
0001
0100
0010
0000
0100
0010
1000
0000
,  // measure 58
0010
1000
0100
1000
0001
0000
1001
0000
,  // measure 59
0001
0010
0100
0000
0010
0100
1000
0000
,  // measure 60
0100
1000
0010
0100
0010
1000
0001
0000
,  // measure 61
1000
0010
0100
0000
0001
0100
0010
0000
,  // measure 62
1000
0100
0010
0001
2000
0000
3001
0000
,  // measure 63
1000
0100
0010
0001
2000
0000
3010
0000
,  // measure 64
0220
0330
2002
3003
0220
0000
0000
0000
,  // measure 65
0330
0000
0000
0000
;
