#TITLE:What Is Liberty To You;
#SUBTITLE:;
#ARTIST:My Eggplant Died Yesterday;
#TITLETRANSLIT:;
#SUBTITLETRANSLIT:;
#ARTISTTRANSLIT:;
#GENRE:CATHARINA;
#CREDIT:Frozen_Heat/Azn_Punk_07/GuardianFrozen;
#MENUCOLOR:#660000;
#METERTYPE:DDR;
#BANNER:[You Won't See This In DDR II] - What Is Liberty To You.png;
#BACKGROUND:[You Won't See This In DDR II] - What Is Liberty To You-bg.png;
#LYRICSPATH:[You Won't See This In DDR II] - What Is Liberty To You.lrc;
#CDTITLE:cdtitle.png;
#MUSIC:[You Won't See This In DDR II] - What Is Liberty To You.mp3;
#OFFSET:-0.014;
#SAMPLESTART:64.840;
#SAMPLELENGTH:13.720;
#SELECTABLE:YES;
#LISTSORT:;
#BPMS:0.000=140.000;
#STOPS:;
#BGCHANGES:;
#ATTACKS:;

//---------------dance-single - ----------------
#NOTES:
     dance-single:
     :
     Hard:
     10:
     0.716,0.832,0.046,0.037,0.842:
0000
0000
0000
0000
,
0000
0000
0000
0000
,
0000
0000
0000
0000
,
0000
0000
0000
0001
,
1000
0000
0000
0100
0000
0000
1000
0000
0010
0000
0100
0000
0001
0000
0001
0010
,
0000
0000
0001
1000
0001
0000
0100
0010
1000
0000
0100
0000
0001
0000
0100
0000
,
0000
0000
0010
0001
0000
0000
1000
0001
0100
0001
1000
0000
0010
0100
0010
0000
,
1000
0100
0000
0000
0001
0100
0000
0000
0010
0000
0001
1000
0001
0000
0100
0000
,
0001
0000
0000
0010
0000
0000
0001
0000
0100
0000
0010
0000
1000
0000
1000
0100
,
0000
0000
1000
0001
1000
0000
0010
0100
0001
0000
0010
0000
1000
0000
0010
0000
,
0000
0000
0100
1000
0000
0000
0001
1000
0010
1000
0001
0000
0100
0010
0100
0000
,
0001
0010
0000
0000
1000
0010
0000
0000
0100
0000
1000
0001
1000
0000
0010
0000
,
0100
0000
0000
0100
0000
0000
0100
0010
1000
0000
0100
0000
0010
0000
0001
1000
,
0000
0000
0001
0010
0100
0000
0010
0001
1000
0000
0001
0000
0100
0000
1000
0100
,
0000
0000
0010
1000
0000
0000
1000
0001
0010
0001
1000
0000
0100
0001
0100
0000
,
0010
0100
0000
0000
1000
0100
0010
0000
0001
0000
1000
0010
1000
0000
0001
0100
,
0010
0000
0000
0010
0000
0000
0010
0100
0001
0000
0010
0000
0100
0000
1000
0001
,
0000
0000
1000
0100
0010
0000
0100
1000
0001
0000
1000
0000
0010
0000
0001
0010
,
0000
0000
0100
0001
0000
0000
0001
1000
0100
1000
0001
0000
0010
1000
0010
0000
,
0100
0010
0000
0000
0001
0010
0100
0000
1000
0000
0001
0100
0001
0000
1000
0010
,
0200
0000
0010
0000
,
0301
0010
0001
1000
0010
1000
0200
0000
0000
0010
0000
0000
,
1300
0000
0000
1000
0000
0000
1000
0001
0100
0000
0000
0010
0000
0000
0010
1000
,
0100
0000
0000
0100
0000
0000
0100
0000
0010
0000
0001
0000
1000
0000
0010
0000
,
0001
0000
0000
0001
0000
0000
0001
0010
0100
0000
0000
0100
0000
0000
0001
1000
,
0100
0000
0000
0000
0000
0000
0000
0000
0000
0100
0000
0000
0000
0000
0000
0000
0000
0000
0010
0000
0000
0000
0000
0000
0001
0000
0000
0000
0010
0000
0000
0000
0100
0000
0000
0000
1000
0000
0000
0000
0010
0000
0000
0000
0100
0000
0000
0000
,
0001
0000
0000
0001
0000
0000
0001
1000
0010
0000
0000
0100
0000
0000
0100
0001
,
0010
0000
0000
0010
0000
0000
0010
0001
0100
0000
1000
0000
0001
0000
0010
0000
,
1000
0000
0000
1000
0000
0000
1000
0100
0010
0000
0000
0010
0000
0000
0001
1000
,
0010
0000
0010
0100
0001
0000
0001
0000
1000
0100
1000
0000
0010
0000
0010
0000
,
0100
0000
0000
0100
0000
0000
0100
0010
1000
0000
0000
1000
0000
0000
1000
0001
,
0010
0000
0000
0010
0000
0000
0010
0000
0001
0000
1000
0000
0100
0000
0001
0000
,
0100
0000
0000
0100
0000
0000
0100
0010
0001
0000
0000
0001
0000
0000
0001
1000
,
0010
0010
0010
0100
0100
0100
0001
0001
0001
1000
1000
1000
,
0100
0000
0000
0100
0000
0000
0010
0001
0100
0000
0000
0100
0000
0000
0010
1000
,
0100
0000
0000
0100
0000
0000
0010
0001
1000
0000
0010
0000
0100
0000
0010
0000
,
1000
1000
0100
0100
0010
0010
0001
0001
,
1000
0010
0001
1000
0100
0001
0010
1000
0001
0100
0000
0000
,
2000
3000
0002
0003
,
1000
0000
1000
0000
0100
0000
0010
0000
0001
1000
0001
1000
0001
1000
0001
1000
,
0001
0001
1000
0010
0100
0100
0001
0010
,
1000
0010
0001
0000
0010
0000
0001
0100
1000
0000
0100
0000
0010
0000
0000
0000
,
1000
0100
0001
0100
0010
0001
0100
1000
,
0100
0010
1000
0001
0010
1000
0001
0100
,
1000
0010
0100
0001
1000
0100
0001
0100
,
0010
0001
0000
0001
0100
0000
0010
1000
0001
1000
0100
0000
0010
0000
0001
0000
,
1000
0000
0010
1000
0000
0000
1000
0100
0010
0000
0001
0010
0000
0000
0001
1000
,
0001
0000
0010
0100
0000
0000
0100
1000
0001
0000
1001
0000
1000
0000
1001
0000
,
0001
0000
0100
0001
0000
0000
0001
0010
0100
0000
1000
0100
0000
0000
1000
0001
,
1000
0000
0010
0100
0010
0000
0100
0001
0010
0000
0110
0000
0100
0010
0110
0000
,
0010
0000
0001
1000
0000
0001
0100
0010
0100
0000
0010
1000
0000
0001
0010
0100
,
0010
0000
0001
0010
0000
0001
1000
0100
1000
0000
0001
0000
0100
0000
0001
1000
,
0100
0000
1000
0001
0000
1000
0010
0100
0010
0000
0100
0001
0000
0010
0100
1000
,
0100
0000
1000
0100
0001
0000
0001
0100
1000
0000
0010
0000
0010
0000
0100
0000
,
0110
0000
0000
0010
0000
0000
0010
1000
0001
0000
0000
0001
0000
0000
0001
1000
,
0100
0000
0000
0100
0000
0000
0100
0010
0001
0000
1000
0000
0001
0000
0001
0000
,
1000
0000
0000
1000
0000
0000
1000
0001
0010
0000
0000
0010
0000
0000
0010
0001
,
0100
0000
0010
0100
0010
0000
0100
0001
0100
0000
0010
1000
0100
0010
0100
0000
,
1000
0000
0100
1000
0000
0000
0001
0100
0001
0000
0010
0001
0000
0000
0100
0010
,
0100
0000
0001
0100
0000
0000
0010
1000
0100
0000
0010
0000
0001
0000
0100
0000
,
0001
0000
0010
0001
1000
0000
1000
0010
1000
0000
0100
1000
0001
0000
0001
0100
,
0001
1000
0010
0100
0001
1000
0100
0001
0100
0010
0001
1000
0010
0001
0010
1000
,
0001
0000
0000
0000
;

//---------------dance-single - ----------------
#NOTES:
     dance-single:
     :
     Medium:
     7:
     0.506,0.574,0.268,0.213,0.088: // measure 1
0000
0000
0000
0000
,  // measure 2
0000
0000
0000
0000
,  // measure 3
0000
0000
0000
0000
,  // measure 4
0000
0000
0000
1000
,  // measure 5
2000
0000
0010
0000
3001
0010
0100
0010
,  // measure 6
0000
0001
0100
0000
0010
1000
0010
0100
,  // measure 7
0000
0001
0010
0000
0100
0010
0001
0000
,  // measure 8
1000
0100
0001
0000
0001
0100
1000
0000
,  // measure 9
0002
0000
0100
0000
1003
0010
0100
0010
,  // measure 10
0000
1000
0001
0010
0100
1000
0010
0100
,  // measure 11
0000
0010
1000
0001
1000
0000
0001
0010
,  // measure 12
0001
0000
0010
0100
0010
0000
0001
0000
,  // measure 13
2002
0000
0000
0000
,  // measure 14
3003
0000
0001
0100
1000
0100
0010
0000
,  // measure 15
0000
0000
1000
0100
0001
0100
0010
0100
,  // measure 16
1000
1100
0001
0101
,  // measure 17
2002
0000
3003
0110
,  // measure 18
0220
0000
0330
1000
,  // measure 19
2200
0000
3300
2200
0000
3300
0000
0000
,  // measure 20
0102
0013
0012
0103
,  // measure 21
1002
0000
1000
0000
,  // measure 22
2003
3200
0320
0032
,  // measure 23
0103
0000
0000
0100
0010
0000
0000
0010
,  // measure 24
1000
0000
0000
1000
0001
0100
0010
0100
,  // measure 25
0001
0001
1000
1000
0100
0010
0100
1000
,  // measure 26
0010
0010
0100
0100
0001
0000
0001
0000
,  // measure 27
0100
0000
0000
0100
0010
0000
0000
0010
,  // measure 28
1000
0000
0000
1000
0001
0100
0001
0010
,  // measure 29
0100
0000
0000
0110
0000
0000
0110
0000
0000
0000
1000
0000
0001
0000
0000
0000
,  // measure 30
1000
1010
0001
0011
,  // measure 31
0100
0000
0000
0100
0000
0000
0100
0000
0010
0000
0000
0010
0000
0000
0010
0000
,  // measure 32
1000
0000
0000
1000
0000
0000
1000
0000
0001
0000
0010
0000
0001
0000
0100
0000
,  // measure 33
0010
0000
0000
0010
0000
0000
0010
0000
0100
0000
0000
0100
0000
0000
0100
0000
,  // measure 34
0001
0001
1000
1000
0100
0100
0010
0010
,  // measure 35
0001
0000
0000
0001
0000
0000
0001
0000
0100
0000
0000
0100
0000
0000
0100
0000
,  // measure 36
0010
0000
0000
0010
0000
0000
0010
0000
1000
0000
0100
0000
0010
0000
0001
0000
,  // measure 37
1000
0100
1100
0000
0001
0100
0101
0000
,  // measure 38
2002
0000
3003
0010
,  // measure 39
0110
1000
0100
0000
0110
0001
0010
0000
,  // measure 40
1001
0001
1000
1000
0020
0000
0130
0001
,  // measure 41
0100
0000
0100
0010
0000
0010
0000
1000
,  // measure 42
0000
1000
0001
1000
0100
0000
0010
0000
,  // measure 43
0110
0001
0010
0000
0110
1000
0100
0000
,  // measure 44
1001
1000
1000
0001
0020
0000
0130
1000
,  // measure 45
0100
0000
0100
0010
0000
0010
0000
0001
,  // measure 46
0000
0001
1000
0001
0100
0000
0110
0001
,  // measure 47
0100
0000
0010
1000
0100
0000
0010
0001
,  // measure 48
0100
0010
1000
0100
0010
0000
0100
1000
,  // measure 49
0001
0100
1000
0100
0000
0001
1000
0001
,  // measure 50
0000
0010
0100
1000
0100
0010
0001
1000
,  // measure 51
1001
0000
0010
0100
0110
0000
1000
0001
,  // measure 52
1001
0010
0100
1000
0010
0100
0001
0010
,  // measure 53
1000
0010
0100
0010
0000
0001
0100
1000
,  // measure 54
0000
1000
0100
0001
0100
0010
0100
0000
,  // measure 55
0010
0000
0000
0010
0000
0000
0010
0000
0100
0000
0000
0100
0000
0000
0100
0000
,  // measure 56
0001
0000
0000
0001
0000
0000
0001
0000
1000
0000
0100
0000
1000
0000
0010
0000
,  // measure 57
0100
0000
0000
0100
0000
0000
0100
0000
0010
0000
0000
0010
0000
0000
0010
0000
,  // measure 58
1000
1000
0001
0001
0010
0010
0100
0100
,  // measure 59
1000
0000
0000
1000
0000
0000
1000
0000
0010
0000
0000
0010
0000
0000
0010
0000
,  // measure 60
0100
0000
0000
0100
0000
0000
0100
0000
0001
0000
0010
0000
0100
0000
1000
0000
,  // measure 61
0001
0000
0001
0010
0001
0000
0100
0000
0010
0000
1000
0100
1000
0000
0010
0000
,  // measure 62
0100
0100
0010
0010
1000
1000
0001
0001
,  // measure 63
1001
0000
0000
0000
;

//---------------dance-single - ----------------
#NOTES:
     dance-single:
     :
     Beginner:
     2:
     0.137,0.172,0.000,0.204,0.000:
0000
0000
0000
0000
,
0000
0000
0000
0000
,
0000
0000
0000
0000
,
0000
0000
0000
0000
,
1000
0000
0000
0000
,
0001
0000
0000
0000
,
1000
0000
0000
0000
,
0001
0000
0000
0000
,
0010
0000
0000
0000
,
0100
0000
0000
0000
,
0010
0000
0000
0000
,
0100
0000
0100
0000
,
0200
0000
0300
0000
,
0000
0010
0010
0000
,
0000
0001
0001
0000
,
0000
0000
0000
0000
,
2000
0000
3000
0000
,
0000
0010
0010
0010
,
0000
0100
0100
0100
,
0100
0000
0100
0000
,
0100
0000
0000
0000
,
0000
0000
0000
0000
,
0002
0000
0003
0000
,
2000
0000
3000
0000
,
0010
0000
0010
0000
,
0100
0000
0100
0000
,
0002
0000
0003
0000
,
2000
0000
3000
0000
,
0100
0000
0100
0000
,
0010
0000
0010
0000
,
0001
0000
0000
0000
,
0001
0000
0001
0000
,
0100
0000
0000
0000
,
0100
0000
0100
0000
,
0010
0000
0000
0000
,
0010
0000
0010
0000
,
1000
0000
0000
0000
,
1000
1000
1000
0000
,
2000
0000
3000
0000
,
0002
0000
0003
0000
,
0020
0000
0030
0000
,
0200
0000
0300
0000
,
2000
0000
3000
0000
,
0002
0000
0003
0000
,
0200
0000
0300
0000
,
0020
0000
0030
0000
,
1000
1000
0000
0000
,
0001
0001
0000
0000
,
0100
0100
0000
0000
,
0010
0010
0000
0000
,
1000
1000
0000
0000
,
0001
0001
0000
0000
,
0010
0010
0000
0000
,
0100
0100
0000
0000
,
2000
0000
3000
0000
,
2000
0000
3000
0000
,
0020
0000
0030
0000
,
0020
0000
0030
0000
,
0200
0000
0300
0000
,
0200
0000
0300
0000
,
0002
0000
0003
0000
,
0002
0000
0003
0000
,
0010
0000
0000
0000
;

//---------------dance-single - ----------------
#NOTES:
     dance-single:
     :
     Easy:
     4:
     0.303,0.402,0.231,0.213,0.000:
0000
0000
0000
0000
,
0000
0000
0000
0000
,
0000
0000
0000
0000
,
0000
0000
0000
0000
,
1000
0100
0010
0000
,
0001
0100
0010
0000
,
1000
0010
0100
0001
,
2000
3000
0002
0003
,
0020
0000
0030
0100
,
0010
0001
0100
0010
,
1000
1000
0001
0001
,
0200
0300
0020
0030
,
2002
0000
3003
0000
,
1000
0001
1001
1001
,
0000
0010
0010
0100
,
0110
0000
1001
0000
,
0220
0000
0330
1000
,
1000
0001
0001
0100
,
0010
0100
0010
0100
,
0001
0000
1000
0000
,
2002
0000
0000
0000
,
3003
0000
0000
1000
,
0001
0000
0001
0100
,
0010
0000
0010
1000
,
0100
0100
0010
0010
,
0001
1000
0010
0100
,
0100
0000
0010
1000
,
0100
0000
0010
0001
,
0100
0100
0010
0010
,
1000
0001
1001
0010
,
1001
0000
1001
0000
,
1001
0000
0100
0010
,
0110
0000
0110
0000
,
0110
0110
1001
1001
,
0110
0000
0110
0000
,
0110
0000
0110
0001
,
1000
1000
0001
0001
,
1001
0110
1001
1000
,
0002
0000
1003
0000
,
2000
0000
3001
0000
,
1000
0100
0001
0100
,
1000
0100
0001
0100
,
2000
0000
3001
0000
,
0002
0000
1003
0000
,
0001
0010
1000
0010
,
0001
0010
1000
0010
,
0002
0000
0203
0000
,
0310
1000
0010
0100
,
0020
0000
2030
0000
,
3100
0010
0001
1000
,
0200
0000
2300
0000
,
3010
0100
0001
1000
,
0020
0000
0230
0000
,
0301
1000
0100
0010
,
0001
0001
1000
1000
,
0001
0100
1000
0010
,
0100
0100
0010
0010
,
0100
0001
1000
0010
,
0001
0001
0100
0100
,
0010
1000
0001
0100
,
1000
1000
0100
0100
,
0010
0001
0100
0010
,
1001
0000
0000
0000
;
