#TITLE:Teach Me How To Dougie;
#SUBTITLE:;
#ARTIST:Cali Swag District;
#TITLETRANSLIT:;
#SUBTITLETRANSLIT:;
#ARTISTTRANSLIT:;
#CREDIT:;
#BANNER:;
#BACKGROUND:;
#LYRICSPATH:;
#CDTITLE:;
#MUSIC:Teach Me How To Dougie.mp3;
#OFFSET:-0.060;
#SAMPLESTART:56.440;
#SAMPLELENGTH:12.000;
#SELECTABLE:YES;
#BPMS:0.000=85.000;
#STOPS:;
#BGCHANGES:;

//---------------dance-single - ----------------
#NOTES:
     dance-single:
     :
     Hard:
     6:
     0.263,0.327,0.011,0.000,0.100:
0000
0000
0000
0000
,
0000
0000
0000
0000
,
0000
0000
0000
0000
,
0000
0000
0000
0000
,
0010
0000
0000
1000
0100
0000
1000
0000
0010
0000
0100
0001
0000
0000
0000
0000
,
0001
0000
0000
0100
0010
0000
1000
0000
0100
0000
0000
0100
1000
0000
0010
0000
,
0100
0000
0000
0100
0001
0000
1000
0000
0100
0000
0000
0100
1000
0000
0010
0000
,
0100
0000
0000
0100
0001
0000
0010
0000
0001
0000
0000
1000
0100
0000
1000
0000
,
0010
0000
1000
0100
0001
0100
1000
0000
,
0010
0000
0100
0001
0010
0100
0010
0001
,
0100
0000
0010
0000
1000
0100
0010
0000
,
0100
0000
1000
0010
0100
0000
0001
0000
,
0010
0000
0001
0000
0010
0001
0010
0000
,
0100
0000
1000
0000
0010
0100
0010
0000
,
1000
0000
0100
0000
0010
0001
0100
0000
,
0001
0000
1000
0000
0100
0010
0001
0000
,
0100
0000
0010
0000
0100
0001
1000
0000
,
0100
0000
1000
0000
0010
0100
0001
0000
,
0100
0000
0010
0000
1000
0001
0010
0000
,
0100
0000
1000
0000
0010
0100
0001
0000
,
1000
0010
1000
0000
0010
0000
0100
0000
0100
0000
0001
0000
0010
0000
0100
0000
,
0010
0001
0010
0000
0001
0000
0100
0000
0100
0000
0010
0000
1000
0000
1000
0000
,
0001
0000
0010
0000
0100
0000
1000
0000
1000
0000
0001
0000
0100
0001
0000
0000
,
0001
0000
0010
0000
0100
0000
0100
0000
1000
0000
0010
0000
0100
0001
0000
0000
,
1000
0100
1000
0000
0010
0000
0100
0001
0100
0000
0010
0000
1000
0000
1000
0000
,
0001
0010
0001
0000
0100
0000
0010
1000
0010
0000
0100
0000
0100
0000
0001
0000
,
0010
0000
0100
0000
0100
0000
0010
0000
0001
0000
0100
0000
0100
0010
0000
0000
,
1000
0000
0100
0000
0100
0000
1000
0000
0010
0000
0100
0000
0001
1000
0000
0000
,
1001
0000
0000
0000
;

//---------------dance-single - ----------------
#NOTES:
     dance-single:
     :
     Medium:
     4:
     0.214,0.249,0.011,0.044,0.000:
0000
0000
0000
0000
,
0000
0000
0000
0000
,
0000
0000
0000
0000
,
0000
0000
0000
0000
,
0010
0000
1000
0100
1000
0010
0100
0000
,
0001
0000
0010
0100
0010
0001
1000
0000
,
0010
0000
0100
0001
1000
0100
0010
0000
,
0100
0000
1000
0010
0100
0001
0010
0000
,
0001
0000
0100
0000
0010
1000
0200
0000
,
1300
0000
0010
0000
0100
0001
0020
0000
,
0031
0000
0100
0010
1000
0000
0002
0000
,
0013
0000
0100
0010
0001
0000
2000
0000
,
3010
1000
0100
0010
,
0001
0000
0100
0000
0010
1000
0100
0000
,
1000
0010
0100
0001
,
1000
0000
0100
0000
0010
0001
0100
0000
,
0001
0000
0100
0000
0010
1000
0001
0000
,
0010
0000
0100
0000
0010
0001
1000
0000
,
0010
0000
0100
0000
0001
0100
0010
0000
,
1000
0000
0100
0000
0010
0001
1000
0000
,
0010
0000
0000
1000
1000
0010
0100
0000
,
0001
0000
0000
0010
0010
0001
0100
0000
,
0010
0000
1000
0100
0001
0000
0001
0100
,
1000
0000
1000
0010
0001
0000
0010
0000
,
1000
0000
0100
0010
0010
0100
1000
0000
,
0010
0000
0001
0100
0100
0010
1000
0000
,
0001
0100
0010
0010
1000
0100
0100
0000
,
1000
0010
0010
0100
0001
0010
0100
0000
,
0110
0000
0000
0000
;

//---------------dance-single - ----------------
#NOTES:
     dance-single:
     :
     Easy:
     2:
     0.111,0.124,0.011,0.000,0.000:
0000
0000
0000
0000
,
0000
0000
0000
0000
,
0000
0000
0000
0000
,
0000
0000
0000
0000
,
1000
0000
0010
0100
,
0001
0000
0100
0010
,
1000
0000
0010
0100
,
0001
0000
0010
0100
,
1000
0000
0001
0100
,
0010
0000
0010
1000
,
0100
0000
0010
0001
,
1000
0000
0010
0100
,
0001
0000
0010
0000
,
0100
0000
1000
0000
,
0010
0000
0100
0000
,
0001
0000
1000
0000
,
0001
0010
0001
0000
,
1000
0100
1000
0000
,
0010
0100
0010
0000
,
0001
1000
0001
0000
,
1000
0000
0100
0100
,
1000
0000
0010
0010
,
0100
0001
0100
0000
,
0010
1000
0010
0000
,
0100
0000
0001
0001
,
0010
0000
0100
0100
,
1000
0010
1000
0000
,
0001
0100
0001
0000
,
1001
0000
0000
0000
;

//---------------dance-single - ----------------
#NOTES:
     dance-single:
     :
     Beginner:
     1:
     0.052,0.078,0.000,0.000,0.000: // measure 1
0000
0000
0000
0000
,  // measure 2
0000
0000
0000
0000
,  // measure 3
0000
0000
0000
0000
,  // measure 4
0000
0000
0000
0000
,  // measure 5
0010
0000
0000
0000
,  // measure 6
1000
0000
0000
0000
,  // measure 7
0100
0000
0000
0000
,  // measure 8
0010
0000
0000
0000
,  // measure 9
0001
0000
0000
0000
,  // measure 10
0100
0000
0000
0000
,  // measure 11
0010
0000
0000
0000
,  // measure 12
1000
0000
0000
0000
,  // measure 13
1000
0000
0000
0000
,  // measure 14
0010
0000
0000
0000
,  // measure 15
0100
0000
0000
0000
,  // measure 16
0001
0000
0000
0000
,  // measure 17
0010
0000
0000
0000
,  // measure 18
0100
0000
0000
0000
,  // measure 19
1000
0000
0000
0000
,  // measure 20
0001
0000
0000
0000
,  // measure 21
0100
0000
0100
0000
,  // measure 22
0100
0000
0100
0000
,  // measure 23
0010
0000
1000
0000
,  // measure 24
0001
0000
0100
0000
,  // measure 25
0010
0000
0010
0000
,  // measure 26
0010
0000
0010
0000
,  // measure 27
0100
0000
0001
0000
,  // measure 28
1000
0000
0010
0000
,  // measure 29
0100
0000
0000
0000
;
