#TITLE:Ramsey's Rave;
#SUBTITLE:;
#ARTIST:Gordon Ramsey remixed by GuruMediator;
#TITLETRANSLIT:;
#SUBTITLETRANSLIT:;
#ARTISTTRANSLIT:;
#GENRE:;
#CREDIT:;
#MENUCOLOR:;
#METERTYPE:DDR;
#BANNER:Ramsey's Rave.png;
#BACKGROUND:Ramsey's Rave-bg.png;
#LYRICSPATH:;
#CDTITLE:;
#MUSIC:Ramsey's Rave.mp3;
#OFFSET:-0.100;
#SAMPLESTART:1.175;
#SAMPLELENGTH:14.000;
#SELECTABLE:YES;
#LISTSORT:;
#BPMS:0.000=140.000;
#STOPS:;
#BGCHANGES:;
#ATTACKS:;

//---------------dance-single - ----------------
#NOTES:
     dance-single:
     :
     Hard:
     9:
     0.669,0.715,0.625,0.132,0.286: // measure 1
1000
0010
0001
1000
0100
0001
0000
0010
,  // measure 2
0000
0100
0000
0001
0100
0000
1000
0000
,  // measure 3
1000
0010
0001
1000
0100
0001
0000
0100
,  // measure 4
0000
1000
0000
0100
0010
0000
0110
0000
,  // measure 5
1000
0010
0001
1000
0100
0001
0000
0010
,  // measure 6
0000
0100
0000
1000
0001
0100
0001
0000
,  // measure 7
1000
0100
0001
0100
1000
0010
0000
0100
,  // measure 8
0000
0010
0000
0110
0220
0000
0000
0330
,  // measure 9
1000
0100
0001
0100
1000
0000
1000
0010
0001
0010
1000
0000
0000
0000
0000
0000
,  // measure 10
0110
0000
0110
0000
1000
0001
0100
0000
,  // measure 11
0001
1000
0010
1000
0001
0000
0001
0100
0010
0100
0001
0000
0000
0000
0000
0000
,  // measure 12
1001
0000
0000
0000
1100
0000
0000
0000
0110
0000
0000
0001
0100
0010
0000
0000
,  // measure 13
1000
0100
0010
0001
0000
1000
0010
1000
0020
0000
0000
0000
0000
0000
0030
0000
,  // measure 14
0110
0101
1001
0000
1100
0110
0011
0000
,  // measure 15
1000
0010
0100
0010
1000
0000
0001
0100
0010
0100
0001
0000
0000
0000
0000
0000
,  // measure 16
1100
0000
0000
0000
0110
0000
0000
0000
0011
0000
1000
0010
0100
0000
0000
0000
,  // measure 17
0010
1000
0001
0000
0100
0010
1000
0000
0001
0100
0010
0000
1000
0001
0100
0000
,  // measure 18
0010
1000
0001
1000
0000
0000
0001
0100
0010
0001
1000
0100
0001
0000
0000
0000
,  // measure 19
1000
0010
0001
0000
0100
1000
0100
0000
0001
0100
1000
0000
1000
0100
0010
0000
,  // measure 20
0000
0110
0000
1000
0001
0100
0010
0000
,  // measure 21
0220
0000
0330
0000
1000
0010
0100
0000
0100
0010
1000
0000
0001
0100
0010
0000
,  // measure 22
0000
1000
0100
0010
0011
0000
0101
0000
,  // measure 23
0100
0010
1000
0000
0001
0100
0010
0000
0010
0100
0001
0000
1000
0010
0100
0000
,  // measure 24
0000
1000
1010
0010
0110
0100
0101
0000
,  // measure 25
1010
0000
0000
0000
0100
0000
0100
0000
0000
0010
0000
0000
0000
0000
1000
0000
,  // measure 26
1000
0000
0001
0000
0000
0010
0000
0100
,  // measure 27
1000
0000
0100
0010
0001
0000
0000
0100
,  // measure 28
0100
0000
0010
0000
1000
0000
0001
0000
1001
0000
0000
0000
0100
0000
0000
0010
,  // measure 29
0000
0000
0000
0000
0100
0000
0001
0000
0000
1000
0000
0000
0000
0000
0001
0000
,  // measure 30
0100
0000
0010
0000
0000
0100
0000
0001
,  // measure 31
1000
0000
0000
0000
0010
0000
0100
0000
0000
0001
0000
0000
0000
0000
1000
0000
,  // measure 32
0100
0001
0010
1000
1010
0000
0000
0000
,  // measure 33
0100
0001
1000
0001
0100
0010
0000
1000
,  // measure 34
0100
0010
1000
0001
0100
0010
1000
0000
,  // measure 35
0010
0001
0100
0010
1000
0100
0000
0000
,  // measure 36
0010
0001
1000
0100
0220
0000
0330
0000
,  // measure 37
0001
1000
0010
0100
0010
1000
0000
0001
,  // measure 38
0100
0010
1000
0010
0101
1001
1010
0000
,  // measure 39
1000
0010
0100
0010
1000
1001
0000
0000
,  // measure 40
0001
0010
0100
1000
0202
0000
0303
0000
,  // measure 41
0000
1000
0100
0000
0010
0000
0001
0000
0100
0000
0110
0000
0001
0000
1001
0000
,  // measure 42
0000
0100
0010
0000
1000
0000
0010
0000
0100
0000
0010
0000
0001
0000
0000
0000
,  // measure 43
0000
1000
0001
0000
0100
0000
0010
0000
1000
0000
1001
0000
0100
0000
0101
0000
,  // measure 44
0000
0010
1000
0000
0010
0000
0100
0000
0010
0000
1000
0000
0001
0000
1001
0000
,  // measure 45
0000
0100
0010
0000
1000
0000
0001
0000
0100
0000
0101
0000
0010
0000
1010
0000
,  // measure 46
0000
0100
0010
0000
0100
0000
0010
0000
0010
0000
1000
0000
1000
0000
0000
0000
,  // measure 47
0000
0001
0100
0000
0001
0000
1000
0000
0010
0000
0110
0000
0001
0000
1001
0000
,  // measure 48
0110
0110
1001
1001
1100
0220
0000
0330
,  // measure 49
1000
0010
0100
0010
1000
0000
0001
0100
0010
0100
0001
0000
0000
0000
0110
0000
,  // measure 50
0000
0001
1000
0010
0001
0100
0010
0000
,  // measure 51
0001
1000
0100
0010
0001
0000
0001
0010
0100
1000
0001
0000
0000
0000
0000
0000
,  // measure 52
0100
0110
1000
1001
0100
0001
1001
0000
,  // measure 53
0001
0100
1000
0010
0001
0000
0001
0000
0010
1000
0010
0000
0001
0000
0101
0000
,  // measure 54
0000
1000
0010
0100
0110
2020
0000
3030
,  // measure 55
0001
0100
0010
0100
0001
0000
1000
0001
0100
0001
1000
0000
0000
0000
0000
0000
,  // measure 56
1010
0110
0101
1001
,  // measure 57
0100
0010
1000
0001
0100
0100
0100
0110
,  // measure 58
0001
0101
1000
1100
0010
0010
0010
0110
,  // measure 59
0001
1001
0100
0101
1000
1000
1000
1010
,  // measure 60
0100
0110
1000
1001
0110
0000
0110
0000
,  // measure 61
1000
0100
0001
0100
0000
1000
0010
0001
,  // measure 62
0010
1000
0100
0001
0010
0000
0000
0000
,  // measure 63
1000
0100
0010
0001
0100
0010
1000
0010
,  // measure 64
0100
0001
1000
0001
0220
0000
0000
0000
,  // measure 65
0000
0000
0000
0000
,  // measure 66
0330
0000
0000
0000
;

//---------------dance-single - ----------------
#NOTES:
     dance-single:
     :
     Medium:
     7:
     0.373,0.447,0.114,0.000,0.000: // measure 1
1000
0100
1000
0000
0001
0000
0000
0000
,  // measure 2
0010
0000
0100
0010
0100
0000
0000
0000
,  // measure 3
0100
0000
0001
0000
0100
0000
0000
0001
,  // measure 4
0000
0000
0000
1000
0000
0000
0010
0000
,  // measure 5
1000
0010
1000
0000
0100
0000
0000
0000
,  // measure 6
0010
0001
1000
0000
,  // measure 7
0001
0100
0001
0000
1000
0000
0000
0000
,  // measure 8
0010
0100
0010
0000
,  // measure 9
1000
1100
0000
0001
0100
0001
0000
0000
,  // measure 10
1000
1000
0010
0010
,  // measure 11
0100
0010
0100
0001
0000
1001
0000
0000
,  // measure 12
0100
0100
0100
0010
,  // measure 13
1000
0010
1000
0000
0001
0000
0000
0000
,  // measure 14
1000
0100
1000
0000
0001
0100
0001
0000
,  // measure 15
1000
0010
0100
0010
,  // measure 16
1000
1100
1100
0101
,  // measure 17
1010
0110
1010
0101
,  // measure 18
0100
0010
1000
0100
,  // measure 19
1000
0100
1000
0001
0100
0001
1000
1010
,  // measure 20
0000
0000
0001
0100
0010
0100
0000
0000
,  // measure 21
0001
0001
1000
1000
,  // measure 22
0100
0010
0100
1010
,  // measure 23
0001
0100
0010
0100
,  // measure 24
0001
1000
0001
1000
,  // measure 25
0010
0100
0010
1000
,  // measure 26
0010
0000
0000
1000
0000
0000
0000
0100
,  // measure 27
0100
0000
0000
0001
0000
1000
0000
0000
,  // measure 28
0010
0000
0000
0000
0000
1000
0000
0000
,  // measure 29
0100
1000
0100
1000
,  // measure 30
0010
0000
0000
0100
0001
0000
0000
0100
,  // measure 31
0010
0100
1000
0100
,  // measure 32
0010
0000
0000
0000
,  // measure 33
1000
0000
0001
0000
0100
0000
0000
0001
,  // measure 34
0000
1000
0010
1000
0001
1000
0000
0000
,  // measure 35
0010
0000
0100
0000
0010
0100
0000
0000
,  // measure 36
1000
0010
1000
0010
0100
0000
0000
0000
,  // measure 37
0001
0100
0001
1000
0010
1000
0000
0000
,  // measure 38
0001
0100
0001
1000
0010
1000
0001
0000
,  // measure 39
0100
0010
0100
0010
1000
0010
0000
0000
,  // measure 40
0000
0001
0000
0000
0000
0000
0000
0000
,  // measure 41
1000
0100
1000
0100
,  // measure 42
0010
0001
0010
0001
,  // measure 43
0010
0100
1000
0100
,  // measure 44
1000
0100
0000
0010
0000
0000
0001
0000
,  // measure 45
0010
0100
0010
0001
,  // measure 46
1000
0100
0010
0100
,  // measure 47
1000
0001
0010
0100
,  // measure 48
0010
0001
1000
0001
,  // measure 49
0100
0010
0100
0000
,  // measure 50
0010
0000
1000
0010
1000
0010
1000
0000
,  // measure 51
0001
0100
0001
1000
0010
1000
0000
0000
,  // measure 52
0100
0010
0100
0001
,  // measure 53
1000
1001
0000
0010
0000
0110
0100
0000
,  // measure 54
0000
1000
0001
0000
0100
0001
0000
0000
,  // measure 55
0010
0010
1000
1000
,  // measure 56
0000
0010
0000
0100
0000
0010
0000
0000
,  // measure 57
1000
0010
1000
0001
0100
0001
1000
0010
,  // measure 58
1000
0010
0100
0010
0100
0001
0100
0001
,  // measure 59
0000
1000
0001
1000
0010
0100
0010
0100
,  // measure 60
0010
1000
0010
1000
0001
0100
0001
0000
,  // measure 61
0000
1000
0010
1000
0000
0010
0100
0010
,  // measure 62
0100
0010
0100
0010
0000
1000
0000
0000
,  // measure 63
0010
1000
0010
1000
0010
1000
0010
1000
,  // measure 64
0010
1000
0010
1000
0010
0000
0000
0000
;

//---------------dance-single - ----------------
#NOTES:
     dance-single:
     :
     Beginner:
     3:
     0.185,0.252,0.000,0.000,0.000: // measure 1
1000
0000
0001
0000
,  // measure 2
1000
0100
0010
0000
,  // measure 3
0001
0010
0100
0000
,  // measure 4
1000
0000
0001
0000
,  // measure 5
1000
1000
0010
0000
,  // measure 6
0100
0000
0001
0000
,  // measure 7
1000
1000
0001
0000
,  // measure 8
0001
0010
0100
0000
,  // measure 9
1000
1000
0100
0000
,  // measure 10
0100
0100
0001
0001
,  // measure 11
1000
0000
1000
0000
,  // measure 12
0010
0010
0100
0100
,  // measure 13
0001
0000
1000
0000
,  // measure 14
0010
0010
0100
0100
,  // measure 15
0000
0000
0001
0000
,  // measure 16
1000
1000
0001
0001
,  // measure 17
0100
0000
0010
0000
,  // measure 18
0100
0001
0000
0000
,  // measure 19
0001
0100
0000
0010
,  // measure 20
0100
0000
0000
0000
,  // measure 21
0100
0010
0000
0000
,  // measure 22
1000
0000
0001
0000
,  // measure 23
1000
0010
0000
0000
,  // measure 24
0001
0000
1000
0000
,  // measure 25
0001
0000
0000
0000
,  // measure 26
1000
0000
0000
0000
,  // measure 27
0010
0000
0000
0000
,  // measure 28
0100
0000
0000
0000
,  // measure 29
0001
0000
0000
0000
,  // measure 30
1000
0000
0000
0000
,  // measure 31
0100
0000
0000
0000
,  // measure 32
0010
0000
0000
0000
,  // measure 33
0001
1000
0001
0000
,  // measure 34
0100
0010
0100
0000
,  // measure 35
0001
0100
0000
0000
,  // measure 36
0100
0001
0010
0000
,  // measure 37
0100
1000
0001
0000
,  // measure 38
1000
0001
0100
0010
,  // measure 39
0000
0000
0100
0000
,  // measure 40
0010
0100
0010
0000
,  // measure 41
1000
0000
0001
0000
,  // measure 42
1000
0000
0100
0000
,  // measure 43
1000
0000
0001
0000
,  // measure 44
0000
0010
0000
0000
,  // measure 45
0100
0000
0000
1000
,  // measure 46
0000
0000
0001
0000
,  // measure 47
1000
0000
0000
0000
,  // measure 48
0010
0000
0100
0000
,  // measure 49
0010
0000
1000
0000
,  // measure 50
0001
0000
1000
0000
,  // measure 51
0001
0000
0100
0000
,  // measure 52
0010
0000
0100
0000
,  // measure 53
0010
0000
1000
0000
,  // measure 54
0001
0000
0000
0100
,  // measure 55
0000
0000
0010
0000
,  // measure 56
0000
0100
0000
0000
,  // measure 57
0001
1000
0001
1000
,  // measure 58
0001
0100
0001
0100
,  // measure 59
0010
0100
0010
0100
,  // measure 60
0001
1000
0001
0100
,  // measure 61
0010
0100
0001
0000
,  // measure 62
1000
1000
0010
0000
,  // measure 63
0100
0100
0001
0001
,  // measure 64
1000
1000
0010
0000
;

//---------------dance-single - ----------------
#NOTES:
     dance-single:
     :
     Easy:
     5:
     0.262,0.315,0.079,0.009,0.000: // measure 1
1000
0100
0001
0000
,  // measure 2
0001
0100
1000
0000
,  // measure 3
1000
0010
0001
0000
,  // measure 4
0001
0010
1000
0000
,  // measure 5
0001
0100
1000
0000
,  // measure 6
1000
0100
0001
0000
,  // measure 7
0001
0010
1000
0000
,  // measure 8
1000
0010
0001
0000
,  // measure 9
1000
0100
1000
0000
,  // measure 10
0001
0100
0001
0010
,  // measure 11
0001
0000
1000
0000
,  // measure 12
0100
0010
0001
1000
,  // measure 13
0010
0100
0010
1000
,  // measure 14
0001
0100
0010
0100
,  // measure 15
0001
0000
1000
0000
,  // measure 16
0010
0100
0010
1000
,  // measure 17
0001
0100
0010
0100
,  // measure 18
0001
1000
0010
0110
,  // measure 19
1000
0100
1000
0001
,  // measure 20
0100
0001
0100
0101
,  // measure 21
0010
0100
0010
1000
,  // measure 22
0010
0100
0101
0101
,  // measure 23
1000
0100
1000
0010
,  // measure 24
0000
0100
0100
0101
,  // measure 25
0000
0000
1000
0000
,  // measure 26
0001
0000
0100
0000
,  // measure 27
0010
0000
0000
0000
,  // measure 28
1000
0000
0001
0000
,  // measure 29
0100
0000
0000
0000
,  // measure 30
0010
0000
0000
0000
,  // measure 31
1000
0000
0000
0000
,  // measure 32
0001
0000
0000
0000
,  // measure 33
0100
0010
0100
0000
,  // measure 34
1000
0001
1000
1001
,  // measure 35
0001
0100
0010
0000
,  // measure 36
1000
0100
0010
0000
,  // measure 37
0001
0010
0100
0000
,  // measure 38
1000
0100
0001
0100
,  // measure 39
1000
1000
0010
0000
,  // measure 40
0010
0001
0001
0000
,  // measure 41
0001
1000
0100
0100
,  // measure 42
1000
0010
0100
0000
,  // measure 43
0001
1000
0001
0001
,  // measure 44
1000
0010
0110
0110
,  // measure 45
1000
0000
0001
0001
,  // measure 46
0000
0000
1000
1000
,  // measure 47
0000
0010
0010
0100
,  // measure 48
0100
0001
0001
0000
,  // measure 49
1000
1000
0100
0100
,  // measure 50
0000
0001
1000
0001
,  // measure 51
0000
0100
0000
0000
,  // measure 52
0010
0010
1000
1010
,  // measure 53
0100
0100
0000
0000
,  // measure 54
0001
1000
0001
0000
,  // measure 55
0100
0010
0100
0000
,  // measure 56
0001
0010
0001
1000
,  // measure 57
0100
1000
0010
0100
,  // measure 58
0010
1000
0001
0100
,  // measure 59
0001
1000
0001
0100
,  // measure 60
1000
0100
0001
0010
,  // measure 61
1000
0010
0001
0100
,  // measure 62
1000
0100
0001
0000
,  // measure 63
1000
0100
0001
0100
,  // measure 64
1000
0010
0002
0000
,  // measure 65
0000
0000
0000
0000
,  // measure 66
0003
0000
0000
0000
;
