#TITLE:PARANOiA KFL MAX;
#SUBTITLE:;
#ARTIST:(^^)190;
#TITLETRANSLIT:;
#SUBTITLETRANSLIT:;
#ARTISTTRANSLIT:;
#GENRE:Remix;
#CREDIT:AznPunk07/Frozen_Heat/GuardianFrozen;
#MENUCOLOR:#fdfe62;
#METERTYPE:DDR;
#BANNER:[You Won't See This In DDR II] - PARANOiA KFL MAX.png;
#BACKGROUND:[You Won't See This In DDR II] - PARANOiA KFL MAX-bg.png;
#LYRICSPATH:[You Won't See This In DDR II] - PARANOiA KFL MAX.lrc;
#CDTITLE:cdtitle.png;
#MUSIC:[You Won't See This In DDR II] - PARANOiA KFL MAX.mp3;
#OFFSET:-0.380;
#SAMPLESTART:65.800;
#SAMPLELENGTH:10.105;
#SELECTABLE:YES;
#LISTSORT:;
#DISPLAYBPM:24.000:427.000;
#BPMS:0.000=190.000,44.000=95.000,46.000=190.000,91.000=95.000,91.500=190.000,106.000=95.000,110.000=142.500,116.000=213.750,125.000=427.500,139.625=24.047,139.750=95.002,154.000=142.500,157.000=190.000,317.750=6080.000,325.750=190.000;
#STOPS:86.500=0.157
,87.000=0.157
,87.500=0.157
,88.000=0.315
,88.500=0.157
,91.500=0.157
,184.500=0.157
,186.000=0.157
,247.500=0.157
,248.000=0.157
,248.500=0.157
,249.500=0.157
;
#BGCHANGES:;
#ATTACKS:;

//---------------dance-single - ----------------
#NOTES:
     dance-single:
     :
     Hard:
     9:
     0.710,0.993,0.423,0.036,0.347: // measure 1
0000
0000
0000
0000
,  // measure 2
0000
0000
0000
0000
,  // measure 3
0000
0000
0000
0000
,  // measure 4
0000
0000
0000
0000
,  // measure 5
1000
0100
0010
0001
1000
0100
1000
0000
,  // measure 6
0001
0100
1000
0100
0010
0100
0001
0000
,  // measure 7
0010
0001
1000
0100
0001
0100
1000
0000
,  // measure 8
0100
1000
0001
0010
1000
0010
0001
0100
,  // measure 9
0000
0010
0000
0000
0000
0000
1000
0000
0100
0000
0010
0000
0000
0000
0001
0000
,  // measure 10
0100
0000
0010
0000
0000
0000
1000
0000
0000
0000
0000
0001
0000
0000
0100
0000
,  // measure 11
1000
0010
0001
0100
,  // measure 12
2002
0000
0000
3003
0001
0000
0011
0000
,  // measure 13
1000
0010
0001
0010
0000
0100
0001
0000
,  // measure 14
1000
0100
0001
0100
0000
0010
0001
0000
,  // measure 15
0100
0000
0010
1000
0000
0010
0100
0000
,  // measure 16
0001
0100
0010
1000
0001
0000
1010
0000
,  // measure 17
0100
0001
0010
0001
0000
1000
0001
0000
,  // measure 18
0100
0010
1000
0001
0010
0001
0000
0010
,  // measure 19
0100
1000
0100
0010
0001
1000
0010
0001
,  // measure 20
0010
0100
0001
0000
0010
0000
0110
0000
,  // measure 21
0100
1000
0010
0000
0100
0000
0110
0000
,  // measure 22
0100
0001
0010
0000
0100
1000
1100
0011
,  // measure 23
1001
0110
0001
0010
0100
1000
0010
0110
,  // measure 24
0001
1000
0001
0010
0000
0010
0100
0000
,  // measure 25
1000
0001
0100
0000
0110
0000
0000
0000
,  // measure 26
0000
0001
0000
1010
0000
1001
0000
0010
,  // measure 27
0100
0000
0000
0000
0000
0000
0000
0000
0001
0000
0000
0000
0000
0000
0000
0000
1000
0000
0000
0000
0000
0000
0000
0000
0001
0000
0000
0000
0000
0000
0001
0000
0000
0010
0000
0000
0000
0000
0000
0010
0000
0000
0100
0000
0000
0000
0000
0000
,  // measure 28
0100
0000
1000
0000
0000
0000
1000
0000
0010
0000
0010
0000
0010
0000
0000
0000
0100
0000
0000
0000
0000
0000
0001
0000
0000
0010
0000
0000
0000
0000
0000
0001
,  // measure 29
0000
0000
1000
0000
0000
0000
0000
0000
0010
0000
0000
1000
0000
0000
0000
0000
0000
1000
0000
0000
0100
0000
0000
0100
0000
0000
0100
0000
0000
0000
0000
0000
,  // measure 30
0010
0000
0000
0000
0000
0000
0000
0000
0000
0000
0000
0000
0000
0000
0000
0000
0000
0000
0001
0000
0000
0000
0000
0000
0000
0000
0000
0100
0000
0000
0000
0000
0000
0000
0000
0000
0000
0000
0000
0000
0000
0000
0000
0000
0000
0100
0000
0000
0000
0000
0000
0000
0000
0000
0010
0000
0000
0000
0000
0000
0000
0000
0000
0000
,  // measure 31
0000
0000
0000
0000
0000
0000
0000
0000
1000
0000
0000
0000
0000
0000
0000
0000
0000
0010
0000
0000
0000
0000
0000
0000
0000
0000
0000
0000
0000
0000
0000
0000
0000
0000
0000
1000
0000
0000
0000
0000
0000
0000
0000
0000
0001
0000
0000
0000
0000
0000
0000
0000
0000
0001
0000
0000
0000
0000
0000
0000
0000
0000
0001
0000
,  // measure 32
0000
0000
0000
0000
0010
0000
0000
0000
0000
0000
0000
0000
0000
0010
0000
0000
,  // measure 33
0000
0000
0000
0001
0000
0000
0000
0000
0000
0000
0000
0000
0000
0000
0000
0000
0000
0000
0000
0000
0000
0001
0000
0000
0000
0000
0000
0000
0000
0000
0100
0000
,  // measure 34
0000
0000
0000
0000
0000
0000
0000
0000
0000
0000
0000
0000
0000
0000
0000
0000
0000
0000
0000
0000
0000
0000
0000
0000
0000
0100
0000
0000
0000
0000
0000
0000
,  // measure 35
0000
0000
0010
0000
0000
0000
0000
0000
0000
0000
0000
1000
0000
0000
0000
0000
0000
0000
0000
0000
1000
0000
0000
0000
0000
0000
0000
0000
0000
1000
0001
0000
,  // measure 36
0000
0010
0001
0010
1000
0010
0000
0100
0000
0100
1000
0001
0000
0001
1000
0100
,  // measure 37
0000
0110
0000
1001
0000
0001
0010
0100
0000
1000
0000
0001
1000
0001
1000
0000
,  // measure 38
0110
0000
0001
0100
0001
1000
0010
0001
0000
0010
0100
0010
0000
1000
0100
0001
,  // measure 39
0100
0000
0100
0000
0010
0000
0010
0000
0001
0000
0001
0000
1000
0000
1000
0001
1000
0000
0000
0001
0000
0000
0100
0000
0000
0010
0000
0000
1000
0000
0000
0001
,  // measure 40
0000
0000
1001
0000
0110
0000
0001
0010
,  // measure 41
0100
0000
1000
0010
0001
0010
1000
0010
,  // measure 42
0100
0010
0000
1010
0000
1100
0000
0010
,  // measure 43
0100
0001
0100
1000
0000
0100
0110
0000
,  // measure 44
1000
0001
0001
0100
0000
0010
1000
0100
,  // measure 45
0000
1000
1000
0001
1000
0010
0001
1000
,  // measure 46
0100
0001
0000
1010
0000
0101
0000
0001
,  // measure 47
0010
0100
0010
0100
1000
0001
0000
0100
,  // measure 48
0000
0010
1000
0010
0100
0001
0000
0010
,  // measure 49
0000
1000
0010
0001
0010
0100
0010
0001
,  // measure 50
1000
1010
1001
0100
,  // measure 51
0110
0000
0010
1000
0010
0100
0001
0000
,  // measure 52
1000
0100
0001
0100
0010
0001
1000
0000
,  // measure 53
0001
0100
1000
0100
0010
1000
0100
0010
,  // measure 54
0001
1000
0001
1000
0100
0010
0100
0010
,  // measure 55
0001
0001
1000
1000
0010
0100
0010
0100
,  // measure 56
0201
0000
0310
0000
1000
0100
0010
0000
,  // measure 57
1200
0000
0310
0000
0001
0010
0100
0000
,  // measure 58
1100
0000
0011
0000
0001
1000
0010
0100
,  // measure 59
0000
0110
0000
0001
0100
1000
0100
0000
,  // measure 60
0001
0010
0100
0001
0100
0010
0001
0000
,  // measure 61
1000
0010
0100
1000
0100
0010
1000
1001
,  // measure 62
0000
0010
0000
0110
0000
1000
0001
0100
,  // measure 63
0010
0110
1000
0001
1000
0100
0001
0100
,  // measure 64
1000
0010
0001
0010
1000
0100
0010
0001
,  // measure 65
0100
0010
1000
0000
0001
0100
1000
0001
,  // measure 66
0010
1000
0010
0100
0001
1000
0100
0010
,  // measure 67
0001
0010
1000
0000
0010
0001
0100
1000
,  // measure 68
0100
0010
1000
0100
0001
0010
0001
0100
,  // measure 69
1000
0001
0100
0000
0010
1000
0100
0001
,  // measure 70
0100
1000
0010
0001
1000
0100
0001
0010
,  // measure 71
1000
0010
0001
0000
1100
0010
0001
0100
,  // measure 72
0010
1000
0100
0000
0010
0100
1000
0010
,  // measure 73
0100
0001
0010
0000
0110
1000
0001
0000
,  // measure 74
0100
0010
0001
0000
0100
0001
0010
1000
,  // measure 75
0010
0001
1000
0000
0011
0001
0100
1010
,  // measure 76
0100
0010
1001
1000
0001
0110
1000
0010
,  // measure 77
1001
0000
0100
0000
0010
0000
0101
0000
0000
0000
1000
0000
0000
0100
0000
0000
,  // measure 78
0010
0000
0000
0001
0000
0000
1000
0000
0010
0000
0100
0010
0100
0010
0100
0000
,  // measure 79
0001
1000
0001
1000
0001
1000
0001
0000
1000
0000
0000
1100
0000
0000
0001
0000
,  // measure 80
0000
0101
0000
0000
1001
0000
0000
0110
0000
0000
0000
0000
0000
0000
0000
0000
,  // measure 81
0000
0000
0000
0000
,  // measure 82
0000
0000
0000
0000
0000
0000
0000
0000
0000
0000
0000
1001
0000
0000
0000
0000
;

//---------------dance-single - ----------------
#NOTES:
     dance-single:
     :
     Challenge:
     9:
     0.746,0.956,0.477,0.063,0.360: // measure 1
0000
0000
0000
0000
,  // measure 2
0000
0000
0000
0000
,  // measure 3
0000
0000
0000
0000
,  // measure 4
0000
0000
0000
0000
,  // measure 5
0001
0010
0100
0010
0001
1000
0010
0000
,  // measure 6
0001
0100
1000
0100
0010
1000
0001
0000
,  // measure 7
1000
0100
0001
0100
0010
0001
0100
0000
,  // measure 8
1000
0010
0001
0010
0100
0001
1000
0100
,  // measure 9
0010
0000
0110
0000
0100
1000
0010
0000
,  // measure 10
0100
0001
0010
0100
1000
0001
1000
0001
,  // measure 11
0100
0010
1000
0001
,  // measure 12
0010
0000
0000
0000
0110
0000
1000
0010
,  // measure 13
1000
0010
0100
0001
0010
0000
1000
0001
,  // measure 14
0100
0001
1000
0001
0100
0000
0010
0001
,  // measure 15
0100
1000
0001
0010
1000
0000
0100
0001
,  // measure 16
0100
0001
0010
0100
1000
0000
0001
0010
,  // measure 17
1000
0001
0100
1000
0010
0000
0001
0100
,  // measure 18
1000
0100
0010
1000
0001
0000
0100
0010
,  // measure 19
0100
0010
0001
1000
0010
0000
0001
1000
,  // measure 20
0001
0100
0010
0000
0101
0000
1010
0000
,  // measure 21
0001
0010
1000
0000
1100
0000
0011
0000
,  // measure 22
1000
0010
0001
0000
0010
0200
1000
0010
,  // measure 23
0302
0000
0000
0000
1000
0000
0000
0000
0013
0000
0000
0000
0100
0000
0000
0000
1000
0000
0000
0000
0001
0000
0000
0000
0100
0010
0100
0010
0100
0000
0000
0000
,  // measure 24
1000
0001
1000
0010
0000
0100
0001
0000
,  // measure 25
1000
0001
0010
0000
0100
0000
0110
0000
,  // measure 26
0001
0100
0000
0100
0000
0010
0000
0010
,  // measure 27
1000
0000
0000
0000
0000
0000
0000
0000
1100
0000
0000
0000
0000
0000
0000
0000
0001
0000
0000
0000
0000
0000
0000
0000
0101
0000
0000
0000
0000
0000
0100
0000
0000
0001
0000
0000
0000
0000
0000
1000
0000
0000
0001
0000
0000
0000
0000
0000
,  // measure 28
0001
0000
0010
0000
0000
0000
0001
0000
0100
0000
0010
0000
1000
0000
0000
0000
1010
0000
0000
0000
0000
0000
0010
0000
0000
1000
0000
0000
0000
0000
0000
1000
,  // measure 29
0000
0000
0001
0000
0000
0000
0000
0000
0010
0000
0000
0001
0000
0000
0000
0000
0000
1000
0000
0000
0001
0000
0000
0001
0000
0000
0010
0000
0000
0010
0000
0000
,  // measure 30
0110
0000
0000
0000
0000
0000
0000
0000
0000
0100
0000
0000
0000
0000
0000
0000
0000
0000
1000
0000
0000
0000
0000
0000
0000
0000
0000
1010
0000
0000
0000
0000
0000
0000
0000
0000
0010
0000
0000
0000
0000
0000
0000
0000
0000
0100
0000
0000
0000
0000
0000
0000
0000
0000
0101
0000
0000
0000
0000
0000
0000
0000
0000
0001
,  // measure 31
0000
0000
0000
0000
0000
0000
0000
0000
0010
0000
0000
0000
0000
0000
0000
0000
0000
0110
0000
0000
0000
0000
0000
0000
0000
0000
0100
0000
0000
0000
0000
0000
0000
0000
0000
1000
0000
0000
0000
0000
0000
0000
0000
0000
1001
0000
0000
0000
0000
0000
0000
0000
0000
1000
0000
0000
0000
0000
0000
0000
0000
0000
0001
0000
,  // measure 32
0000
0000
0000
0000
0000
0000
0000
0001
0000
0000
0000
0000
0000
0000
0000
0000
0011
0000
0000
0000
0000
0000
0000
0000
0000
0000
0000
0000
0000
0000
0000
0000
0000
0000
0000
0000
0000
0000
0000
0000
0000
0000
0000
0000
0000
0000
0000
0000
0000
0000
0000
0000
0000
0000
0000
0000
0000
0000
0000
0000
0000
0000
0000
0000
,  // measure 33
0000
0000
0000
1100
0000
0000
0000
0000
0000
0000
0000
0000
0000
0000
0000
0000
0000
0000
0000
0000
0000
0000
0000
0000
0000
0000
0000
0000
0000
0000
1010
0000
,  // measure 34
0000
0000
0000
1000
,  // measure 35
0000
0000
0100
0000
0000
0000
0000
0000
0000
0000
0000
0010
0000
0000
0000
0000
0000
0000
0000
0000
0001
0000
0000
0000
0000
0000
0000
0000
0000
0001
0001
0000
,  // measure 36
0000
0001
0010
1000
0010
0001
1000
0010
0000
0001
1000
0010
1000
0100
1000
0010
,  // measure 37
0000
0100
0000
0110
0000
0001
0020
1000
0000
0100
0000
0031
1000
0000
0001
1000
,  // measure 38
0000
1000
0100
0001
0100
1000
0001
0100
0000
1000
0001
0100
0001
1000
0001
0000
,  // measure 39
0010
0000
0010
0000
0100
0000
0100
0000
1000
0000
1000
0000
0001
0000
0001
0000
1000
0000
0000
0100
0000
0000
0001
0000
0000
0100
0000
0000
1000
0000
0000
0001
,  // measure 40
0000
0000
1000
0010
0001
0010
0100
0010
,  // measure 41
1000
0000
0100
0001
0100
0001
1000
0100
,  // measure 42
0010
0001
0010
0000
1100
0000
1001
0000
,  // measure 43
0101
0000
0001
0010
1000
0001
0100
1000
,  // measure 44
0000
0001
1000
0100
1000
0010
0100
0001
,  // measure 45
0000
0010
0100
0010
0100
0001
1000
0100
,  // measure 46
0010
0001
0000
1000
0000
1001
0000
0001
,  // measure 47
1000
0010
0200
0010
0320
1000
0030
0100
,  // measure 48
0000
0001
0010
1000
0010
0001
1000
0010
,  // measure 49
0001
1000
0100
0001
1000
0100
0001
0010
,  // measure 50
1000
1010
0101
1001
,  // measure 51
0001
0100
0100
0010
1010
0000
1100
0000
,  // measure 52
0001
0010
0100
0010
0001
0100
1000
0100
,  // measure 53
0001
0010
1000
0100
0001
1000
0001
1000
,  // measure 54
0010
0110
0101
0110
,  // measure 55
0001
1000
1000
0001
0101
0000
0011
0000
,  // measure 56
0100
1000
0100
0001
0100
0010
0001
1000
,  // measure 57
0010
0001
0100
1000
0010
0100
0001
1000
,  // measure 58
0100
1010
1100
0101
,  // measure 59
0010
0001
0100
1000
0010
0001
0000
0000
,  // measure 60
1000
0010
0000
0110
0000
0001
0000
1001
,  // measure 61
0000
0100
0000
0110
0000
1000
0000
1001
,  // measure 62
0000
0001
0100
1001
0000
1000
0100
1002
,  // measure 63
0100
2003
0100
3000
0001
0010
1000
0010
,  // measure 64
0001
1000
0100
0001
0100
0010
0001
1000
,  // measure 65
0010
0100
0001
0000
1000
0010
0001
0010
,  // measure 66
1000
0001
0100
1000
0100
0010
1000
0100
,  // measure 67
0001
0100
0010
0000
0001
0010
1000
0010
,  // measure 68
0100
1000
0001
0100
1000
0001
0010
0100
,  // measure 69
0001
1000
0001
0000
1000
0100
0010
0100
,  // measure 70
0001
1000
0010
0001
1000
0010
0001
1000
,  // measure 71
0100
0001
0100
0000
0010
1000
0001
1000
,  // measure 72
0010
0100
0001
0000
0010
1000
0001
0010
,  // measure 73
0100
1000
0100
0000
0010
0001
1000
0001
,  // measure 74
0010
0100
1000
0000
0010
0001
1000
0010
,  // measure 75
0100
0001
0010
0000
0011
0001
1000
1010
,  // measure 76
0100
0001
1001
1000
0001
0101
1000
0100
,  // measure 77
1100
0000
1000
0000
0001
0000
0100
0000
0000
0000
0010
0000
0000
0110
0000
0000
,  // measure 78
0100
0000
0000
0001
0000
0000
1000
0000
0001
0000
1000
0100
0010
0100
1000
0000
,  // measure 79
0001
0010
0100
1000
0100
0010
0001
0000
1000
0000
0000
1100
0000
0000
0110
0000
,  // measure 80
0000
0001
0000
0000
0101
0000
0000
1001
0000
0000
0000
0000
0000
0000
0000
0000
,  // measure 81
0000
0000
0000
0000
,  // measure 82
0000
0000
0000
0000
0000
0000
0000
0000
0000
0000
0000
0110
0000
0000
0000
0000
;

//---------------dance-single - ----------------
#NOTES:
     dance-single:
     :
     Medium:
     8:
     0.575,0.883,0.135,0.162,0.266: // measure 1
0000
0000
0000
0000
,  // measure 2
0000
0000
0000
0000
,  // measure 3
0000
0000
0000
0000
,  // measure 4
0000
0000
0000
0000
,  // measure 5
1000
0100
1000
0000
0010
0000
0001
0000
,  // measure 6
0100
0010
1000
0000
,  // measure 7
0001
0010
0001
0000
0100
0000
0010
0000
,  // measure 8
1000
0001
0010
0000
,  // measure 9
0100
0100
0010
0010
,  // measure 10
0001
1000
0001
0000
0100
0000
0100
0000
,  // measure 11
0110
1000
0100
0010
,  // measure 12
0001
0000
0000
0000
1000
0000
1000
0100
,  // measure 13
1000
0000
1000
0010
1000
0000
0010
0000
,  // measure 14
0100
0000
0000
0000
0001
0000
0010
0001
,  // measure 15
0010
0000
0010
0100
0010
0000
0001
0000
,  // measure 16
0100
0001
0100
0000
0001
0000
0001
1000
,  // measure 17
0001
0000
0001
0010
0001
0000
1000
0000
,  // measure 18
0010
0000
0000
0000
0100
0000
0100
1000
,  // measure 19
0100
0000
0100
0010
0100
0000
0001
0000
,  // measure 20
1000
0010
1000
0000
0001
0000
0001
0000
,  // measure 21
0001
0010
1000
0000
1000
0000
1000
0000
,  // measure 22
1000
0000
0010
0000
0001
0000
0000
0000
0001
0000
2000
3000
0200
0300
2000
3000
,  // measure 23
0002
0000
2003
3000
0010
0000
0100
0000
0010
0000
0000
0000
0200
0300
0020
0030
,  // measure 24
1000
0001
1000
0000
0001
0000
0010
0000
,  // measure 25
0100
0010
0100
0000
1000
0100
0000
0100
,  // measure 26
0000
0010
0000
0010
0000
0001
0000
0001
,  // measure 27
1000
0000
0000
1000
0000
0000
1000
0000
0002
0003
0000
0101
0000
0000
0100
0000
,  // measure 28
0000
0000
0010
0000
0000
0000
0010
0000
1000
0000
1000
0000
0100
0000
0000
0000
2000
0000
3000
0000
0000
0000
0000
0000
0000
1100
0000
0000
0000
0000
0000
0000
,  // measure 29
0000
0000
0010
0000
0000
0000
0000
0000
0000
0000
0000
0001
0000
0000
0000
0000
0000
0000
0100
0000
0010
0000
0000
0010
0000
0000
1000
0000
0000
0000
0000
0000
,  // measure 30
0200
0000
0000
0000
0000
0000
0000
0000
0000
0000
0000
0000
0000
0000
0000
0000
0300
0000
0000
0000
0000
0000
0000
0000
0000
0000
0000
0000
0000
0000
0000
0000
0000
0000
0000
0000
0000
0000
0000
0000
0000
0000
0000
0000
0000
0000
0000
0000
0000
0000
0000
0000
0000
0000
0000
0000
0000
0000
0000
0000
0000
0000
0000
0000
0000
0000
0000
0000
0000
0000
0000
0000
0000
0000
0000
0000
0000
0000
0000
0000
0000
1001
0000
0000
0000
0000
0000
0000
0000
0000
0000
0000
0000
0000
0000
0000
0000
0000
0000
0000
0000
0000
0000
0000
0000
0000
0000
0000
0000
0000
0000
0000
0000
0000
0000
0000
0000
0000
0000
0000
0000
0000
0000
0000
0000
0000
0000
0000
0000
0000
0000
0000
0000
0000
0000
0000
0000
0000
0000
0000
0000
0000
0000
0000
0000
0000
0000
0000
0000
0000
0000
0000
0000
0000
0000
0000
0000
0000
0000
0000
0000
0000
0010
0000
0000
0000
0000
0000
0000
0000
0000
0000
0000
0000
0000
0000
0000
0000
0000
0000
0000
0000
0000
0000
0000
0000
0000
0000
0000
0000
0000
0000
,  // measure 31
0000
0000
0000
0000
0000
0000
0000
0000
0000
0000
0000
0000
0000
0000
0000
0000
0000
1001
0000
0000
0000
0000
0000
0000
0000
0000
0000
0000
0000
0000
0000
0000
0000
0000
0000
1000
0000
0000
0000
0000
0000
0000
0000
0000
0001
0000
0000
0000
0000
0000
0000
0000
0000
0001
0000
0000
0000
0000
0000
0000
0000
0000
1000
0000
,  // measure 32
0000
0000
0000
0000
2002
3003
0000
0000
0000
0000
0000
0000
0000
0000
0000
0000
,  // measure 33
0000
0000
0000
0110
0000
0000
0000
0000
0000
0000
0000
0000
0000
0000
0000
0000
0000
0000
0000
0000
0000
0000
0000
0000
0000
0000
0000
0000
0000
0000
1001
0000
,  // measure 34
0000
0000
0000
0000
0000
0000
0000
0000
0000
0000
0000
0000
0000
0000
0000
0000
0000
0000
0000
0000
0000
0000
0000
0000
0000
1000
0000
0000
0000
0000
0000
0000
,  // measure 35
0000
0000
0001
0000
0000
0000
0000
0000
0000
0000
0000
1000
0000
0000
0000
0000
0000
0000
0000
0000
0001
0000
0000
0000
0000
0000
0000
0000
0000
1000
0000
0000
,  // measure 36
0001
0000
0010
0000
0001
0010
0001
0100
0000
0010
1000
0010
0000
0100
0001
0100
,  // measure 37
0000
0010
0000
1001
0000
1000
0100
1000
0000
0001
0010
0001
0000
1000
0001
0000
,  // measure 38
1000
0000
0010
0000
1000
0100
1000
0010
0000
0100
0001
0100
0000
0010
1000
0010
,  // measure 39
0100
0000
0100
0000
0010
0000
0010
0000
1000
0000
1000
0000
0001
0000
0001
0000
0010
0000
0000
0100
0000
0000
0010
0000
0000
0100
0000
0000
0010
0000
0000
0010
,  // measure 40
0000
0000
0001
0000
1000
0000
0010
0100
,  // measure 41
0001
0100
0000
0010
1000
0010
0000
1000
,  // measure 42
0100
1000
0000
0001
0000
0011
0000
1000
,  // measure 43
0100
0000
0010
0000
0100
1000
0100
0010
,  // measure 44
0000
0001
1000
0000
0001
0000
1000
0010
,  // measure 45
0100
0010
0000
0100
0001
0100
0000
0001
,  // measure 46
1000
0001
0000
1000
0000
1100
0000
0001
,  // measure 47
0010
0000
0002
0003
1000
0000
0010
0000
2000
3000
0001
0000
0000
0000
1000
0000
,  // measure 48
0000
1000
0100
0000
0010
0100
1000
0000
,  // measure 49
0010
0000
0100
0000
0001
1000
0001
1000
,  // measure 50
0001
0000
0010
0000
0100
0010
0001
0000
,  // measure 51
1000
0000
0010
1000
0100
1000
0000
0001
,  // measure 52
0000
0001
0010
0000
0100
0010
0001
0000
,  // measure 53
0100
0000
0010
0000
1000
0001
0000
1001
,  // measure 54
0000
1000
0100
0000
0010
0100
1000
0000
,  // measure 55
0001
0000
0100
0001
0010
0001
0000
1000
,  // measure 56
0000
1000
0100
0000
0010
0100
1000
0000
,  // measure 57
0010
0100
0001
0100
0010
0000
0010
1000
,  // measure 58
0001
0000
0010
0000
0100
0010
0001
1000
,  // measure 59
0000
0010
1000
0010
0000
1000
0000
0001
,  // measure 60
0000
0001
0010
0100
0000
0010
0100
1000
,  // measure 61
0000
0010
0100
0001
0000
1000
0001
1000
,  // measure 62
0000
0000
0100
0000
0010
0000
0001
0000
0000
0000
0100
0000
0001
0000
2000
3000
,  // measure 63
0002
0003
2000
3000
0010
0000
0200
0300
0001
0000
0010
0000
0100
0000
0000
0000
,  // measure 64
0010
0001
1000
0010
,  // measure 65
0001
0010
0100
0000
0001
0010
0100
0000
,  // measure 66
1000
0010
0100
0001
,  // measure 67
0100
0000
0010
0000
1000
0100
0010
0000
,  // measure 68
0001
1000
0010
0001
,  // measure 69
1000
0100
0010
0000
1000
0100
0010
0000
,  // measure 70
0001
0100
0010
1000
,  // measure 71
0001
0000
0010
0000
0001
0100
1000
0100
,  // measure 72
0001
0000
0001
0000
1000
0100
0001
0100
,  // measure 73
1000
0000
1000
0000
0001
0010
1000
0000
,  // measure 74
0010
0001
0100
0010
,  // measure 75
1000
0001
1000
0000
0001
0000
0001
0100
,  // measure 76
0000
0100
0010
0000
0010
1000
0000
1000
,  // measure 77
0001
0000
0000
0000
1000
0000
0001
0000
0000
0000
1000
0000
0000
1000
0000
0000
,  // measure 78
0001
0000
0000
0001
0000
0000
0100
0000
0010
0000
1000
0001
1000
0000
0001
0000
,  // measure 79
1000
0000
0001
1000
0001
0000
1000
0000
0010
0000
0000
0010
0000
0000
0110
0000
,  // measure 80
0000
1000
0000
0000
1000
0000
0000
1001
0000
0000
0000
0000
0000
0000
0000
0000
,  // measure 81
0000
0000
0000
0000
,  // measure 82
0000
0000
0000
0000
0000
0000
0000
0000
0000
0000
0000
1001
0000
0000
0000
0000
;

//---------------dance-single - ----------------
#NOTES:
     dance-single:
     :
     Beginner:
     2:
     0.136,0.221,0.000,0.036,0.000: // measure 1
0000
0000
0000
0000
,  // measure 2
0000
0000
0000
0000
,  // measure 3
0000
0000
0000
0000
,  // measure 4
0000
0000
0000
0000
,  // measure 5
1000
0000
0000
0000
,  // measure 6
0000
0000
0000
0000
,  // measure 7
0001
0000
0000
0000
,  // measure 8
0000
0000
0100
0000
,  // measure 9
0100
0000
0000
0000
,  // measure 10
0000
0000
0000
0000
,  // measure 11
0010
0000
0000
0000
,  // measure 12
0000
0000
1000
0000
,  // measure 13
0000
0000
0001
0000
,  // measure 14
0000
0000
1000
0000
,  // measure 15
0000
0000
0001
0000
,  // measure 16
0000
0000
0010
0000
,  // measure 17
0000
0000
0100
0000
,  // measure 18
0000
0000
0010
0000
,  // measure 19
0000
0000
0100
0000
,  // measure 20
0000
0000
1000
1000
,  // measure 21
0000
0000
0001
0001
,  // measure 22
0000
0000
0100
0000
,  // measure 23
0000
0000
0000
0010
,  // measure 24
0000
0000
0010
0000
,  // measure 25
0000
0000
0100
0000
,  // measure 26
0000
0000
0000
0000
,  // measure 27
0000
0000
0001
0000
,  // measure 28
0000
0000
1000
0000
,  // measure 29
0000
0000
0000
0000
,  // measure 30
0100
0000
0000
0000
,  // measure 31
0000
0000
0000
0000
,  // measure 32
0000
0010
0000
0000
,  // measure 33
0000
0000
0000
0000
,  // measure 34
0000
0000
0000
0000
,  // measure 35
0000
0000
0000
0000
,  // measure 36
0000
0001
0000
1000
,  // measure 37
0000
0010
0000
0100
,  // measure 38
0000
0001
0000
1000
,  // measure 39
0000
0100
0000
0000
,  // measure 40
0000
1000
0000
0010
,  // measure 41
0000
0100
0000
0000
,  // measure 42
0000
0001
0000
1000
,  // measure 43
0000
0100
0000
0000
,  // measure 44
0000
0010
0000
0001
,  // measure 45
0000
1000
0000
0000
,  // measure 46
0000
0010
0000
0000
,  // measure 47
0000
0000
0000
0000
,  // measure 48
0100
0000
0001
0000
,  // measure 49
0100
0000
0010
0000
,  // measure 50
1000
0000
0001
0000
,  // measure 51
0010
0000
0000
0000
,  // measure 52
0100
0000
1000
0000
,  // measure 53
0001
0000
0100
0000
,  // measure 54
0010
0000
1000
0000
,  // measure 55
0001
0000
0000
0000
,  // measure 56
0010
0000
0001
0000
,  // measure 57
1000
0000
0100
0000
,  // measure 58
0010
0000
0001
0000
,  // measure 59
1000
0000
0000
0000
,  // measure 60
0001
0000
0100
0000
,  // measure 61
0010
0000
1000
0000
,  // measure 62
0100
0000
0010
0000
,  // measure 63
0000
0000
0000
0000
,  // measure 64
0001
0000
1000
0000
,  // measure 65
0001
0000
0100
0000
,  // measure 66
0010
0000
1000
0000
,  // measure 67
0100
0000
0010
0000
,  // measure 68
0001
0000
1000
0000
,  // measure 69
0010
0000
0100
0000
,  // measure 70
0001
0000
1000
0000
,  // measure 71
0001
0000
1000
1000
,  // measure 72
1000
0000
0001
0000
,  // measure 73
1000
0000
0001
0001
,  // measure 74
0001
0000
1000
0000
,  // measure 75
0001
0000
0000
0000
2000
0000
0000
3000
,  // measure 76
0000
0000
0002
0000
0000
0003
0000
0000
,  // measure 77
2000
0000
0000
3000
0000
0000
0001
0000
,  // measure 78
0001
0000
1000
0000
,  // measure 79
1000
0000
0020
0000
,  // measure 80
0000
0000
0000
0000
,  // measure 81
0000
0000
0000
0000
,  // measure 82
0000
0000
0000
0000
0000
0000
0000
0000
0000
0000
0000
0030
0000
0000
0000
0000
;

//---------------dance-single - ----------------
#NOTES:
     dance-single:
     :
     Easy:
     4:
     0.282,0.331,0.000,0.045,0.018: // measure 1
0000
0000
0000
0000
,  // measure 2
0000
0000
0000
0000
,  // measure 3
0000
0000
0000
0000
,  // measure 4
0000
0000
0000
0000
,  // measure 5
0001
0001
0100
0000
,  // measure 6
0010
0000
1000
0000
,  // measure 7
0100
0100
0010
0000
,  // measure 8
0001
0000
0100
0010
,  // measure 9
1000
1000
0100
0000
,  // measure 10
0010
0010
0001
0000
,  // measure 11
0100
0100
0010
0000
,  // measure 12
2000
0000
3001
0000
,  // measure 13
0001
0000
1000
0100
,  // measure 14
0001
0000
0001
0000
,  // measure 15
0001
0000
1000
0010
,  // measure 16
0001
0000
1000
0000
,  // measure 17
1000
0000
0001
0010
,  // measure 18
1000
0000
1000
0000
,  // measure 19
1000
0000
0001
0100
,  // measure 20
1000
0000
0001
0001
,  // measure 21
1000
0000
0010
0010
,  // measure 22
1000
0000
0100
0100
,  // measure 23
0010
0010
0000
0001
,  // measure 24
1000
0000
0010
0010
,  // measure 25
0100
0000
0001
0000
,  // measure 26
1000
0000
0100
0000
,  // measure 27
0010
0000
0002
0000
,  // measure 28
0003
0000
2000
0000
,  // measure 29
0000
0000
0000
3000
0000
0000
0000
0000
,  // measure 30
0002
0000
0000
0000
,  // measure 31
0000
0003
0000
0000
,  // measure 32
0000
2000
0000
0000
,  // measure 33
0000
0000
0000
0000
,  // measure 34
0000
3000
0000
0000
,  // measure 35
0000
0000
0000
0000
,  // measure 36
0001
0001
1000
1000
,  // measure 37
0010
0000
0100
0010
,  // measure 38
1000
1000
0001
0001
,  // measure 39
0010
0000
0000
0000
0100
0000
0000
0010
,  // measure 40
0000
0001
0100
0001
,  // measure 41
0000
1000
0100
0010
,  // measure 42
0001
1000
0010
1000
,  // measure 43
0000
0001
0100
0010
,  // measure 44
1000
0001
0100
0000
,  // measure 45
0010
0000
1000
0000
,  // measure 46
0001
1000
0000
0001
,  // measure 47
1000
0100
0010
0000
,  // measure 48
0001
0010
0100
0000
,  // measure 49
1000
0010
0100
0000
,  // measure 50
0001
0100
0010
1000
,  // measure 51
0001
1000
0100
0000
,  // measure 52
1000
0100
0010
0000
,  // measure 53
0001
0100
0010
0000
,  // measure 54
1000
0010
0100
0001
,  // measure 55
1000
0100
0010
0000
,  // measure 56
0001
1000
0100
0000
,  // measure 57
1000
0001
0100
0000
,  // measure 58
0001
0010
1000
0010
,  // measure 59
0001
1000
0001
0000
,  // measure 60
1000
0100
0001
0000
,  // measure 61
0001
0100
1000
0000
,  // measure 62
1000
0010
0001
1000
,  // measure 63
0100
0001
1000
0100
,  // measure 64
0010
0001
0100
0010
,  // measure 65
1000
0001
0010
0001
,  // measure 66
0100
0010
1000
0001
,  // measure 67
0100
0000
0010
1000
,  // measure 68
0010
0001
0010
0100
,  // measure 69
0001
0010
1000
0010
,  // measure 70
0100
1000
0001
0100
,  // measure 71
0010
0000
1000
0100
,  // measure 72
0001
0000
0001
0100
,  // measure 73
1000
0000
0001
0100
,  // measure 74
0010
1000
0001
0010
,  // measure 75
0100
0000
1000
0000
0001
0000
0000
0001
,  // measure 76
0000
0000
1000
0000
0000
1000
0000
0000
,  // measure 77
0010
0000
0000
0010
0000
0000
0100
0000
,  // measure 78
0000
0100
0000
0000
0001
0000
1000
0000
,  // measure 79
0001
0000
0000
0000
0000
0000
0000
0000
1000
0000
0000
0100
0000
0000
0000
0000
,  // measure 80
0000
0001
0000
0000
0100
0000
0000
0010
0000
0000
0000
0000
0000
0000
0000
0000
,  // measure 81
0000
0000
0000
0000
,  // measure 82
0000
0000
0000
0000
0000
0000
0000
0000
0000
0000
0000
0010
0000
0000
0000
0000
;
