#TITLE:Men's Milk Booster Rifle;
#SUBTITLE:;
#ARTIST:RoughSketch;
#TITLETRANSLIT:;
#SUBTITLETRANSLIT:;
#ARTISTTRANSLIT:;
#GENRE:Ryoujoku HARDCORE;
#CREDIT:AznPunk07/Frozen_Heat/GuardianFrozen;
#MENUCOLOR:#ff0081;
#METERTYPE:DDR;
#BANNER:[You Won't See This In DDR II] - Men's Milk Booster Riffle.png;
#BACKGROUND:[You Won't See This In DDR II] - Men's Milk Booster Riffle-bg.png;
#LYRICSPATH:;
#CDTITLE:cdtitle.png;
#MUSIC:[You Won't See This In DDR II] - Men's Milk Booster Riffle.mp3;
#OFFSET:-0.841;
#SAMPLESTART:69.480;
#SAMPLELENGTH:15.360;
#SELECTABLE:YES;
#LISTSORT:;
#BPMS:0.000=125.000,50.000=250.000,299.000=500.000,300.000=250.000,524.000=500.000,539.000=125.000;
#STOPS:299.000=0.120
;
#BGCHANGES:;
#ATTACKS:;

//---------------dance-single - ----------------
#NOTES:
     dance-single:
     :
     Hard:
     10:
     0.653,0.804,0.364,0.021,0.011: // measure 1
0000
0000
0000
0000
,  // measure 2
0000
0000
0000
0000
,  // measure 3
0000
0000
0000
0000
,  // measure 4
0000
0000
0000
0000
,  // measure 5
0000
0000
0000
0000
,  // measure 6
0000
0000
0000
0000
,  // measure 7
0000
0000
0000
0000
,  // measure 8
0000
0000
0000
0000
,  // measure 9
0000
0000
0000
0000
,  // measure 10
0000
0000
0000
0000
,  // measure 11
0000
0000
0000
0000
,  // measure 12
0000
0000
0000
0000
,  // measure 13
0000
0000
0000
0000
1000
0100
0010
0001
,  // measure 14
0010
0100
1000
0001
0100
0100
0010
1000
,  // measure 15
0010
0100
0001
0001
0000
0000
0000
0000
,  // measure 16
0000
0000
0000
0000
,  // measure 17
0000
0000
0000
0000
,  // measure 18
0000
0000
0000
0000
0000
0000
0000
0000
0000
0000
0000
0000
0000
0000
0000
1010
,  // measure 19
0000
0000
0000
0001
0000
0000
0000
1010
0000
0000
0000
0000
0000
0000
0000
0000
,  // measure 20
0000
0000
0000
0000
,  // measure 21
1100
0000
1100
0000
,  // measure 22
0011
0100
0011
0100
,  // measure 23
1010
0000
0100
0000
0001
1000
0000
0000
,  // measure 24
1000
0100
1000
0100
0010
0001
0010
0001
,  // measure 25
1000
0010
1000
0010
0100
0000
0100
0000
,  // measure 26
0001
0010
0000
0010
0001
0010
0000
0100
,  // measure 27
0000
1000
0100
1000
0001
0000
0001
0000
,  // measure 28
0100
0000
0001
0010
0001
0010
0100
0010
,  // measure 29
0000
0001
0010
0100
1000
0000
0100
0000
,  // measure 30
1000
0010
0000
1000
0010
0001
0010
0100
,  // measure 31
0010
0101
1000
1100
,  // measure 32
0001
0010
0000
0100
1000
0001
1000
0100
,  // measure 33
0010
0000
0011
0000
0100
1000
0001
0000
,  // measure 34
0010
0100
1000
0010
0001
0010
0100
0001
,  // measure 35
1000
0100
1000
0001
0010
0100
1000
0000
,  // measure 36
0001
0100
0001
0100
0010
1000
0010
1000
,  // measure 37
0001
0010
1000
0010
0001
0010
0100
0010
,  // measure 38
0001
0000
0011
0000
,  // measure 39
1100
0000
0000
0000
1001
0000
0000
0001
,  // measure 40
1000
0000
1010
0000
,  // measure 41
0001
0000
0101
0000
,  // measure 42
1000
0100
0010
0001
,  // measure 43
1010
0000
0011
0000
1001
0100
0000
0000
,  // measure 44
0001
0011
0100
1100
,  // measure 45
0001
0100
0001
0000
0010
0001
0010
0000
,  // measure 46
0100
1100
0010
1010
,  // measure 47
0100
0001
0100
0000
0010
1000
0010
0000
,  // measure 48
1000
1010
0001
0011
,  // measure 49
1000
0100
1000
0000
0100
0001
0100
0000
,  // measure 50
0010
0011
0100
1100
,  // measure 51
0000
0001
0100
1000
0100
0001
0100
1000
,  // measure 52
0100
0010
1000
0000
0100
0010
0001
0000
,  // measure 53
0100
0001
1000
0000
0010
0000
1100
0000
,  // measure 54
0010
1000
0100
0000
0010
0001
1000
0000
,  // measure 55
0010
0100
0001
0000
0010
0000
0101
0000
,  // measure 56
1000
0100
0001
0000
0100
0010
0001
0000
,  // measure 57
1000
0010
0100
0000
0010
0000
1100
0000
,  // measure 58
0001
1000
0100
0000
0010
0001
1000
0000
,  // measure 59
0001
0101
0100
0101
,  // measure 60
0001
0010
0000
0010
0000
0010
0000
0001
,  // measure 61
1000
0001
0000
0100
0010
0100
0001
0000
,  // measure 62
1000
0001
0000
0010
0000
0010
0000
0001
,  // measure 63
1000
1010
0010
1010
,  // measure 64
1000
0100
0000
0100
0000
0100
0000
1000
,  // measure 65
0001
1000
0000
0010
0100
0010
1000
0000
,  // measure 66
0001
1000
0000
0100
0000
0100
0000
1000
,  // measure 67
0001
0101
0100
0101
,  // measure 68
0010
0001
0000
0100
0000
0100
0000
0001
,  // measure 69
0010
0001
0000
1000
0001
1000
0010
0000
,  // measure 70
0100
0001
0000
0010
0000
0010
0000
0001
,  // measure 71
0100
0101
0010
1010
,  // measure 72
0100
1000
0000
0010
0000
0010
0000
1000
,  // measure 73
0100
1000
0000
0001
0010
0001
0100
0000
,  // measure 74
0010
1000
0000
0100
0000
0100
0000
1000
,  // measure 75
0010
1010
0100
0101
,  // measure 76
1000
0000
1000
0000
,  // measure 77
0100
0000
0100
0000
,  // measure 78
0010
0001
1000
0100
,  // measure 79
0011
0000
0100
0000
1000
0001
0000
0000
,  // measure 80
0100
0000
0001
0000
0100
0000
0001
1000
,  // measure 81
0010
0000
1000
0000
0010
0000
0100
0001
,  // measure 82
0010
0000
0001
0000
0010
0000
0001
1000
,  // measure 83
0100
0000
1000
0000
0100
0010
0000
0000
,  // measure 84
0001
0000
0100
0001
0100
0000
0010
1000
,  // measure 85
0000
1000
0100
0000
0010
0001
0100
0000
,  // measure 86
0010
0000
1000
0001
1000
0000
0010
0100
,  // measure 87
0000
0100
0001
1000
0100
0010
0001
0000
,  // measure 88
1000
0000
0001
0010
0001
0000
0100
0010
,  // measure 89
0000
0010
1000
0010
0100
0001
1000
0000
,  // measure 90
0010
0000
1000
0100
0010
0000
0001
1000
,  // measure 91
0000
1000
0001
0100
0001
0010
0100
0000
,  // measure 92
1000
0100
0010
0100
0000
1000
0010
0001
,  // measure 93
0000
0010
0100
0001
0010
1000
0010
0000
,  // measure 94
0100
1000
0001
0100
0000
0010
1000
0001
,  // measure 95
0000
0010
0100
1000
0010
0100
0001
0000
,  // measure 96
1000
0100
0001
0100
0000
0100
1000
0010
,  // measure 97
0000
0010
0001
0010
0100
0001
1000
0000
,  // measure 98
1000
0001
0010
0100
0000
0100
1000
0001
,  // measure 99
0000
0001
1000
0010
1000
0100
0001
0000
,  // measure 100
0100
1000
0100
1000
0001
0010
0001
0010
,  // measure 101
0100
1000
0001
1000
0020
0100
0130
0001
,  // measure 102
1000
1000
0100
0010
0001
0001
1000
1000
,  // measure 103
0000
0010
0100
0001
1000
0000
1100
0000
,  // measure 104
0011
0000
1000
0010
0001
0010
1000
0010
,  // measure 105
0000
0100
0001
0001
1000
0100
0010
0000
,  // measure 106
0100
0100
1000
0010
0100
0100
0001
0010
,  // measure 107
0100
0110
0100
0110
,  // measure 108
1000
0100
0000
0001
0010
0100
1000
0001
,  // measure 109
1000
0000
1010
0000
0001
0100
0001
0000
,  // measure 110
0010
0010
0100
1000
0010
0010
0001
0010
,  // measure 111
0100
0100
0001
1000
0100
0100
0010
0000
,  // measure 112
0001
0100
1000
0100
0001
0100
1000
0100
,  // measure 113
0001
0010
1000
0010
0001
0010
1000
0010
,  // measure 114
0001
0000
0011
0000
,  // measure 115
1100
0000
0000
0000
1001
0000
0000
0001
,  // measure 116
0100
0000
0101
0000
,  // measure 117
0001
1000
0100
0010
,  // measure 118
0100
0000
1100
0000
,  // measure 119
0010
0001
0100
0000
,  // measure 120
0010
0000
0110
0000
,  // measure 121
1000
0010
0001
0010
,  // measure 122
0100
0000
0101
0000
,  // measure 123
0010
0000
1000
0000
0100
0000
0000
0010
,  // measure 124
0001
0000
0000
0001
1000
0000
0000
0100
,  // measure 125
1000
0000
0010
0000
1000
0000
0001
0100
,  // measure 126
0001
0000
0000
0010
0001
0000
0010
0100
,  // measure 127
1000
0000
0100
0000
0010
0001
0010
0100
,  // measure 128
0010
0000
0000
0010
0001
0000
0000
0001
,  // measure 129
1000
0010
1000
0100
,  // measure 130
1000
0000
0000
1000
0010
0000
0000
0010
,  // measure 131
0100
0010
1000
0001
0100
0010
0100
0001
,  // measure 132
2000
0000
0000
0000
,  // measure 133
0000
0000
0000
0000
,  // measure 134
0000
0000
0000
0000
,  // measure 135
0000
0000
0000
3002
,  // measure 136
0003
0000
0000
0000
;

//---------------dance-single - ----------------
#NOTES:
     dance-single:
     :
     Challenge:
     10:
     0.858,0.993,0.518,0.140,0.112: // measure 1
0000
0000
0000
0000
,  // measure 2
0000
0000
0000
0000
,  // measure 3
0000
0000
0000
0000
,  // measure 4
0000
0000
0000
0000
,  // measure 5
0000
0000
0000
0000
,  // measure 6
0000
0000
0000
0000
,  // measure 7
0000
0000
0000
0000
,  // measure 8
0000
0000
0000
0000
,  // measure 9
0000
0000
0000
0000
,  // measure 10
0000
0000
0000
0000
,  // measure 11
0000
0000
0000
0000
,  // measure 12
0000
0000
0000
0000
,  // measure 13
0000
0000
0000
0000
0001
0010
1000
0010
,  // measure 14
0001
0100
1000
0100
0001
0010
0100
1000
,  // measure 15
0001
0001
1000
2000
0000
0000
0000
0000
,  // measure 16
0000
0000
0000
0000
,  // measure 17
0000
0000
0000
0000
,  // measure 18
0000
0000
0000
0000
0000
0000
0000
0000
0000
0000
0000
0000
0000
0000
0000
0001
,  // measure 19
0000
0000
0000
0010
0000
0000
0000
3001
0000
0000
0000
0000
0000
0000
0000
0000
,  // measure 20
1001
0000
0000
0000
,  // measure 21
0001
1010
0001
1010
,  // measure 22
0001
0101
1001
0101
,  // measure 23
1010
0000
0100
0000
0001
1000
0000
0000
,  // measure 24
0001
0010
0100
0010
0001
0100
1000
0100
,  // measure 25
0001
0010
0100
1000
0010
0100
0001
0001
,  // measure 26
1000
0100
1000
0000
0100
0000
0010
0000
0001
0100
0001
0000
0100
0000
0010
0000
,  // measure 27
0000
0010
1000
0001
0100
0000
0110
1000
,  // measure 28
0010
0000
0010
1000
0001
0100
0100
0001
,  // measure 29
0000
0010
1000
0010
0012
0003
0100
0010
,  // measure 30
1000
0010
0001
1000
0100
0001
1000
0010
,  // measure 31
0100
1100
0101
0110
,  // measure 32
0010
1000
0010
0000
0000
0000
0100
0001
0100
0000
0001
0000
1000
0000
0100
0000
,  // measure 33
0010
0000
0011
0000
1100
0001
0010
0000
,  // measure 34
0001
1000
0010
0000
1000
0000
0001
0000
1000
0001
0010
0000
0001
0000
1000
0000
,  // measure 35
0100
0010
0100
0000
0010
0000
0001
0000
1000
0000
0000
0000
1001
0000
0000
0000
,  // measure 36
0001
0000
0100
0000
1000
0000
0100
0001
0100
0000
0010
0000
1000
0000
0100
0000
,  // measure 37
0010
0000
0100
0000
1000
0000
0010
1000
0010
0000
0100
0000
0001
0000
0100
0000
,  // measure 38
0110
1000
0110
0001
,  // measure 39
0110
1000
1100
1001
,  // measure 40
0101
0010
0101
0010
,  // measure 41
0011
0100
0011
0100
,  // measure 42
0011
1010
0011
1010
,  // measure 43
1001
0000
0010
0000
1001
0100
0000
0000
,  // measure 44
0010
1000
0100
1000
0010
1000
0100
1000
,  // measure 45
0010
0100
0001
1000
2100
0000
3001
0000
,  // measure 46
0010
0001
0100
0010
0001
1000
0100
0010
,  // measure 47
1000
0100
0010
0001
1002
0000
0013
0000
,  // measure 48
0100
1000
0001
0100
0010
1000
0100
0010
,  // measure 49
0001
1000
0001
0010
0120
0000
0031
0000
,  // measure 50
1000
0010
0001
0010
1000
0100
0010
0000
,  // measure 51
0000
0010
0100
1000
0001
0010
0100
1000
,  // measure 52
0001
0100
1000
0100
0001
0010
1000
0010
,  // measure 53
0001
0100
1000
0001
1010
0000
0101
0000
,  // measure 54
1000
0100
0001
0100
1000
0010
0001
0010
,  // measure 55
1000
0100
0001
1000
0011
0000
1100
0000
,  // measure 56
0001
0100
0001
0000
1000
0000
0100
0000
1000
0000
0010
0000
0001
0000
0010
0000
,  // measure 57
1000
0001
0010
0100
1100
0000
0011
0000
,  // measure 58
1000
1000
0010
0100
0001
0001
1000
0010
,  // measure 59
0100
1100
0100
0101
,  // measure 60
0001
0010
0000
0011
0000
0101
0000
0100
,  // measure 61
0010
1000
0000
1000
0010
0100
0001
0000
,  // measure 62
1000
0100
0000
1100
0000
0110
0000
1000
,  // measure 63
0002
0100
0003
0010
0200
1000
1300
0010
,  // measure 64
1000
0100
0000
1100
0000
1010
0000
0010
,  // measure 65
0100
0001
0000
0001
0100
0010
1000
0000
,  // measure 66
0001
0010
0000
0011
0000
0110
0000
0001
,  // measure 67
2000
0010
3000
0100
0020
0001
0031
0100
,  // measure 68
0001
0010
0000
0011
0000
0101
0000
0100
,  // measure 69
0010
1000
0010
0000
0000
0000
1000
0000
0010
0100
0001
0000
1000
0000
0100
0000
,  // measure 70
0100
1000
0000
1100
0000
0110
0000
1000
,  // measure 71
0002
0100
0103
0010
0200
0001
0310
0000
,  // measure 72
1000
0100
0000
1100
0000
1010
0000
0010
,  // measure 73
0100
0001
0100
0000
0000
0000
0001
0000
0100
0010
1000
0000
0001
0000
0010
0000
,  // measure 74
0010
0001
0000
0011
0000
0110
0000
0001
,  // measure 75
2000
0010
3010
0100
0020
1000
0130
0000
,  // measure 76
0001
0010
0100
1000
0000
1000
0100
1000
,  // measure 77
0000
1000
0001
1000
0010
1000
0100
0000
,  // measure 78
0010
0100
1000
0100
0000
0010
0001
0100
,  // measure 79
0000
0001
0100
0010
0001
0010
1000
0000
,  // measure 80
0001
0010
1000
0010
0001
0010
1000
0000
,  // measure 81
0001
0100
1000
0100
0001
0100
1000
0000
,  // measure 82
0001
0010
1000
0010
0001
0100
1000
0100
,  // measure 83
0002
0000
1003
0100
0011
0011
0000
0000
,  // measure 84
0100
1000
1000
0100
0000
0010
0001
0001
,  // measure 85
0000
1000
0001
0001
0100
0010
1000
0000
,  // measure 86
0001
0100
0100
0001
0000
1000
0010
0010
,  // measure 87
0000
0100
0001
0001
1000
0100
0010
0000
,  // measure 88
0100
1000
1000
0001
0000
0010
0100
0100
,  // measure 89
0000
0010
0001
0001
1000
0010
0100
0000
,  // measure 90
0001
0100
0100
0010
0000
1000
0001
0001
,  // measure 91
0000
0010
0010
0100
1000
0001
1000
0000
,  // measure 92
0100
1000
0100
0010
0001
1000
0010
0100
,  // measure 93
0001
0000
1000
0000
0001
0000
0010
0000
0100
0000
1000
0000
0001
0000
0010
0001
,  // measure 94
0010
0100
1000
0001
0100
0010
0100
0001
,  // measure 95
1000
0000
0010
0000
1000
0000
0100
0000
0001
0000
0100
1000
0100
0000
1000
0010
,  // measure 96
1000
1000
0001
0100
0010
1000
0100
0010
,  // measure 97
0001
0100
0001
1000
0010
0100
0001
0010
,  // measure 98
0100
0100
1000
0010
0100
0100
0001
1000
,  // measure 99
1010
0110
0101
0011
,  // measure 100
0001
0100
1000
0100
0001
0010
1000
0010
,  // measure 101
0001
0001
1000
0010
1000
1000
0010
0100
,  // measure 102
0001
0010
0001
0000
1000
0000
0001
0100
0001
0000
0010
0000
0100
0000
1000
0000
,  // measure 103
0000
0100
0010
0001
1100
0000
0011
0000
,  // measure 104
1001
0000
0001
0100
1000
0001
0010
1000
,  // measure 105
0000
0000
0010
0100
0010
0000
1000
0000
0110
0000
0001
0000
0100
0000
0001
0000
,  // measure 106
1000
0100
1000
0000
0001
0000
1000
0010
1000
0000
0100
0000
0010
0000
0001
0000
,  // measure 107
0011
0100
0011
0100
,  // measure 108
0001
0100
0010
0000
1000
0000
0001
0010
0100
0000
1000
0000
0010
0000
0100
0000
,  // measure 109
0101
0000
1010
0000
0100
0001
0011
0000
,  // measure 110
1000
0100
0010
0000
0001
0000
1000
0010
0100
0000
0001
0000
1000
0000
0001
0000
,  // measure 111
0100
0001
0010
0000
0100
0000
1000
0000
1100
0000
0000
0000
0011
0000
0000
0000
,  // measure 112
0001
0000
0010
0000
1000
0000
0001
0000
0100
0000
1000
0000
0001
0000
0010
0001
,  // measure 113
1000
0000
0010
0000
0001
0000
1000
0000
0100
0000
0001
0000
1000
0100
0010
0000
,  // measure 114
0002
0000
2003
0000
,  // measure 115
3002
0000
0000
0000
0203
0000
0300
0010
,  // measure 116
0100
0001
1000
0100
,  // measure 117
0010
0001
0010
0100
0010
1000
0010
0000
,  // measure 118
0001
1000
0010
1000
,  // measure 119
0100
1000
0100
0010
0100
0001
0100
0000
,  // measure 120
1000
0100
1000
0100
1000
0100
1000
0100
,  // measure 121
0010
0001
0010
0001
0010
0001
0010
0001
,  // measure 122
1000
0010
0100
0001
1000
0010
0100
0001
,  // measure 123
1000
0100
0010
0001
1000
0100
0010
0001
,  // measure 124
1000
0100
1000
0010
1000
0000
1000
0000
,  // measure 125
0001
0010
0100
1000
0001
0100
1000
0100
,  // measure 126
0001
1000
0100
0001
,  // measure 127
0100
1000
0100
0010
0100
0001
0100
0010
,  // measure 128
0100
1000
0100
1000
0100
0000
0010
0000
,  // measure 129
0001
1000
0001
1000
0001
0000
0100
0000
,  // measure 130
0010
1000
0010
0001
0010
0100
0010
1000
,  // measure 131
0010
0010
0100
0100
0001
0001
1000
1000
,  // measure 132
0020
0000
0000
0000
,  // measure 133
0000
0000
0000
0000
,  // measure 134
0000
0000
0000
0000
,  // measure 135
0000
0000
0000
0230
,  // measure 136
0300
0000
0000
0000
;

//---------------dance-single - ----------------
#NOTES:
     dance-single:
     :
     Medium:
     8:
     0.494,0.615,0.364,0.063,0.007: // measure 1
0000
0000
0000
0000
,  // measure 2
0000
0000
0000
0000
,  // measure 3
0000
0000
0000
0000
,  // measure 4
0000
0000
0000
0000
,  // measure 5
0000
0000
0000
0000
,  // measure 6
0000
0000
0000
0000
,  // measure 7
0000
0000
0000
0000
,  // measure 8
0000
0000
0000
0000
,  // measure 9
0000
0000
0000
0000
,  // measure 10
0000
0000
0000
0000
,  // measure 11
0000
0000
0000
0000
,  // measure 12
0000
0000
0000
0000
,  // measure 13
0000
0000
0001
0001
,  // measure 14
1000
0000
1000
0000
0010
0100
0010
0000
,  // measure 15
1000
0001
1000
0001
0000
0000
0000
0000
,  // measure 16
0000
0000
0000
0000
,  // measure 17
0000
0000
0000
0000
,  // measure 18
0000
0000
0000
0000
0000
0000
0000
0000
0000
0000
0000
0000
0000
0000
0000
1001
,  // measure 19
0000
0000
0000
0000
0000
0000
0000
1001
0000
0000
0000
0000
0000
0000
0000
0000
,  // measure 20
0000
0000
0000
0000
,  // measure 21
1000
0000
1000
0000
,  // measure 22
0001
0001
1000
1000
,  // measure 23
0001
1001
1000
0000
,  // measure 24
0001
0100
0001
0000
0010
0000
0100
1000
,  // measure 25
0100
0000
0010
0000
0001
1000
0000
1000
,  // measure 26
0001
0000
1000
0001
1000
0000
0010
0100
,  // measure 27
0000
0100
0001
0000
1000
0000
0100
1000
,  // measure 28
0100
0000
0010
0000
0001
1000
0001
0100
,  // measure 29
0000
0100
0000
0010
0100
0000
0001
0000
,  // measure 30
1000
0010
1000
0000
0001
0010
0001
0000
,  // measure 31
1000
1000
0001
0001
,  // measure 32
1000
0100
0000
0100
1000
0000
0001
0100
,  // measure 33
0001
0000
1000
0000
0010
1000
0010
0000
,  // measure 34
0100
0001
0000
0001
0010
0000
0100
0010
,  // measure 35
0100
0000
0010
0000
0001
1000
0001
0000
,  // measure 36
1000
0100
1000
0000
0100
1000
0010
0000
,  // measure 37
0100
0001
0100
0000
0001
0100
0010
0000
,  // measure 38
2000
0000
3002
0000
,  // measure 39
0023
0000
0030
0000
,  // measure 40
0110
0000
0110
0000
,  // measure 41
1001
0000
1001
0000
,  // measure 42
1000
0100
0010
0001
,  // measure 43
1000
0001
1000
0000
,  // measure 44
0001
0001
0100
0100
,  // measure 45
0010
1000
0010
0000
0100
0001
0100
0000
,  // measure 46
0010
0010
1000
1000
,  // measure 47
0100
1000
0100
0000
0010
0001
0010
0000
,  // measure 48
0100
0100
1000
1000
,  // measure 49
0001
0100
0001
0000
1000
0010
1000
0000
,  // measure 50
0001
0001
0010
0010
,  // measure 51
0000
0100
0010
0000
0100
0010
0100
0000
,  // measure 52
1000
1000
0010
0010
,  // measure 53
0100
0001
0100
0000
0010
1000
0010
0000
,  // measure 54
0100
0100
0001
0001
,  // measure 55
0010
0001
0010
0000
0100
1000
0100
0000
,  // measure 56
0010
0010
0001
0001
,  // measure 57
1000
0010
1000
0000
0001
0100
0001
0000
,  // measure 58
1000
1000
0100
0100
,  // measure 59
0010
0110
0010
0110
,  // measure 60
0001
0000
0011
0000
,  // measure 61
0100
0000
1100
0000
,  // measure 62
1001
0101
1001
1100
,  // measure 63
0110
1001
0110
0000
,  // measure 64
1000
0000
1010
0000
,  // measure 65
0001
0000
0101
0000
,  // measure 66
1001
1100
1001
0101
,  // measure 67
0110
1001
0110
0000
,  // measure 68
0100
0000
0101
0000
,  // measure 69
0010
0000
1010
0000
,  // measure 70
0110
1010
0110
0011
,  // measure 71
1001
0110
1001
0000
,  // measure 72
0100
0000
1100
0000
,  // measure 73
0010
0000
0011
0000
,  // measure 74
0011
0110
1010
0011
,  // measure 75
1001
0110
1001
0000
,  // measure 76
0001
0000
0001
0000
,  // measure 77
1000
0000
1000
0000
,  // measure 78
0001
0100
0010
1000
,  // measure 79
0001
0010
0100
0000
,  // measure 80
0010
0001
0100
0000
,  // measure 81
0010
1000
0100
0000
,  // measure 82
0010
0001
0100
0010
,  // measure 83
1000
0100
0010
0000
,  // measure 84
0001
0100
0010
1000
,  // measure 85
0100
0000
0010
0000
0100
1000
0100
0000
,  // measure 86
0010
0001
1000
0010
,  // measure 87
0100
0000
0001
0000
1000
0001
1000
0000
,  // measure 88
0001
0010
0100
1000
,  // measure 89
0010
0000
0100
0000
0001
0010
0001
0000
,  // measure 90
0100
0010
1000
0100
,  // measure 91
0010
0100
1000
0000
,  // measure 92
0100
0010
0001
0100
,  // measure 93
0010
0000
1000
0000
0001
0100
0001
0000
,  // measure 94
0010
0100
1000
0001
,  // measure 95
0100
0000
0010
0000
1000
0010
1000
0000
,  // measure 96
0001
0010
0100
1000
,  // measure 97
0001
0000
0100
0000
0010
0100
0010
0000
,  // measure 98
1000
0100
0010
0001
,  // measure 99
1000
0001
1001
0000
,  // measure 100
0001
0001
0100
0100
,  // measure 101
0010
1000
0100
0010
,  // measure 102
0100
0100
1000
1000
,  // measure 103
0010
0100
0001
1000
,  // measure 104
0010
0010
0100
0100
,  // measure 105
0001
1000
0100
0010
,  // measure 106
0001
0001
0010
0010
,  // measure 107
0001
1001
1000
1001
,  // measure 108
0001
0001
0100
0100
,  // measure 109
0010
1000
0100
0010
,  // measure 110
0001
0001
1000
1000
,  // measure 111
0010
0100
0001
1000
,  // measure 112
0010
0010
0100
0100
,  // measure 113
0001
0001
1000
1000
,  // measure 114
0200
0000
0320
0000
,  // measure 115
0032
0000
2003
0000
,  // measure 116
3010
0000
0010
0000
,  // measure 117
0100
0001
0100
0000
,  // measure 118
0010
0000
0010
0000
,  // measure 119
1000
0100
1000
0000
,  // measure 120
0010
0000
0010
0000
,  // measure 121
0100
0001
1000
0100
,  // measure 122
0010
0000
0010
0000
,  // measure 123
0001
1000
0100
1000
,  // measure 124
0010
0000
0101
0000
,  // measure 125
1000
0100
0010
0001
,  // measure 126
0010
0000
1100
0000
,  // measure 127
0001
0100
0010
1000
,  // measure 128
0010
0000
0110
0000
,  // measure 129
0001
1000
0100
1000
,  // measure 130
0010
0000
0110
0000
,  // measure 131
1000
1000
0100
0010
,  // measure 132
0002
0000
0000
0000
,  // measure 133
0000
0000
0000
0000
,  // measure 134
0000
0000
0000
0000
,  // measure 135
0000
0000
0000
2003
,  // measure 136
3000
0000
0000
0000
;

//---------------dance-single - ----------------
#NOTES:
     dance-single:
     :
     Easy:
     7:
     0.397,0.567,0.126,0.091,0.007: // measure 1
0000
0000
0000
0000
,  // measure 2
0000
0000
0000
0000
,  // measure 3
0000
0000
0000
0000
,  // measure 4
0000
0000
0000
0000
,  // measure 5
0000
0000
0000
0000
,  // measure 6
0000
0000
0000
0000
,  // measure 7
0000
0000
0000
0000
,  // measure 8
0000
0000
0000
0000
,  // measure 9
0000
0000
0000
0000
,  // measure 10
0000
0000
0000
0000
,  // measure 11
0000
0000
0000
0000
,  // measure 12
0000
0000
0000
0000
,  // measure 13
0000
0000
1000
0000
,  // measure 14
1000
0000
0001
0000
,  // measure 15
0001
0000
0000
0000
,  // measure 16
0000
0000
0000
0000
,  // measure 17
0000
0000
0000
0000
,  // measure 18
0000
0000
0000
0000
0000
0000
0000
0000
0000
0000
0000
0000
0000
0000
0000
0010
,  // measure 19
0000
0000
0000
0000
0000
0000
0000
0010
0000
0000
0000
0000
0000
0000
0000
0000
,  // measure 20
0000
0000
0000
0000
,  // measure 21
0100
0000
0100
0000
,  // measure 22
1000
0001
1000
0000
,  // measure 23
0001
1000
0001
0000
,  // measure 24
1000
1000
0100
0100
,  // measure 25
0001
0100
1000
0000
,  // measure 26
0001
0001
0100
0100
,  // measure 27
1000
0100
0001
0000
,  // measure 28
1000
0010
0001
0000
,  // measure 29
0001
0010
1000
0000
,  // measure 30
0001
0001
0010
0010
,  // measure 31
1000
0010
0001
0000
,  // measure 32
2000
3000
0200
0300
,  // measure 33
0001
0100
1000
0000
,  // measure 34
0002
0003
0200
0300
,  // measure 35
1000
0100
0001
0000
,  // measure 36
1000
0100
0001
0100
,  // measure 37
1000
0010
0001
0010
,  // measure 38
2000
3000
0002
0003
,  // measure 39
2000
0000
3000
0000
2002
0000
3003
0020
,  // measure 40
0200
0030
0300
0000
0001
0000
0000
0000
,  // measure 41
1000
0000
0001
0000
,  // measure 42
1000
0100
0010
0001
,  // measure 43
1000
0001
1000
0000
,  // measure 44
0001
0001
0100
0100
,  // measure 45
0010
1000
0100
0000
,  // measure 46
0010
0010
0100
0100
,  // measure 47
1000
0001
0100
0000
,  // measure 48
0010
0010
1000
1000
,  // measure 49
0001
1000
0100
0000
,  // measure 50
0010
0010
0100
0100
,  // measure 51
0000
1000
0001
0000
,  // measure 52
1000
1000
0010
0010
,  // measure 53
0100
0001
0010
0000
,  // measure 54
0100
0100
0010
0010
,  // measure 55
0001
1000
0010
0000
,  // measure 56
0100
0100
0001
0001
,  // measure 57
1000
0001
0010
0000
,  // measure 58
0100
0100
0010
0010
,  // measure 59
0001
0001
1000
1000
,  // measure 60
0001
0000
0101
0000
,  // measure 61
0100
0000
0110
0000
,  // measure 62
0010
1000
0100
1000
,  // measure 63
0010
0000
0110
0000
,  // measure 64
1000
0000
1010
0000
,  // measure 65
0010
0000
0110
0000
,  // measure 66
0100
0001
0010
0001
,  // measure 67
0100
0000
0110
0000
,  // measure 68
0001
0000
0011
0000
,  // measure 69
0010
0000
0110
0000
,  // measure 70
0100
1000
0010
1000
,  // measure 71
0100
0000
0110
0000
,  // measure 72
1000
0000
1100
0000
,  // measure 73
0100
0000
0110
0000
,  // measure 74
0010
0001
0100
0001
,  // measure 75
0010
0000
0110
0000
,  // measure 76
0001
0000
0101
0000
,  // measure 77
0100
0000
0110
0000
,  // measure 78
0010
1000
0100
1000
,  // measure 79
0010
0100
0110
0000
,  // measure 80
0100
0001
0010
0001
,  // measure 81
0100
0010
1000
0100
,  // measure 82
1000
0010
0100
0001
,  // measure 83
0010
0100
1000
0000
,  // measure 84
0001
1000
0001
0100
,  // measure 85
0010
0010
1000
0100
,  // measure 86
0001
0100
1000
0010
,  // measure 87
0100
0001
0100
0100
,  // measure 88
0001
0010
1000
0010
,  // measure 89
0001
1000
0010
0010
,  // measure 90
1000
0100
0001
0100
,  // measure 91
1000
0001
0100
0100
,  // measure 92
0001
1000
0001
0010
,  // measure 93
0100
0100
1000
0010
,  // measure 94
0001
0010
1000
0100
,  // measure 95
0010
0001
0010
0010
,  // measure 96
0001
0100
1000
0100
,  // measure 97
0001
1000
0100
0100
,  // measure 98
1000
0010
0001
0010
,  // measure 99
1000
0001
0010
0010
,  // measure 100
0100
0100
1000
0000
,  // measure 101
0010
0010
0100
0001
,  // measure 102
1000
1000
0100
0000
,  // measure 103
0010
0010
0001
1000
,  // measure 104
0010
0010
0100
0000
,  // measure 105
0001
0001
1000
0010
,  // measure 106
0100
0100
0001
0000
,  // measure 107
1000
1000
0001
0001
,  // measure 108
0010
0010
0001
0000
,  // measure 109
0100
0100
0010
1000
,  // measure 110
0001
0001
0010
0000
,  // measure 111
0100
0100
1000
0001
,  // measure 112
0100
0100
0010
0010
,  // measure 113
1000
1000
0001
0100
,  // measure 114
0010
0000
0110
0000
,  // measure 115
0100
0000
0000
0000
0110
0000
0000
0001
,  // measure 116
1000
0000
1000
0000
,  // measure 117
1000
0100
0010
0100
,  // measure 118
1000
0000
1000
0000
,  // measure 119
1000
0001
1000
0000
,  // measure 120
0010
0000
0010
0000
,  // measure 121
0010
0100
0001
0100
,  // measure 122
0010
0000
0010
0000
,  // measure 123
0010
1000
0001
0000
,  // measure 124
0001
0000
0001
0000
,  // measure 125
0001
0010
0100
0010
,  // measure 126
0001
0000
0001
0000
,  // measure 127
0001
0100
0010
0100
,  // measure 128
0001
1000
0100
0000
,  // measure 129
1000
0001
0100
0000
,  // measure 130
0010
1000
0100
0010
,  // measure 131
0001
1000
0001
1000
,  // measure 132
0200
0000
0000
0000
,  // measure 133
0000
0000
0000
0000
,  // measure 134
0000
0000
0000
0000
,  // measure 135
0000
0000
0000
0320
,  // measure 136
0030
0000
0000
0000
;
