#VERSION:0.81;
#TITLE:Let's Have A Kiki;
#SUBTITLE:;
#ARTIST:Scissor Sisters;
#TITLETRANSLIT:;
#SUBTITLETRANSLIT:;
#ARTISTTRANSLIT:;
#GENRE:;
#ORIGIN:;
#CREDIT:hooky;
#BANNER:Let's Have A Kiki.png;
#BACKGROUND:Let's Have A Kiki-bg.png;
#PREVIEWVID:;
#JACKET:Let's Have A Kiki-jacket.png;
#CDIMAGE:;
#DISCIMAGE:;
#LYRICSPATH:;
#CDTITLE:black.png;
#MUSIC:Let's Have A Kiki.ogg;
#OFFSET:-7.562;
#SAMPLESTART:68.800;
#SAMPLELENGTH:19.460;
#SELECTABLE:YES;
#DISPLAYBPM:124.000;
#BPMS:0.000=124.000;
#STOPS:;
#DELAYS:;
#WARPS:;
#TIMESIGNATURES:0.000=4=4;
#TICKCOUNTS:0.000=4;
#COMBOS:0.000=1;
#SPEEDS:0.000=1.000=0.000=0;
#SCROLLS:0.000=1.000;
#FAKES:;
#LABELS:0.000=Song Start;
#BGCHANGES:-4.000=black.png=1.000=0=0=1=====,
-0.500=Let's Have A Kiki.avi=1.000=0=0=1=====,
99999=-nosongbg-=1.000=0=0=0 // don't automatically add -songbackground-
;
#KEYSOUNDS:;
#ATTACKS:
;

//---------------dance-single - ----------------
#NOTEDATA:;
#CHARTNAME:;
#STEPSTYPE:dance-single;
#DESCRIPTION:;
#CHARTSTYLE:;
#DIFFICULTY:Easy;
#METER:3;
#RADARVALUES:0.203,0.292,0.068,0.101,0.000,185.000,10.000,15.000,0.000,0.000,0.000,0.000,0.000,0.203,0.292,0.068,0.101,0.000,185.000,10.000,15.000,0.000,0.000,0.000,0.000,0.000;
#CREDIT:;
#DISPLAYBPM:124.000;
#NOTES:
1000
0000
0000
0000
,
0000
0000
0000
0000
,
1000
0000
0000
0000
,
0000
0000
0000
0000
,
0001
0000
0000
0000
,
0000
0000
0000
0000
,
0001
0000
0000
0000
,
0000
0000
0000
0000
,
1000
0000
1000
0000
,
1000
0000
1000
0000
,
0001
0000
0001
0000
,
0001
0000
0001
0000
,
1000
0000
0001
0000
,
1000
0000
0001
0000
,
1000
0001
1000
0000
,
1000
0001
1000
0000
,
0100
0000
0000
0000
,
0100
0000
0100
0000
,
0010
0000
0000
0000
,
0010
0000
0010
0000
,
1000
0000
0001
0000
,
1000
0000
0001
0000
,
1000
0000
0010
0000
,
1000
0000
0100
0000
,
0001
0000
1000
0000
,
0001
0000
0010
0000
,
0001
0000
1000
0000
,
0100
0000
0100
0000
,
1000
0000
1000
0000
,
0010
0000
0010
0000
,
0100
0000
0100
0000
,
2002
0000
0000
3003
,
1000
1000
1000
0000
,
0200
0000
0020
0330
,
0010
0000
0010
0001
,
0100
0100
0010
0010
,
0110
0000
0100
0000
,
0010
1000
0100
0100
,
0011
0000
0001
0001
,
0001
0010
1000
0100
,
0010
0001
0100
1000
,
0010
0001
0100
1000
,
0010
0001
0100
1000
,
0010
0001
0100
1000
,
0010
0001
0100
1000
,
0010
0001
0100
1000
,
0010
0001
0100
1000
,
0010
0001
0100
1000
,
2000
0000
0000
3000
,
0002
0000
0000
0003
,
2001
0000
0000
3000
,
0002
0000
0000
0003
,
2000
0100
0100
3100
,
0020
0001
0001
0031
,
0100
0010
1000
0100
,
0011
0011
0022
0033
,
0100
0010
1000
0100
,
1000
1000
2200
3300
,
0010
0001
0100
0100
,
0001
0010
0001
0100
,
1100
0000
0010
0010
,
1000
0100
0010
0001
,
0101
0000
0100
0100
,
0010
1000
0100
0001
,
0010
1000
0100
0001
,
0010
1000
0100
0001
,
0010
1000
0100
0001
,
0010
1000
0100
0001
,
0010
1000
0100
0001
,
0010
1000
0100
0001
,
0010
1000
0100
0001
,
0020
0000
0000
0000
,
0030
0000
0000
0000
;

//---------------dance-single - ----------------
#NOTEDATA:;
#CHARTNAME:;
#STEPSTYPE:dance-single;
#DESCRIPTION:;
#CHARTSTYLE:;
#DIFFICULTY:Hard;
#METER:7;
#RADARVALUES:0.440,0.563,0.149,0.068,0.024,424.000,22.000,10.000,0.000,0.000,0.000,0.000,0.000,0.440,0.563,0.149,0.068,0.024,424.000,22.000,10.000,0.000,0.000,0.000,0.000,0.000;
#CREDIT:;
#OFFSET:-7.562;
#BPMS:0.000=124.000
,93.000=62.000
,94.000=124.000
,122.000=62.000
,124.000=124.000
,154.000=1984.000
,162.000=248.000
,227.000=62.000
,235.000=124.000
,278.000=1984.001
,286.000=248.000
,350.500=15.500
;
#STOPS:7.000=0.240
,14.500=0.240
,154.000=0.120
,158.000=0.120
,162.000=0.240
,247.000=1.460
,278.000=0.120
,282.000=0.120
,286.000=0.240
;
#DELAYS:;
#WARPS:;
#TIMESIGNATURES:0.000=4=4
;
#TICKCOUNTS:0.000=4
;
#COMBOS:0.000=1
;
#SPEEDS:0.000=1.000=0.000=0
;
#SCROLLS:0.000=1.000
;
#FAKES:;
#LABELS:0.000=Song Start
;
#DISPLAYBPM:124.000;
#NOTES:
// measure 0
1000
0100
0010
0000
0001
0001
0001
0000
,  // measure 1
0100
0010
1000
0100
0010
0001
0100
1000
,  // measure 2
0100
0001
0000
0100
0001
0010
0000
0001
,  // measure 3
0001
0100
0010
1000
0100
0010
0010
0001
,  // measure 4
0100
0000
0010
1000
0100
0000
0010
0001
,  // measure 5
0100
0010
0100
0001
0100
0000
0100
0010
,  // measure 6
1000
0000
0100
1000
0010
0000
0010
0100
,  // measure 7
0001
0010
0001
0100
0010
0000
1000
0100
,  // measure 8
1000
0000
0010
0100
0010
0000
0100
0001
,  // measure 9
0100
0000
0001
0010
0001
0000
0001
0100
,  // measure 10
0010
0000
0010
1000
0100
0000
0100
1000
,  // measure 11
0010
0100
0001
0010
0001
0000
0001
0100
,  // measure 12
0010
0000
0010
1000
0100
0000
0100
1000
,  // measure 13
0010
0100
0001
0010
0001
0000
0001
0100
,  // measure 14
0010
0000
0010
0100
0010
0000
0010
0100
,  // measure 15
0001
0010
0001
0100
0010
0000
1000
0100
,  // measure 16
0010
0000
0010
0001
0100
0000
0100
0001
,  // measure 17
0010
0001
0100
0010
1000
0000
1000
0100
,  // measure 18
0010
0000
0010
0001
0100
0000
0100
0010
,  // measure 19
1000
0100
1000
0010
0100
0001
0010
0000
,  // measure 20
0010
0000
0010
0000
0010
0000
0010
0001
,  // measure 21
0100
0000
0100
0010
1000
0000
0100
1000
,  // measure 22
0100
0000
0010
0001
0100
0000
0100
0010
,  // measure 23
1000
0000
0100
0000
0010
0001
0100
0010
0100
0000
0100
0000
0010
0000
0000
0000
,  // measure 24
1000
1000
0100
0000
0010
0001
0100
0010
,  // measure 25
1000
0100
0010
0001
0100
0000
0100
0000
,  // measure 26
0100
0010
1000
0000
1000
0100
0010
0001
,  // measure 27
0100
0010
1000
0100
0010
0000
0010
0000
,  // measure 28
0001
0100
0010
0000
0010
1000
0100
0010
,  // measure 29
0001
0100
0010
1000
0100
0000
0100
0000
,  // measure 30
1000
0010
0100
0001
2002
0000
0000
3003
,  // measure 31
1000
0100
1000
0000
0010
0000
0010
0000
,  // measure 32
0100
0001
0010
0000
0202
0000
0303
0000
,  // measure 33
1000
0000
0100
0000
1000
0010
0100
0000
,  // measure 34
0100
0100
0001
0001
0100
0000
0100
0000
,  // measure 35
0202
0000
0303
0000
0010
0001
0010
0000
,  // measure 36
0001
0001
0100
0100
,  // measure 37
2020
0000
3030
0000
1000
1000
1000
0000
,  // measure 38
0100
0010
0001
0100
0001
0000
0000
0000
,  // measure 39
0000
0000
0001
0000
,  // measure 40
0000
0000
0001
0100
,  // measure 41
0010
1000
0100
0010
,  // measure 42
0000
0010
0000
0010
,  // measure 43
0001
0100
0010
1000
,  // measure 44
0000
1000
0000
0100
,  // measure 45
0010
0001
0100
0010
,  // measure 46
0000
0010
0000
1000
,  // measure 47
0100
1000
0010
0100
,  // measure 48
0000
0100
0000
0001
,  // measure 49
0010
0100
1000
0010
,  // measure 50
0000
0010
0000
0010
,  // measure 51
1000
0100
0010
0001
,  // measure 52
0000
0001
0000
0001
,  // measure 53
0100
0010
1000
0100
,  // measure 54
0000
0100
0000
0010
,  // measure 55
0001
0100
0010
1000
,  // measure 56
0100
0000
0010
0000
0001
0000
0001
1000
,  // measure 57
0001
1000
0001
1000
0001
1000
0110
0011
,  // measure 58
1100
0000
0101
0000
1001
0000
1100
0000
1000
1000
1000
0000
1001
0000
0000
0000
,  // measure 59
1000
1001
0001
1001
,  // measure 60
1000
1001
0001
1001
,  // measure 61
1001
0000
0010
0010
0010
0000
1001
0000
,  // measure 62
1000
0100
1000
0000
0010
0100
0001
0000
,  // measure 63
0010
0010
0001
0000
0022
0000
0033
0000
,  // measure 64
0100
0010
1000
0000
0100
0100
0100
0000
,  // measure 65
1000
0010
0100
0001
0001
0000
1000
1000
,  // measure 66
1010
0000
0100
0000
0001
0100
0101
0000
,  // measure 67
0001
0010
0001
0100
0010
0000
1000
1000
,  // measure 68
1100
0000
1000
0000
1000
0010
0100
0001
,  // measure 69
0010
0001
0010
0001
0100
0000
0000
0000
,  // measure 70
0000
0000
0100
0000
,  // measure 71
0000
0000
0100
0010
,  // measure 72
1000
0100
0000
1000
,  // measure 73
0010
0100
0000
0001
,  // measure 74
0010
0001
0100
0010
,  // measure 75
1000
0100
0000
1000
,  // measure 76
0010
0100
0001
0010
,  // measure 77
0001
0100
0000
0001
,  // measure 78
0100
0010
1000
0100
,  // measure 79
0100
0100
0000
1000
,  // measure 80
0100
0010
0001
0001
,  // measure 81
0100
0010
0000
1000
,  // measure 82
0100
1000
0010
0100
,  // measure 83
0001
0010
0000
0001
,  // measure 84
0100
0010
0010
0100
,  // measure 85
0001
0000
0110
0000
0000
0000
0000
0010
,  // measure 86
1000
0000
0000
0000
0000
0000
0000
0000
0000
0000
0000
0001
0000
0000
0000
0000
,  // measure 87
0000
0000
0000
0000
0100
0000
0000
0000
0000
0000
0000
0000
0000
0000
0000
0000
0000
0000
0000
0000
0010
0000
0000
0000
0000
0000
0000
0000
0000
0000
0000
0000
0000
0000
0000
0000
0000
0000
0000
0000
0010
0010
0000
0000
0000
0000
0000
0000
0000
0000
0000
0000
0000
0000
0000
0000
0000
0000
0000
0000
0000
0000
0000
0000
;

//---------------dance-single - ----------------
#NOTEDATA:;
#CHARTNAME:;
#STEPSTYPE:dance-single;
#DESCRIPTION:;
#CHARTSTYLE:;
#DIFFICULTY:Beginner;
#METER:1;
#RADARVALUES:0.075,0.144,0.027,0.000,0.000,74.000,4.000,0.000,0.000,0.000,0.000,0.000,0.000,0.075,0.144,0.027,0.000,0.000,74.000,4.000,0.000,0.000,0.000,0.000,0.000,0.000;
#CREDIT:;
#DISPLAYBPM:124.000;
#NOTES:
0000
0000
0000
0000
,
0000
0000
0000
0000
,
0000
0000
0000
0000
,
0000
0000
0000
0000
,
0000
0000
0000
0000
,
0000
0000
0000
0000
,
0000
0000
0000
0000
,
0000
0000
0000
0000
,
1000
0000
0000
0000
,
0000
0000
0000
0000
,
0000
0000
0000
0000
,
0000
0000
0000
0000
,
0000
0000
0000
0000
,
0000
0000
0000
0000
,
0000
0000
0000
0000
,
0000
0000
0000
0000
,
0000
0000
0000
0000
,
0000
0000
0000
0000
,
0000
0000
0000
0000
,
0000
0000
0000
0000
,
1000
0000
0000
0000
,
0000
0000
0000
0000
,
0000
0000
0000
0000
,
0000
0000
0000
0000
,
1000
0000
0000
0000
,
0000
0000
0000
0000
,
0000
0000
0000
0000
,
0000
0000
0000
0000
,
0000
0000
0000
0000
,
0000
0000
0000
0000
,
0000
0000
0000
0000
,
1001
0000
0000
0000
,
1000
0000
0001
0000
,
1000
0000
0001
0000
,
1000
0000
0001
0000
,
1000
0000
1000
0000
,
0001
0000
1000
0000
,
0001
0000
1000
0000
,
0001
0000
1000
0000
,
0001
0001
1000
1000
,
1000
0000
0000
0000
,
0001
0000
0000
0000
,
1000
0000
0000
0000
,
0001
0000
0000
0000
,
1000
0000
0000
0000
,
0001
0000
0000
0000
,
1000
0000
0000
0000
,
0001
0000
0000
0000
,
1000
0000
0000
0000
,
0000
0000
0000
0000
,
0000
0000
0000
0000
,
0000
0000
0000
0000
,
0001
0000
0001
0000
,
1000
0000
1000
0000
,
0001
0000
1000
0000
,
0010
0010
0010
0000
,
0100
0000
0000
0000
,
0001
0000
0010
0000
,
1001
0000
0000
0000
,
0100
0000
0010
0000
,
0110
0000
0000
0000
,
1000
0000
0100
0000
,
1001
0000
0000
0000
,
0100
0000
0010
0000
,
0010
0010
0010
0000
,
1000
1000
1000
0000
,
0001
0001
0001
0000
,
0100
0100
0100
0000
,
0010
0010
0010
0000
,
1000
1000
1000
0000
,
0100
0100
0100
0000
,
0010
0000
0000
0000
;

//---------------dance-single - ----------------
#NOTEDATA:;
#CHARTNAME:;
#STEPSTYPE:dance-single;
#DESCRIPTION:;
#CHARTSTYLE:;
#DIFFICULTY:Medium;
#METER:6;
#RADARVALUES:0.337,0.610,0.081,0.169,0.000,312.000,12.000,25.000,0.000,0.000,0.000,0.000,0.000,0.337,0.610,0.081,0.169,0.000,312.000,12.000,25.000,0.000,0.000,0.000,0.000,0.000;
#CREDIT:;
#OFFSET:-7.562;
#BPMS:0.000=124.000
,160.000=248.000
,224.000=62.000
,232.000=124.000
,280.000=248.000
,344.000=124.000
;
#STOPS:;
#DELAYS:;
#WARPS:;
#TIMESIGNATURES:0.000=4=4
;
#TICKCOUNTS:0.000=4
;
#COMBOS:0.000=1
;
#SPEEDS:0.000=1.000=0.000=0
;
#SCROLLS:0.000=1.000
;
#FAKES:;
#LABELS:0.000=Song Start
;
#DISPLAYBPM:124.000;
#NOTES:
1000
0000
1000
0000
1000
1000
1000
0000
,
0001
0000
0001
0000
0001
0001
0001
0000
,
0100
0000
0100
0000
0100
0100
0100
0000
,
0010
0000
0010
0000
0010
0010
0010
0000
,
0010
1000
0100
0000
0100
0000
0100
0000
,
0010
0001
0100
0000
0100
0000
0100
0000
,
0100
0001
0010
0000
0010
0001
0100
0000
,
0100
0000
0010
0000
0010
1000
0100
0000
,
1000
1000
0001
0001
,
0100
0000
0010
0000
1000
0100
1000
0000
,
0010
0010
0100
0100
,
0001
0010
0001
0000
0100
0000
0101
0000
,
0011
0000
0001
0000
0100
0010
1000
0000
,
0100
1000
0010
0000
0010
0100
0001
0000
,
0001
0000
0100
0000
0010
1000
0100
0000
,
0100
1000
0010
0100
0001
0010
0010
0000
,
0001
0001
0100
0100
,
0010
0000
0010
0000
1000
0100
1000
0000
,
1000
0100
0010
0001
,
0100
0000
0100
0000
0010
1000
0100
0010
,
0001
0001
1000
1000
,
0001
0000
0001
0000
1000
0010
0100
0001
,
0010
0010
0001
0001
,
0100
0000
0100
0000
0010
1000
0100
1000
,
0010
0010
0100
0100
,
0010
0000
0010
0000
1000
0100
0010
0001
,
0100
0100
0010
0010
,
1000
0100
1000
0000
0010
0100
0010
0000
,
0100
0001
0100
0000
0001
0010
0001
0000
,
0001
0100
0010
1000
0100
0000
0100
0000
,
1000
0010
0100
0000
0100
0001
0010
0001
,
2002
0000
0000
3003
,
1000
0100
1000
0000
0010
0000
0010
0000
,
0200
0000
0020
0330
,
0001
0001
1000
1000
,
0020
0000
0200
0330
,
1000
0000
1000
0000
0100
1000
0100
0000
,
0020
0000
0002
0033
,
0100
0010
2000
3100
,
0020
0031
0200
0300
,
0010
0000
1000
0000
,
0100
0000
0100
0000
,
0100
0000
1000
0000
,
0010
0000
0010
0000
,
0100
0000
0001
0000
,
0010
0000
0010
0000
,
0001
0000
0010
0000
,
0100
0000
1000
0000
,
1000
0000
0010
0000
,
0100
0000
0001
0000
,
0010
0000
0001
0000
,
0010
0000
0001
0000
,
0100
0000
1000
0000
,
0010
0000
0001
0000
,
0100
0000
1000
0000
,
0010
0000
0001
0000
,
1000
1000
1000
1000
1000
1000
1000
1000
,
0001
1001
0001
1001
0100
0110
0220
0330
,
1000
1000
0001
0001
,
1000
1000
0020
0030
,
0100
0000
0010
0000
,
0220
0000
0000
0330
,
1000
0100
1000
0010
,
0100
0001
0010
0000
0022
0000
0033
0000
,
0100
0000
0010
0000
0010
1000
0100
0000
,
0100
1000
0010
0000
0200
0000
0310
0000
,
0002
0000
0013
0000
0001
0100
0010
0000
,
0010
1000
0100
0000
2000
0000
3001
0000
,
0200
0000
0310
0000
0010
1000
0100
0000
,
2000
3001
1001
1001
,
0110
0000
0010
0000
,
1000
0000
0100
0000
,
0010
0000
0010
0000
,
0001
0000
0100
0000
,
0010
0000
0010
0000
,
1000
0000
1000
0000
,
0100
0000
0010
0000
,
0001
0000
0100
0000
,
0010
0000
0010
0000
,
1000
0000
0100
0000
,
1000
0000
0010
0000
,
0100
0000
0001
0000
,
0010
0000
0010
0000
,
0001
0000
0001
0000
,
0200
0000
0000
0000
,
0020
0000
0000
0000
,
0330
0000
0000
0000
;
