#TITLE:HotSpringz Japanese SeX;
#SUBTITLE:;
#ARTIST:DJ Shokomi;
#TITLETRANSLIT:;
#SUBTITLETRANSLIT:;
#ARTISTTRANSLIT:;
#CREDIT:;
#BANNER:;
#BACKGROUND:;
#LYRICSPATH:;
#CDTITLE:;
#MUSIC:HotSpringz Japanese SeX.ogg;
#OFFSET:-8.860;
#SAMPLESTART:25.540;
#SAMPLELENGTH:16.760;
#SELECTABLE:YES;
#BPMS:0.000=230.001,172.000=115.000,204.000=230.001;
#STOPS:168.000=0.560
;
#BGCHANGES:;

//---------------dance-single - ----------------
#NOTES:
     dance-single:
     :
     Hard:
     8:
     0.575,0.747,0.116,0.107,0.153: // measure 1
0010
1000
0100
1000
,  // measure 2
0010
0100
0001
0010
,  // measure 3
0100
1000
0001
0100
,  // measure 4
0010
0000
1000
0000
0001
0000
1000
0001
,  // measure 5
1000
0010
0100
0001
,  // measure 6
0010
0100
1000
0010
,  // measure 7
0100
0000
0000
1001
0000
1001
0000
1000
,  // measure 8
0001
0010
0100
1000
,  // measure 9
0010
0000
1000
0000
0100
1000
0010
0000
,  // measure 10
0100
0000
0001
0000
0010
0100
0010
0000
,  // measure 11
0001
0000
0100
0000
0010
1000
0001
0000
,  // measure 12
0010
0000
0100
0000
1000
0001
0100
0010
,  // measure 13
1000
0000
0001
0000
0010
0100
0010
0000
,  // measure 14
0001
0000
0100
0000
0010
1000
0001
0000
,  // measure 15
0010
0000
0100
0000
1000
0001
0100
0000
,  // measure 16
0010
0000
1000
0000
0010
0100
0010
0000
,  // measure 17
1000
0000
0100
0000
0010
0001
0100
0000
,  // measure 18
1000
0000
0010
0000
0100
0001
0010
0000
,  // measure 19
0100
0000
1000
0000
0001
0100
0010
0000
,  // measure 20
1000
0000
0001
0000
0010
0100
0010
0001
,  // measure 21
0100
0000
0010
0000
1000
0001
0010
0000
,  // measure 22
0100
0000
0010
0000
0001
0100
0010
0000
,  // measure 23
1000
0000
0001
0000
0100
0010
1000
0000
,  // measure 24
0002
0000
0000
0000
,  // measure 25
0013
0000
1000
0000
0100
0010
1000
0000
,  // measure 26
0010
0100
2000
0000
,  // measure 27
3001
0000
0010
0000
0100
0001
0100
0000
,  // measure 28
0010
0001
0200
0000
,  // measure 29
0310
0000
1000
0000
0100
0010
0100
0000
,  // measure 30
1000
0001
0100
0000
0010
1000
0001
0000
,  // measure 31
0010
0100
1000
0010
,  // measure 32
2002
0000
3003
0000
,  // measure 33
0010
1000
0100
0001
,  // measure 34
0100
0000
1000
0000
0010
0100
0001
1000
,  // measure 35
0100
0010
0001
0100
,  // measure 36
0010
0000
1000
0000
0001
0010
0100
0010
,  // measure 37
0001
0100
0010
1000
,  // measure 38
0001
0000
0010
0000
0100
0000
1000
0010
,  // measure 39
0100
0001
0100
0010
,  // measure 40
1000
0000
0001
0010
0100
0001
0100
0010
,  // measure 41
0002
0000
0000
0000
,  // measure 42
0000
0000
0000
0000
,  // measure 43
1003
0000
0000
0000
,  // measure 44
0000
1000
0000
0010
0000
0100
0000
0001
0000
0010
0000
0100
0000
0010
0000
0001
,  // measure 45
0000
0100
0000
0010
0000
1000
0000
0100
0000
1000
0000
0001
0000
0100
0000
0010
,  // measure 46
0000
1000
0000
0001
0000
0010
0000
0100
0000
0001
0000
0100
0000
0010
0000
0001
,  // measure 47
0000
0100
0000
0010
0000
1000
0000
0100
0000
0010
0000
0100
0000
1000
0000
0010
,  // measure 48
0100
0000
0001
0000
0010
0100
0010
0000
0001
0000
0100
0000
0010
0000
1000
0000
,  // measure 49
0100
0000
1000
0000
0001
0100
0010
0000
0100
0000
0001
0000
0010
0000
0000
0000
,  // measure 50
0100
0000
1000
0001
0100
0000
0010
0000
1000
0000
0100
0010
0100
0000
1000
0000
,  // measure 51
0001
0000
0100
0010
1000
0000
0001
0000
0010
0000
0100
0000
1000
0000
0010
0000
,  // measure 52
0000
0000
1010
0000
0000
1010
0000
0001
,  // measure 53
0000
0100
0010
0000
1000
0001
0010
0000
,  // measure 54
1001
0000
0011
0000
0000
0101
0000
0000
,  // measure 55
0100
0010
1000
0000
0000
0100
1000
0000
,  // measure 56
0010
0000
0100
0000
0001
0100
0000
0100
,  // measure 57
0001
0000
1000
0000
0010
1000
0000
1000
,  // measure 58
0010
0200
0000
0302
,  // measure 59
0000
2003
0000
3020
,  // measure 60
0000
1030
0100
1000
,  // measure 61
0010
0100
0000
0001
0010
0000
0100
0000
,  // measure 62
0010
0001
0100
0010
,  // measure 63
1000
0100
0000
1000
0010
0000
0100
0001
,  // measure 64
0010
0100
1000
0000
0001
0000
0010
0000
,  // measure 65
0100
1000
0000
0010
0100
0000
0001
0000
,  // measure 66
0010
0100
0010
0000
0001
0000
0100
0000
,  // measure 67
0010
1000
0100
1000
0020
0000
0100
0000
,  // measure 68
0000
0130
0001
0100
,  // measure 69
0010
1000
0000
0100
1000
0000
0010
0000
,  // measure 70
0100
0001
0010
0100
,  // measure 71
0010
0001
0000
0100
0010
0000
1000
0000
,  // measure 72
0100
1000
0001
0000
0100
0000
0010
0000
,  // measure 73
1000
0001
0000
1000
0001
0000
0100
0000
,  // measure 74
0010
0000
1000
0001
1000
0000
0001
0100
,  // measure 75
0001
0000
1000
0010
1000
0000
0001
0010
,  // measure 76
0100
1000
0001
0000
0101
0000
1000
0000
,  // measure 77
1100
0000
0001
0000
0100
0010
0000
1000
,  // measure 78
0001
0000
0010
0000
0100
1000
0000
1000
,  // measure 79
0010
0000
0100
0000
0001
0010
0000
0001
,  // measure 80
0100
0010
1010
1100
,  // measure 81
0101
0000
0011
0000
0001
0100
0000
0010
,  // measure 82
1000
0000
0100
0010
0100
1000
0000
0001
,  // measure 83
0000
0100
0010
1000
0001
0010
0100
1000
,  // measure 84
0100
0010
0001
0000
0001
0000
0100
0000
,  // measure 85
0100
0010
0010
1000
,  // measure 86
1000
0010
0010
0100
,  // measure 87
0100
0001
0001
1000
,  // measure 88
1000
0000
0100
1000
0100
1000
0001
0100
,  // measure 89
0001
0100
0010
1000
0010
1000
0001
0010
,  // measure 90
0001
0010
0001
0100
0010
1000
0001
0010
,  // measure 91
0100
1000
0010
0000
0100
0000
0001
0000
,  // measure 92
1000
0010
0100
0001
0010
0100
0001
0100
,  // measure 93
0010
0001
2000
0000
0000
0000
0000
0000
,  // measure 94
0000
0002
0000
0000
,  // measure 95
0000
0000
0000
0000
,  // measure 96
0000
3003
0000
0000
;

//---------------dance-single - ----------------
#NOTES:
     dance-single:
     :
     Medium:
     6:
     0.402,0.550,0.099,0.132,0.000:
0010
1000
0100
1000
,
0010
0100
0001
1000
,
0100
0010
0100
1000
,
0001
0100
0010
0000
,
0010
1000
0010
1000
,
0001
0100
0001
0100
,
1001
0000
0110
0000
,
1001
1001
1001
0000
,
0010
1000
0100
1000
,
0010
0100
0001
0000
,
0010
0100
0010
0001
,
1000
0010
0100
0000
,
0010
1000
0001
0010
,
0100
0010
0001
0000
,
0100
0010
1000
0001
,
0020
0000
0130
0000
,
0010
0001
0100
0010
,
1000
0100
0010
0000
,
0100
1000
0010
0100
,
1000
0100
0010
0000
,
1000
0100
0010
0000
,
0001
0100
0010
0000
,
0100
0000
0001
0000
,
2002
0000
3003
0000
,
0001
0010
0100
0010
,
0001
0100
0010
0000
,
0010
1000
0100
0010
,
0100
1000
0010
0000
,
0100
0001
1000
0000
,
0001
0100
0010
0000
,
1000
0000
0100
0000
,
0220
0000
0330
0000
,
0010
0001
0100
1000
,
0100
0001
0010
0100
,
1000
0010
0001
0010
,
1000
0100
0001
0100
,
1000
0010
0100
0001
,
1000
0100
0010
0001
,
1000
1000
0001
0001
,
0100
0010
1000
0001
,
0020
0000
0000
0000
,
0000
0000
0000
0000
,
0130
0000
0000
0000
,
1000
0000
0010
0000
0100
0001
0100
0000
,
0010
0000
1000
0000
0100
0010
0100
0000
,
1000
0000
0001
0000
0100
0010
1000
0000
,
0001
0000
0010
0000
0100
1000
0100
0000
,
0010
0001
0100
0100
0001
0010
0100
0000
,
1000
0010
0100
0100
0010
1000
0100
0000
,
0010
0001
1000
0000
1000
0001
0010
0000
,
0100
1000
0001
0000
0001
1000
0100
0010
,
0000
0000
0010
0000
0000
0010
0000
0001
,
0000
0100
0010
0000
1000
0000
0010
0000
,
1001
0000
0100
0000
0000
0100
0000
0000
,
0010
0000
1000
0000
0000
0001
0010
0000
,
0100
0000
1000
0000
0000
1000
0010
0000
,
0000
0010
0100
0000
0000
0100
0001
0000
,
0000
0001
0020
0000
0000
0000
0230
0000
,
0000
2300
0000
3002
,
0000
1003
0010
0100
,
0000
0100
0010
1000
,
0001
0010
0100
0010
,
0000
0001
0100
0010
,
1000
0001
0010
0100
,
0000
0001
0100
0010
,
0001
0100
0010
1000
,
0000
0100
0010
1000
,
0010
0100
1000
0010
,
0000
0100
0001
0100
,
0010
1000
0001
0010
,
0000
0001
0100
0010
,
0000
0010
1000
0100
,
0000
0010
0100
1000
,
0000
0001
0100
0001
,
0100
0010
1000
0010
,
1000
0010
0010
0100
,
0100
0001
0000
1000
,
0000
0100
0100
1000
,
1000
0010
0000
0100
,
0000
0001
0001
0010
,
0010
0001
0000
1000
,
0000
0010
0010
0100
,
0100
0001
0000
1000
,
0000
0001
0000
1000
,
0000
0010
0100
0001
,
0000
0010
0000
0100
,
0000
1000
0010
0100
,
0000
0101
0000
0011
,
0000
1100
0000
1010
,
0000
0002
0000
2003
,
0000
3002
0000
2003
,
0000
3001
0100
0010
,
1000
0002
0000
0000
,
0000
1000
0000
0000
,
0000
2000
0000
0000
,
0000
3003
0000
0000
;

//---------------dance-single - ----------------
#NOTES:
     dance-single:
     :
     Easy:
     3:
     0.218,0.354,0.033,0.058,0.000:
1000
0000
0010
0000
,
0100
0000
0001
0000
,
0010
0000
0100
0000
,
0010
0000
0001
0000
,
0100
0000
0010
0000
,
1000
0000
0001
0000
,
1001
0000
0000
0000
,
0110
0000
0000
0000
,
0010
0000
1000
0000
,
0100
0000
0010
0000
,
0001
0000
0100
0000
,
0010
0000
0000
0000
,
1000
0000
0100
0000
,
1000
0000
0010
0000
,
0100
0000
0001
0000
,
0010
0000
0000
0000
,
0010
0000
0100
0000
,
1000
0000
0100
0000
,
0010
0000
0001
0000
,
1000
0000
0000
0000
,
0010
0000
0100
0000
,
0001
0000
0100
0000
,
0010
0000
1000
0000
,
0001
0000
0000
0000
,
0010
0000
0010
0000
,
0100
0000
0100
0000
,
1000
0000
0001
0000
,
1000
0000
0000
0000
,
0010
0000
0010
0000
,
0100
0000
0100
0000
,
0001
0000
1000
0000
,
0001
0000
0000
0000
,
0010
0000
0001
0000
,
0100
0000
1000
0000
,
0010
0000
1000
0000
,
0100
0000
0001
0000
,
0010
0000
0100
0000
,
0010
0000
0001
0000
,
1000
0000
0010
0000
,
0100
0000
0010
0000
,
2000
0000
0000
0000
,
0000
0000
0000
0000
,
3001
0000
0000
0000
,
1000
0000
0010
0000
,
0100
0001
0010
0000
,
0100
0000
1000
0000
,
0010
0100
0001
0000
,
0010
0010
0001
0001
,
0100
0100
0010
0010
,
1000
1000
0100
0100
,
0001
0001
0100
0100
,
0000
1000
0000
0000
,
0000
1000
0000
0000
,
0000
0010
0000
0000
,
0000
0010
0000
0000
,
0000
0100
0000
0000
,
0000
0001
0000
0000
,
0000
1000
0000
0100
,
0000
0010
0000
0001
,
0000
1000
0000
0100
,
0000
1000
0000
0010
,
0000
0100
0000
0001
,
0000
0010
0000
0100
,
0000
0010
0000
0001
,
0000
1000
0000
0010
,
0000
0100
0000
0001
,
0000
1000
0000
0100
,
0000
0010
0000
0001
,
0000
0010
0000
0001
,
0000
1000
0000
0100
,
0000
1000
0000
0100
,
0000
1000
0000
0010
,
0000
0100
0000
0001
,
0000
0010
0000
0100
,
0000
0010
0000
0001
,
0000
1000
0000
1000
,
0000
0001
0000
0001
,
0000
0100
0000
0010
,
0000
1000
0000
0001
,
0000
0010
0000
0010
,
0000
0100
0000
0100
,
0000
0010
0000
0001
,
0000
1000
0000
0010
,
0000
0100
0000
0100
,
0000
0010
0000
0010
,
0000
1000
0000
1000
,
0000
0001
0000
0001
,
0000
2000
0000
0000
,
0000
3002
0000
0000
,
0000
0203
0000
0000
,
0000
0320
0000
0000
,
0000
1030
0000
0001
,
0000
1001
0000
0000
,
0000
2002
0000
0000
,
0000
0000
0000
0000
,
0000
3003
0000
0000
;

//---------------dance-single - ----------------
#NOTES:
     dance-single:
     :
     Beginner:
     1:
     0.107,0.157,0.025,0.025,0.000:
1000
0000
0000
0000
,
0010
0000
0000
0000
,
0100
0000
0000
0000
,
0001
0000
0000
0000
,
0010
0000
0000
0000
,
0100
0000
0000
0000
,
1000
0000
0000
0000
,
0000
0000
0000
0000
,
1000
0000
0000
0000
,
0001
0000
0000
0000
,
1000
0000
0000
0000
,
0000
0000
0000
0000
,
0010
0000
0000
0000
,
0100
0000
0000
0000
,
0010
0000
0000
0000
,
0000
0000
0000
0000
,
1000
0000
0000
0000
,
0100
0000
0000
0000
,
0010
0000
0000
0000
,
0000
0000
0000
0000
,
0001
0000
0000
0000
,
0010
0000
0000
0000
,
0100
0000
0000
0000
,
0000
0000
0000
0000
,
0001
0000
0000
0000
,
0100
0000
0000
0000
,
0010
0000
0000
0000
,
0000
0000
0000
0000
,
0001
0000
0000
0000
,
0100
0000
0000
0000
,
0010
0000
0000
0000
,
0000
0000
0000
0000
,
1000
0000
0001
0000
,
1000
0000
0000
0000
,
0001
0000
1000
0000
,
0001
0000
0000
0000
,
1000
0000
0000
0000
,
0010
0000
0000
0000
,
0100
0000
0000
0000
,
0001
0000
0000
0000
,
0020
0000
0000
0000
,
0000
0000
0000
0000
,
0030
0000
0000
0000
,
0010
0000
0000
0000
,
0001
0000
0000
0000
,
0100
0000
0000
0000
,
1000
0000
0000
0000
,
0010
0000
0010
0000
,
0010
0000
0000
0000
,
0100
0000
0100
0000
,
0100
0000
0000
0000
,
0000
0001
0000
0000
,
0000
0000
0000
0000
,
0000
0010
0000
0000
,
0000
0000
0000
0000
,
0000
0100
0000
0000
,
0000
1000
0000
0000
,
0000
0001
0000
0001
,
0000
0001
0000
0001
,
0000
0001
0000
0000
,
0000
0100
0000
0000
,
0000
0010
0000
0000
,
0000
1000
0000
0000
,
0000
0010
0000
0000
,
0000
0100
0000
0000
,
0000
0001
0000
0000
,
0000
0000
0000
0000
,
0000
0010
0000
0000
,
0000
0001
0000
0000
,
0000
0100
0000
0000
,
0000
0010
0000
0000
,
0000
1000
0000
0000
,
0000
0100
0000
0000
,
0000
0010
0000
0000
,
0000
0000
0000
0000
,
0000
0001
0000
0000
,
0000
1000
0000
0000
,
0000
0001
0000
0000
,
0000
0000
0000
0000
,
0000
1000
0000
0000
,
0000
0001
0000
0000
,
0000
1000
0000
0000
,
0000
0000
0000
0000
,
0000
0010
0000
0000
,
0000
0010
0000
0000
,
0000
0100
0000
0000
,
0000
0100
0000
0000
,
0000
0001
0000
0000
,
0000
1000
0000
0000
,
0000
0001
0000
0000
,
0000
1000
0000
0000
,
0000
1001
0000
0000
,
0000
1001
0000
0000
,
0000
2002
0000
0000
,
0000
0000
0000
0000
,
0000
3003
0000
0000
;
