#TITLE:Heigh Ho;
#SUBTITLE:;
#ARTIST:Matt Land;
#TITLETRANSLIT:;
#SUBTITLETRANSLIT:;
#ARTISTTRANSLIT:;
#GENRE:;
#CREDIT:;
#BANNER:[You Won't See This In DDR II] - Heigh Ho.png;
#BACKGROUND:[You Won't See This In DDR II] - Heigh Ho-bg.png;
#LYRICSPATH:;
#CDTITLE:;
#MUSIC:[You Won't See This In DDR II] - Heigh Ho.ogg;
#OFFSET:-0.965;
#SAMPLESTART:45.870;
#SAMPLELENGTH:15.620;
#SELECTABLE:YES;
#BPMS:0.000=138.080;
#STOPS:;
#BGCHANGES:;
#KEYSOUNDS:;

//---------------dance-single - ----------------
#NOTES:
     dance-single:
     :
     Hard:
     9:
     0.668,0.654,0.297,0.755,0.526:
0000
0000
0000
0000
,
0000
0000
0000
0000
,
0000
0000
0000
0000
,
0000
0000
0000
0000
0000
0000
0000
2000
,
0004
0000
0000
0000
0000
0000
0000
0000
0000
0000
0000
0000
3003
0000
1000
0010
,
4000
0000
0000
0000
3000
0000
0010
0100
0001
0100
0010
1000
0001
0000
0200
0000
,
0040
0000
0000
0330
,
2002
0000
0000
3003
M00M
0000
1100
0000
2200
0000
0000
3300
MM00
0000
0000
0000
,
1000
0001
1000
0000
0001
0100
0000
0001
1000
0000
0010
1000
0000
0010
0100
0000
,
0001
0010
0001
0000
0010
0100
0000
1000
0100
0000
0010
0001
0000
0100
0001
0000
,
0202
1303
2200
3301
,
0101
0000
0000
0100
0000
0000
0010
0000
2020
0000
0000
0000
3031
0000
0000
0000
,
1000
0000
0010
0000
0100
0001
0000
0100
0010
0000
1000
0010
0000
0100
0001
0000
,
0100
0010
1000
0000
0001
1000
0000
0100
1000
0000
0001
1000
0000
0001
0010
0000
,
0022
1033
2020
3031
,
1002
0000
0000
0200
0000
0000
0020
0000
2000
0000
0000
0000
3333
0000
0200
0000
,
0040
0000
0000
0000
0000
0000
0000
0000
0000
0000
0000
0000
0330
0000
0001
1000
,
0001
0000
0000
0001
0100
0000
0010
0000
2000
0000
0000
0000
30M0
0000
0002
0000
,
4000
0000
0000
0000
0000
0000
3003
0001
,
0100
0000
0000
0100
0010
0000
1000
0000
0001
0000
1000
0000
0100
0000
0000
1000
,
0010
0000
0100
0000
0010
0000
0000
1000
0100
0000
0010
0000
0100
0000
1000
0001
,
4000
0000
0000
0000
3000
0000
0010
1000
0001
0100
0001
0010
0100
0000
1000
0100
,
2000
0000
3000
0000
MMMM
0000
0001
0100
0002
0000
0003
0000
MMMM
0000
1000
0010
,
2000
0000
3000
0000
MMMM
0000
0001
0010
0002
0000
0003
0000
MMMM
0000
1000
0001
,
2000
3200
0302
0023
,
1030
0001
0102
0000
1000
0000
0013
0000
,
0001
0000
0100
0000
0010
0000
1000
0000
0010
0000
0100
0000
0001
1000
0001
0000
,
0202
0000
0303
0000
2200
0000
3300
0000
0100
0000
0010
0000
0001
1000
0001
0100
,
0040
0000
0000
0000
0030
0000
0100
0001
4000
0000
0000
0000
3000
0000
0000
0000
,
0001
0100
0010
1000
0010
0100
0001
0100
0020
0000
0030
0000
MMMM
0000
0000
0000
,
1000
0000
0100
0000
0010
0000
0001
0000
1000
0000
0010
0000
0100
0001
0100
0000
,
2020
0000
3030
0000
0022
0000
0033
0000
1000
0000
0001
0000
0100
0010
1000
0001
,
4000
0000
0000
0000
3000
0000
0010
1000
0400
0000
0000
0000
0300
0000
0000
0000
,
1000
0010
0100
0001
0100
0010
1000
0010
0200
0000
0300
0000
MMMM
0000
0000
0000
,
0001
0000
0100
0000
0010
0000
1000
0000
0100
0000
0010
0000
0001
0010
0001
0000
,
0202
0000
0303
0000
2020
0000
3030
0000
1000
0000
0001
0000
0100
0010
1000
0100
,
0040
0000
0000
0000
0030
0000
0001
0010
0400
0000
0000
0000
0300
0000
0000
0000
,
1000
0010
0100
0001
1000
0100
0010
0001
2000
0000
3000
0000
MMMM
0000
0000
0000
,
1000
0000
0100
0000
0010
0000
0001
0000
1000
0000
0010
0000
0100
0001
0100
0000
,
2020
0000
3030
0000
0202
0000
0303
0000
1000
0000
0100
0000
0010
0001
0100
0010
,
4000
0000
0000
0000
3000
0000
0100
0010
0004
0000
0000
0000
0003
0000
0000
0000
,
0001
0100
0010
1000
0001
0010
0100
1000
0002
0000
0003
0000
MMMM
0000
0000
0000
,
1000
0001
1000
0000
0001
0100
0000
0001
1000
0000
0010
1000
0000
0010
0100
0000
,
0001
0010
0001
0000
0010
0100
0000
1000
0100
0000
0010
0001
0000
0100
0001
0000
,
0202
1303
2200
3301
,
0101
0000
0000
0100
0000
0000
0010
0000
2020
0000
0000
0000
3031
0000
0000
0000
,
1000
0000
0010
0000
0100
0001
0000
0100
0010
0000
1000
0010
0000
0100
0001
0000
,
0100
0010
1000
0000
0001
1000
0000
0100
1000
0000
0001
1000
0000
0001
0010
0000
,
0022
1033
2020
3031
,
1002
0000
0000
0200
0000
0000
0020
0000
2000
0000
0000
0000
3333
0000
0000
0000
;

//---------------dance-single - ----------------
#NOTES:
     dance-single:
     :
     Easy:
     4:
     0.304,0.341,0.194,0.137,0.000:
0000
0000
0000
0000
,
0000
0000
0000
0000
,
0000
0000
0000
0000
,
0000
0000
0000
0000
,
1000
1000
1000
1000
,
0001
0001
0001
0001
,
0100
0100
0100
0100
,
0110
0000
1001
0000
,
1000
0100
1000
0100
,
0010
0001
0010
0001
,
0011
0000
1100
0000
,
1000
0001
1001
0000
,
0001
0100
0001
0100
,
0010
1000
0010
1000
,
1010
0000
0101
0000
,
1000
0001
1001
0000
,
0010
0010
0010
0010
,
1000
0100
1000
0000
,
0010
0010
0010
0010
,
0100
0001
0100
0000
,
0001
0010
1000
0010
,
0001
0100
1000
0100
,
0002
0003
2000
3000
,
0020
0030
0200
0300
,
0001
0001
1000
1000
,
0000
2002
0000
3003
,
1000
0010
0100
0001
,
1000
1000
0001
0010
,
0100
0100
0010
0010
,
0001
0001
2000
3000
,
0010
0100
0001
1000
,
0100
0100
1000
0010
,
0100
0100
0001
0001
,
1000
0001
0020
0030
,
0001
0010
0100
1000
,
0001
0001
0100
0010
,
1000
1000
0001
0001
,
1000
0100
0020
0030
,
0100
1000
0010
0100
,
0001
0001
0100
0010
,
1000
1000
0001
0001
,
0100
0010
2000
3000
,
0001
0010
0001
0010
,
0100
1000
0100
1000
,
1100
0000
0011
0000
,
0001
1000
1001
0000
,
0001
0100
0001
0100
,
0010
1000
0010
1000
,
1010
0000
0101
0000
,
1001
1001
2002
3003
;

//---------------dance-single - ----------------
#NOTES:
     dance-single:
     :
     Medium:
     6:
     0.503,0.455,0.480,0.457,0.011:
0000
0000
0000
0000
,
0000
0000
0000
0000
,
0000
0000
0000
0000
,
0000
0000
0000
0000
,
1000
1000
1000
0000
1000
1000
1000
0000
,
0001
0001
0001
0000
0001
0001
0001
0000
,
0100
0100
0100
0000
0100
0100
0100
0000
,
0220
0000
0330
0001
2000
0000
3000
0000
,
0001
0100
0001
0000
0100
1000
0100
0000
,
1000
0010
1000
0000
0010
0001
0010
0000
,
0012
0103
2010
3100
,
1001
0110
2001
3100
,
1000
0100
1000
0000
0100
0001
0100
0000
,
0001
0010
0001
0000
1000
0010
1000
0000
,
2010
3100
0012
0103
,
1001
0000
0000
0001
0000
0000
0100
0000
0020
0000
0000
0000
0030
0000
0000
0000
,
0100
0100
0100
0000
0100
0100
0100
0000
,
0110
1001
0220
0330
,
0010
0010
0010
0000
0010
0010
0010
0000
,
0110
1001
0220
0330
,
0010
1000
0100
0000
0010
0001
0100
0000
,
0010
1000
0001
0000
0100
0001
1000
0000
,
2200
3300
0202
0303
,
2020
3030
0022
0033
,
2000
3200
0320
0032
,
2003
3002
0203
0310
,
0100
0001
0100
0000
0001
0010
0001
0000
,
0011
1100
0010
1001
,
0001
0100
1000
0000
1000
0100
0001
0000
,
1001
0110
2002
3003
,
1000
0010
1000
0000
0001
0100
0001
0000
,
0011
0000
1100
0000
0010
0100
0010
0000
,
1000
0010
0001
0000
0001
0010
1000
0000
,
0010
0100
0001
1000
0200
0000
0300
0000
,
0010
0001
0100
0000
0010
1000
0100
0000
,
1001
0000
0110
0000
0001
0100
0010
0000
,
1000
1000
1000
0000
0001
0001
0001
0000
,
1100
0110
0022
0033
,
0001
0100
0010
0000
1000
0100
0010
0000
,
1001
0000
0110
0000
1000
0010
0100
0000
,
0001
0010
1000
0000
0100
0001
0010
0000
,
1000
0010
0100
0001
2000
0000
3000
0000
,
0001
0100
0001
0000
0100
1000
0100
0000
,
1000
0010
1000
0000
0010
0001
0010
0000
,
0012
0103
2010
3100
,
1001
0110
2001
3100
,
1000
0100
1000
0000
0100
0001
0100
0000
,
0001
0010
0001
0000
1000
0010
1000
0000
,
2010
3100
0012
0103
,
1001
0000
0000
0001
0000
0000
0100
0000
0020
0000
0000
0000
0030
0000
0000
0000
;

//---------------dance-single - ----------------
#NOTES:
     dance-single:
     :
     Beginner:
     1:
     0.126,0.113,0.000,0.000,0.000:
0000
0000
0000
0000
,
0000
0000
0000
0000
,
0000
0000
0000
0000
,
0000
0000
0000
0000
,
1000
0000
0000
0000
,
0001
0000
0000
0000
,
0010
0000
0000
0000
,
0100
0000
0100
0000
,
0100
0000
0000
0000
,
1000
0000
0000
0000
,
0001
0000
0001
0000
,
1000
0000
1000
0000
,
0010
0000
0000
0000
,
0100
0000
0000
0000
,
0001
0000
0001
0000
,
1000
0000
1000
0000
,
0001
0000
0000
0000
,
0010
0000
0010
0000
,
0010
0000
0000
0000
,
0100
0000
0100
0000
,
1000
0000
1000
0000
,
0001
0000
0001
0000
,
0010
0000
0010
0000
,
0100
0000
0100
0000
,
1000
0000
1000
0000
,
0001
0000
0001
0000
,
1000
0000
1000
0000
,
0010
0000
0010
0000
,
0100
0000
0100
0000
,
0001
0000
0001
0000
,
1000
0000
1000
0000
,
0100
0000
0100
0000
,
0010
0000
0010
0000
,
0001
0000
0001
0000
,
1000
0000
1000
0000
,
0100
0000
0100
0000
,
0001
0000
0001
0000
,
0100
0000
0100
0000
,
1000
0000
1000
0000
,
0010
0000
0010
0000
,
0001
0000
0001
0000
,
0010
0000
0010
0000
,
1000
0000
0000
0000
,
0001
0000
0000
0000
,
0100
0000
0000
0000
,
0010
0000
0010
0000
,
0010
0000
0000
0000
,
0100
0000
0000
0000
,
0001
0000
0000
0000
,
1000
0000
1000
0000
;
