#TITLE:Excessive Sex;
#SUBTITLE:;
#ARTIST:Vospi;
#TITLETRANSLIT:;
#SUBTITLETRANSLIT:;
#ARTISTTRANSLIT:;
#GENRE:;
#CREDIT:Telperion;
#BANNER:xsf_sex-bn.png;
#BACKGROUND:xsf_sex-bq.png;
#LYRICSPATH:;
#CDTITLE:!CDTitle.png;
#MUSIC:xsf_sex.ogg;
#OFFSET:-0.001;
#SAMPLESTART:22.155;
#SAMPLELENGTH:14.769;
#SELECTABLE:YES;
#DISPLAYBPM:130.000;
#BPMS:0.000=130.000
,16.000=975.000
,16.500=130.000
,18.000=975.000
,18.500=130.000
,20.000=975.000
,20.500=130.000
,24.000=975.000
,24.500=130.000
,26.000=975.000
,26.500=130.000
,28.000=975.000
,28.500=130.000
,32.000=229.412
,34.000=305.882
,36.000=458.824
,37.000=229.412
,39.000=305.882
,41.000=458.824
,42.000=229.412
,44.000=305.882
,46.000=458.824
,47.000=229.412
,49.000=305.882
,51.000=458.824
,52.000=229.412
,53.000=130.000
,56.000=229.412
,57.000=130.000
,60.000=229.412
,61.000=130.000
,64.000=229.412
,65.000=130.000
,123.250=975.000
,123.500=130.000
,128.000=52.000
,128.250=260.000
,129.000=52.000
,129.250=260.000
,130.000=52.000
,130.250=260.000
,131.000=52.000
,131.250=260.000
,132.000=130.000
,160.000=52.000
,160.250=260.000
,161.000=52.000
,161.250=260.000
,162.000=52.000
,162.250=260.000
,163.000=52.000
,163.250=260.000
,164.000=130.000
,167.500=229.412
,168.500=130.000
,175.500=229.412
,176.500=130.000
,180.000=260.000
,180.375=52.000
,180.500=130.000
,183.500=229.412
,184.500=130.000
,191.500=229.412
,192.500=130.000
,236.000=195.000
,236.500=97.500
,237.000=130.000
,244.000=195.000
,244.500=97.500
,245.000=130.000
,252.000=195.000
,252.500=97.500
,253.000=130.000
,259.000=260.000
,260.000=65.000
;
#STOPS:16.000=0.050,
16.125=0.050,
16.250=0.050,
16.375=0.050,
18.000=0.050,
18.125=0.050,
18.250=0.050,
18.375=0.050,
20.000=0.050,
20.125=0.050,
20.250=0.050,
20.375=0.050,
24.000=0.050,
24.125=0.050,
24.250=0.050,
24.375=0.050,
26.000=0.050,
26.125=0.050,
26.250=0.050,
26.375=0.050,
28.000=0.050,
28.125=0.050,
28.250=0.050,
28.375=0.050,
32.000=0.200,
33.000=0.200,
34.000=0.150,
35.000=0.150,
36.000=0.100,
37.000=0.200,
38.000=0.200,
39.000=0.150,
40.000=0.150,
41.000=0.100,
42.000=0.200,
43.000=0.200,
44.000=0.150,
45.000=0.150,
46.000=0.100,
47.000=0.200,
48.000=0.200,
49.000=0.150,
50.000=0.150,
51.000=0.100,
52.000=0.200,
56.000=0.200,
60.000=0.200,
64.000=0.200,
123.250=0.100,
167.500=0.200,
175.500=0.200,
183.500=0.200,
191.500=0.200,
259.000=0.077,
259.333=0.077,
259.667=0.077
;
#BGCHANGES:;
#KEYSOUNDS:;
#ATTACKS:;

//---------------dance-single - Telperion----------------
#NOTES:
     dance-single:
     Telperion:
     Hard:
     9:
     0.543,0.564,0.474,0.450,0.510,364.000,60.000,57.000,0.000,0.000,0.000,0.543,0.564,0.474,0.450,0.510,364.000,60.000,57.000,0.000,0.000,0.000: // measure 0
0000
0000
0000
0000
,  // measure 1
0000
0000
0000
0000
,  // measure 2
0000
0000
0000
0000
,  // measure 3
0000
0000
0000
0000
,  // measure 4
0200
0300
0000
0000
0002
0003
0000
0000
,  // measure 5
2000
3000
0000
0000
0000
0000
0000
0000
,  // measure 6
0200
0300
0000
0000
2000
3000
0000
0000
,  // measure 7
0002
0003
0000
0000
0000
0000
0000
0000
,  // measure 8
1001
0011
2010
0001
,  // measure 9
0100
3001
1010
0012
,  // measure 10
1000
0100
1003
0011
,  // measure 11
2001
0010
0100
3001
,  // measure 12
1010
0210
1000
0301
,  // measure 13
1001
0000
0000
0000
0011
0000
0010
0100
1000
0001
0000
1000
0000
0000
0010
0000
,  // measure 14
0100
0000
0000
0000
1001
0000
1000
0010
0100
0001
0000
1000
0000
0000
0001
0000
,  // measure 15
0010
0000
0000
0000
0110
0000
0100
1000
0100
0010
0000
0001
0000
0000
1000
0000
,  // measure 16
0010
0000
0000
0000
0101
0000
0010
0000
1000
0001
1000
0001
0010
0100
0010
0100
,  // measure 17
2000
0000
0000
0000
0001
0000
0000
0000
3020
0000
0000
0100
0000
0000
0130
0000
,  // measure 18
0000
0000
0100
0002
0000
0000
1000
0000
0003
0000
0021
0000
0030
0100
0000
0000
,  // measure 19
1000
0000
0000
0000
0101
0000
0000
0000
1010
0000
0020
0100
0000
0000
0130
0000
,  // measure 20
0000
0000
0000
0101
0000
0000
0000
1100
0000
0000
1001
0000
1010
0000
1000
0000
,  // measure 21
0002
0000
0000
0000
1000
0000
0000
0000
0023
0000
0000
0100
0000
0000
0130
0000
,  // measure 22
0000
0000
0100
2000
0000
0000
3001
0000
0000
0000
0102
0000
0003
1010
0000
0000
,  // measure 23
2000
0000
0000
3000
1100
0000
0000
0000
0011
0000
0020
0100
0000
0000
0130
0000
,  // measure 24
0000
0000
0000
1100
0000
0000
0000
0101
0000
0000
1001
0000
1010
0000
0010
0000
,  // measure 25
0102
0000
0000
0000
0000
0000
0000
0000
0000
0000
0000
0000
0000
0000
0000
0000
1003
0000
0000
0000
0000
0000
0000
0000
0000
0000
0000
0000
1000
0000
0000
0000
0001
0000
0000
0010
0000
0000
0001
0000
0000
0010
0000
0000
0100
0000
0000
0000
0000
0000
0000
0000
0000
0000
0000
0000
0100
0000
0000
0000
0000
0000
0000
0000
,  // measure 26
0000
0000
0000
0000
0000
0000
0000
0000
0100
0000
0000
0000
2000
0000
0000
0000
0000
0000
0000
0000
0000
0000
0000
0000
3001
0000
0000
0000
0000
0000
0000
0000
0000
0000
0000
0000
0000
0000
0000
0000
1000
0000
0000
0010
0000
0000
1000
0000
0000
0010
0000
0000
0100
0000
0000
0000
0000
0000
0000
0000
0000
0000
0000
0000
,  // measure 27
0101
0000
0000
0000
0000
0000
0000
0000
2000
0000
0000
0000
0000
3000
0000
0000
0011
0000
0000
0000
0020
0000
0001
0000
0000
0000
0000
0000
0130
0000
0000
0000
,  // measure 28
0000
0000
0000
0000
0000
0000
0000
0000
0000
0000
0000
0000
1100
0000
0000
0000
0000
0000
0000
0000
0000
0000
0000
0000
0000
0000
0000
0000
1001
0000
0000
0000
0000
0000
0000
0000
0000
0000
0000
0000
0001
0000
0000
0100
0000
0000
0001
0000
1000
0000
0000
0000
0000
0000
0000
0000
0001
0000
0000
0000
0000
0000
0000
0000
,  // measure 29
2000
0000
0000
0000
0000
0000
0000
0000
0000
0000
0000
0000
0000
0000
0000
0000
0001
0000
0000
0000
0000
0000
0000
0000
0000
0000
0000
0000
0000
0000
0000
0000
3010
0000
0000
0100
0000
0000
0010
0000
0000
0100
0000
0000
0001
0000
0000
0000
0000
0000
0000
0000
0000
0000
0000
0000
0001
0000
0000
0000
0000
0000
0000
0000
,  // measure 30
0000
0000
0000
0000
0000
0000
0000
0000
2000
0000
0000
0000
0100
0000
0000
0000
0000
0000
0000
0000
0000
0000
0000
0000
3001
0000
0000
0000
0000
0000
0000
0000
0000
0000
0000
0000
0000
0000
0000
0000
0100
0000
0000
0001
0000
0000
0100
0000
0000
0001
0000
0000
0010
0000
0000
0000
0000
0000
0000
0000
0000
0000
0000
0000
,  // measure 31
0200
0000
0000
0300
1100
0000
0000
0000
1001
0000
1000
0010
0000
0000
0100
0000
,  // measure 32
0001
0001
0001
2100
,  // measure 33
3002
0000
0000
0000
0000
0000
0003
1000
,  // measure 34
0020
0000
0000
0230
0000
0000
0302
0000
0000
0000
0000
0000
0000
0000
0000
0000
,  // measure 35
2003
0000
0010
0001
,  // measure 36
3200
0000
0000
0300
,  // measure 37
2000
0000
0000
0000
0000
0000
3000
0001
,  // measure 38
0020
0000
0000
0230
0000
0000
2300
0000
0000
0000
0000
0000
0000
0000
0000
0000
,  // measure 39
3002
0000
0000
0000
0000
0000
0000
0000
0000
0000
0000
0000
0000
0000
0000
0000
0000
0000
0000
0000
0000
0000
0000
0000
0000
0000
0000
0000
0000
0000
0000
0000
0000
0000
0000
0000
0000
0000
0000
0000
0000
0000
0000
0000
0000
0000
0000
0000
0000
0000
0000
0000
0000
0000
0000
0000
0000
0000
0000
0000
0000
0000
0000
0000
0000
0000
0000
0000
0000
0000
0000
0000
0000
0000
0000
0000
0000
0000
0000
0000
0000
0000
0000
0000
0000
0000
0000
0000
0000
0000
0000
0000
0000
0000
0000
0000
0010
0000
0000
0000
0000
0000
0000
0000
0000
0000
0000
0000
0000
0000
0000
0000
0000
0000
0000
0000
0000
0000
0000
0000
0000
0000
0000
0000
0000
0000
0000
0000
0000
0000
0000
0000
0000
0000
0000
0000
0000
0000
0000
0000
0000
0000
0000
0000
0100
0000
0000
0000
0000
0000
0000
0000
0000
0000
0000
0000
0000
0000
0000
0000
0000
0000
0000
0000
0000
0000
0000
0000
0000
0000
0000
0000
0000
0000
0000
0000
0000
0000
0000
0000
0000
0000
0000
0000
0000
0000
0000
0000
0000
0000
0000
0003
,  // measure 40
2001
0000
0000
0000
0000
0000
0000
0000
0000
0000
0000
0000
0000
0000
0000
0000
0000
0000
0000
0000
0000
0000
0000
0000
0000
0000
0000
0000
0000
0000
0000
0000
0000
0000
0000
0000
0000
0000
0000
0000
0000
0000
0000
0000
0000
0000
0000
0000
3200
0000
0000
0000
0000
0000
0000
0000
0000
0000
0000
0000
0000
0000
0000
0000
0000
0000
0000
0000
0000
0000
0000
0000
0000
0000
0000
0000
0000
0000
0000
0000
0000
0000
0000
0000
0000
0000
0000
0000
0000
0000
0000
0000
0000
0000
0000
0300
0220
0000
0000
0000
0000
0000
0000
0000
0000
0000
0000
0000
0000
0000
0000
0000
0000
0000
0000
0000
0000
0000
0000
0000
0000
0000
0000
0000
0000
0000
0000
0000
0000
0000
0000
0000
0000
0000
0000
0000
0000
0000
0000
0000
0000
0000
0000
0330
2002
0000
0000
0000
0000
0000
0000
0000
0000
0000
0000
0000
0000
0000
0000
0000
0000
0000
0000
0000
0000
0000
0000
0000
0000
0000
0000
0000
0000
0000
0000
0000
0000
0000
0000
0000
0000
0000
0000
0000
0000
0000
0000
0000
0000
0000
0000
3003
,  // measure 41
0110
0000
0000
0000
0001
0100
0010
0000
1000
0000
0000
1001
0000
0000
1000
0000
,  // measure 42
0000
0000
0011
0000
0010
0000
0100
1000
0000
0001
0000
1000
0000
0010
0100
0000
,  // measure 43
0101
0000
0000
0000
1000
0100
0010
0000
0001
0000
0000
1100
0000
0000
0001
0000
,  // measure 44
0000
0000
0101
0000
1000
0000
0010
0100
0000
0001
0000
1000
0000
0100
0010
0100
,  // measure 45
0002
0000
0003
0000
0100
0010
0001
0000
1000
0000
0000
1001
0000
0000
0001
0000
,  // measure 46
0000
0000
1010
0000
0010
0000
0100
0001
0000
1000
0000
0001
0000
0010
0100
1000
,  // measure 47
0001
0000
0010
0000
0001
0100
0010
0000
1000
0000
0000
1001
0000
0000
0001
0000
,  // measure 48
0000
0000
0101
0000
1000
0000
0001
0010
0000
0110
0000
0000
1100
0000
0000
0000
,  // measure 49
0001
0000
0100
0000
0001
0000
1000
0100
0000
0000
0100
0000
1000
0000
0001
0100
,  // measure 50
0000
0000
0010
0000
0100
0000
0010
1000
0000
0001
0000
0100
0000
0001
0010
0000
,  // measure 51
0000
0000
0100
0000
1000
0000
0001
0100
0001
0000
0001
0000
0001
0000
0001
0000
,  // measure 52
1000
0000
0000
0000
0000
0000
0000
0000
0011
0000
0000
0000
0000
0000
0000
0000
0000
0000
0000
0010
0000
0000
0100
0000
0000
0010
0000
0000
0100
0000
0000
0000
1000
0000
0000
0000
0000
0000
0000
0000
0001
0000
0000
0000
0000
0000
0000
0000
1020
0000
0000
0000
0000
0000
0000
0000
0000
0000
0000
0000
0000
0000
0000
0000
,  // measure 53
0001
0000
1030
0000
0001
0000
0100
0001
0000
0000
0001
0000
1000
0000
1000
0100
,  // measure 54
0000
0000
0001
0000
0100
0000
1000
0001
0000
1000
0000
0010
0000
0100
0010
0000
,  // measure 55
1000
0000
0002
0000
0003
0000
0001
1000
0000
1000
0000
1000
0000
1000
0010
0000
,  // measure 56
0010
0000
0000
0010
0100
0000
0000
0100
0001
0000
0000
0001
1000
0000
0000
0000
,  // measure 57
2100
0000
0000
0000
0000
0000
0000
0000
0000
0000
0000
0000
0000
0000
0000
0000
3001
0000
0000
0000
0000
0000
0000
0000
0000
0000
0000
0000
0001
0000
0000
0000
0010
0000
0000
0100
0000
0000
0010
0000
0000
0100
0000
0000
1000
0000
0000
0000
0000
0000
0000
0000
0000
0000
0000
0000
1000
0000
0000
0000
0000
0000
0000
0000
,  // measure 58
0000
0000
0000
0000
0000
0000
0000
0000
0002
0000
0000
0000
0100
0000
0000
0000
0000
0000
0000
0000
0000
0000
0000
0000
1003
0000
0000
0000
0000
0000
0000
0000
0000
0000
0000
0000
0000
0000
0000
0000
0001
0000
0000
1000
0000
0000
0001
0000
0000
0000
0000
0000
0100
0000
0000
0000
0000
0000
0000
0000
0000
0000
0000
0000
,  // measure 59
0220
0000
0000
0000
0000
0000
0000
0000
0000
0000
0000
0000
0000
0000
0000
0000
0000
0000
0000
0000
0000
0000
0000
0000
0000
0000
0000
0000
0000
0000
0000
0000
0000
0000
0000
0000
0000
0000
0000
0000
0000
0000
0000
0000
0000
0000
0000
0330
1001
0000
0000
0000
0000
0000
0000
0000
0000
0000
0000
0000
0000
0000
0000
0000
0000
0000
0000
0000
0000
0000
0000
0000
0000
0000
0000
0000
0000
0000
0000
0000
0000
0000
0000
0000
0000
0000
0000
0000
0000
0000
0000
0000
0000
0000
0000
0000
0011
0000
0000
0000
0000
0000
0000
0000
0000
0000
0000
0000
0000
0000
0000
0000
0000
0000
0000
0000
0000
0000
0000
0000
0020
0000
0000
0000
0000
0000
0000
0000
0000
0000
0000
0000
0100
0000
0000
0000
0000
0000
0000
0000
0000
0000
0000
0000
0000
0000
0000
0000
0000
0000
0000
0000
0000
0000
0000
0000
0000
0000
0000
0000
0000
0000
0000
0000
0000
0000
0000
0000
0130
0000
0000
0000
0000
0000
0000
0000
0000
0000
0000
0000
0000
0000
0000
0000
0000
0000
0000
0000
0000
0000
0000
0000
,  // measure 60
0000
0000
0000
0000
0000
0000
0000
0000
0000
0000
0000
0000
1100
0000
0000
0000
0000
0000
0000
0000
0000
0000
0000
0000
0000
0000
0000
0000
1001
0000
0000
0000
0000
0000
0000
0000
0000
0000
0000
0000
1000
0000
0000
0100
0000
0000
1000
0000
0001
0000
0000
0000
0000
0000
0000
0000
1000
0000
0000
0000
0000
0000
0000
0000
,  // measure 61
0002
0000
0000
0000
0000
0000
0000
0000
0000
0000
0000
0000
0000
0000
0000
0000
1003
0000
0000
0000
0000
0000
0000
0000
0000
0000
0000
0000
1000
0000
0000
0000
0010
0000
0000
0100
0000
0000
0010
0000
0000
0100
0000
0000
0001
0000
0000
0000
0000
0000
0000
0000
0000
0000
0000
0000
0001
0000
0000
0000
0000
0000
0000
0000
,  // measure 62
0000
0000
0000
0000
0000
0000
0000
0000
2000
0000
0000
0000
0100
0000
0000
0000
0000
0000
0000
0000
0000
0000
0000
0000
3001
0000
0000
0000
0000
0000
0000
0000
0000
0000
0000
0000
0000
0000
0000
0000
0100
0000
0000
0001
0000
0000
0100
0000
0000
0001
0000
0000
1000
0000
0000
0000
0000
0000
0000
0000
0000
0000
0000
0000
,  // measure 63
0200
0000
0000
0000
0010
0000
0000
0000
1000
0000
0000
0001
0000
0000
0010
0000
,  // measure 64
0000
0000
0000
0000
0000
0000
0000
0000
0000
0010
0000
0000
0000
0000
0000
0000
0000
0000
0000
0000
0000
0001
0000
0000
0000
0000
0000
0000
0000
0000
0010
0000
0000
0000
0000
0000
1300
0000
0000
0000
0001
0000
0000
0000
1000
0000
0000
0000
;

//---------------dance-single - Telperion----------------
#NOTES:
     dance-single:
     Telperion:
     Medium:
     6:
     0.380,0.411,0.182,0.348,0.174,270.000,23.000,44.000,0.000,0.000,0.000,0.380,0.411,0.182,0.348,0.174,270.000,23.000,44.000,0.000,0.000,0.000: // measure 0
0000
0000
0000
0000
,  // measure 1
0000
0000
0000
0000
,  // measure 2
0000
0000
0000
0000
,  // measure 3
0000
0000
0000
0000
,  // measure 4
2000
3000
0000
0000
0002
0003
0000
0000
,  // measure 5
2000
3000
0000
0000
0000
0000
0000
0000
,  // measure 6
0002
0003
0000
0000
2000
3000
0000
0000
,  // measure 7
0002
0003
0000
0000
0000
0000
0000
0000
,  // measure 8
1002
0103
2001
0100
,  // measure 9
3100
1002
0103
2001
,  // measure 10
0100
3100
1002
0013
,  // measure 11
2001
0010
3001
1002
,  // measure 12
0013
2001
3010
0100
,  // measure 13
0001
0000
0000
0000
0101
0000
0000
0000
1000
0000
0000
0001
0000
0000
1000
0000
,  // measure 14
0100
0000
0000
0000
1100
0000
0000
0000
0001
0000
0000
1000
0000
0000
0001
0000
,  // measure 15
0100
0000
0000
0000
0101
0000
0000
0000
1000
0000
0000
0010
0000
0000
1000
0000
,  // measure 16
0001
0000
1100
0000
0001
0000
0101
0100
,  // measure 17
0002
0000
0000
0000
2003
0000
0000
3000
0100
0000
0000
0100
0000
0000
0100
0000
,  // measure 18
0000
0000
0010
0000
0000
0000
0001
0000
0000
0000
0100
0000
0000
0100
0000
0000
,  // measure 19
0100
0000
0000
0000
0002
0000
0000
0000
1003
0000
0000
0100
0000
0000
0100
0000
,  // measure 20
0000
0000
0000
1000
0000
0000
0000
0001
0000
0000
0100
0000
0001
0000
0000
0000
,  // measure 21
2000
0000
0000
0000
3100
0000
0000
0000
0010
0000
0000
0100
0000
0000
0100
0000
,  // measure 22
0000
0000
1000
0000
0000
0000
0001
0000
0000
0000
0100
0000
0000
0010
0000
0000
,  // measure 23
1000
0000
0000
0000
0002
0000
0000
0000
0013
0000
0000
0010
0000
0000
0010
0000
,  // measure 24
0000
0000
0000
0001
0000
0000
0000
1000
0000
0000
1000
0000
0100
0000
0000
0000
,  // measure 25
2000
0000
0000
0000
3002
0000
0000
0003
0100
0000
0000
0100
0000
0000
0100
0000
,  // measure 26
0000
0000
0020
0000
0000
0030
1000
0000
0000
0000
0010
0000
0000
0100
0000
0000
,  // measure 27
0001
0000
0000
0000
2000
0000
0000
0000
3001
0000
0000
0010
0000
0000
0010
0000
,  // measure 28
0000
0000
0000
0001
0000
0000
0000
1000
0000
0000
0100
0000
1000
0000
0000
0000
,  // measure 29
0002
0000
0000
0000
0103
0000
0000
0000
0010
0000
0000
0100
0000
0000
0100
0000
,  // measure 30
0000
0000
0002
0000
0000
0003
1000
0000
0000
0000
0100
0000
0000
0010
0000
0000
,  // measure 31
0001
0000
0000
0000
2000
0000
0000
0000
3010
0000
0000
0010
0000
0000
0010
0000
,  // measure 32
0100
0100
0100
0110
,  // measure 33
1001
0000
0000
0000
0000
0000
0000
0010
,  // measure 34
0200
0000
0000
0302
0000
0000
0203
0000
0000
0000
0000
0000
0000
0000
0000
0000
,  // measure 35
1300
0000
0002
0023
,  // measure 36
2030
0000
0000
3000
,  // measure 37
0100
0000
0000
0000
0000
0000
0000
0010
,  // measure 38
0200
0000
0000
2300
0000
0000
3200
0000
0000
0000
0000
0000
0000
0000
0000
0000
,  // measure 39
0301
0000
1000
0010
,  // measure 40
0001
1000
1000
0110
,  // measure 41
1002
0000
0003
0000
0010
0000
0100
0000
1000
0000
0000
0001
0000
0000
1000
0000
,  // measure 42
0000
0000
0010
0000
0000
0000
0100
0000
0000
0000
0001
0000
0000
0100
0000
0000
,  // measure 43
0010
0000
0000
0000
0010
0000
0100
0000
0001
0000
0000
1000
0000
0000
0001
0000
,  // measure 44
0000
0000
0010
0000
0000
0000
0000
0100
0000
0000
0100
0000
1000
0000
0000
0000
,  // measure 45
2001
0000
3000
0000
0010
0000
0100
0000
0001
0000
0000
1000
0000
0000
0001
0000
,  // measure 46
0000
0000
0010
0000
0000
0000
0100
0000
0000
0000
0010
0000
0000
0001
0000
0000
,  // measure 47
1000
0001
0000
0100
0001
1000
0000
0010
,  // measure 48
0000
0000
1000
0000
0100
0000
0000
0010
0000
0010
0000
0000
0100
0000
0000
0000
,  // measure 49
1001
1000
0010
1000
0000
0001
1000
0001
,  // measure 50
0000
0100
0001
0100
0010
0100
0001
0100
,  // measure 51
0000
1000
0100
0001
1000
0001
1000
0001
,  // measure 52
0010
0000
0100
0000
0000
0000
0100
0000
1000
0000
0100
0000
0020
0000
0000
0030
,  // measure 53
1001
0001
0100
0001
0000
1000
0010
1000
,  // measure 54
0000
0100
0010
0100
1000
0100
0010
0100
,  // measure 55
0000
0001
0100
1000
0010
1000
0100
0000
,  // measure 56
0010
0000
0000
0010
0001
0000
0000
0001
1000
0000
0000
1000
0020
0000
0000
0030
,  // measure 57
0200
0000
0000
0000
0302
0000
0000
0000
1003
0000
0000
1000
0000
0000
1000
0000
,  // measure 58
0000
0000
0100
0000
0000
0000
0010
0000
0000
0000
0001
0000
0000
0001
0000
0000
,  // measure 59
1001
0000
0000
0000
2000
0000
0000
0000
3010
0000
0000
0100
0000
0000
0100
0000
,  // measure 60
0000
0000
0000
0001
0000
0000
0000
1000
0000
0000
0100
0000
0010
0000
0000
0000
,  // measure 61
0210
0000
0000
0000
1300
0000
0000
0000
0001
0000
0000
0001
0000
0000
0001
0000
,  // measure 62
0000
0000
0100
0000
0000
0000
0010
0000
0000
0000
1000
0000
0000
1000
0000
0000
,  // measure 63
1001
0000
0000
0000
0001
0000
0000
0000
0010
0000
0000
0001
0000
0000
0100
0000
,  // measure 64
0000
0000
0000
0010
0000
0000
0000
1000
0000
0000
0100
0000
0002
0000
0000
0000
,  // measure 65
0003
0000
0000
0000
;

//---------------dance-single - Telperion----------------
#NOTES:
     dance-single:
     Telperion:
     Easy:
     4:
     0.218,0.256,0.079,0.055,0.067,176.000,10.000,7.000,0.000,0.000,0.000,0.218,0.256,0.079,0.055,0.067,176.000,10.000,7.000,0.000,0.000,0.000: // measure 0
0000
0000
0000
0000
,  // measure 1
0000
0000
0000
0000
,  // measure 2
0000
0000
0000
0000
,  // measure 3
0000
0000
0000
0000
,  // measure 4
1000
0000
1000
0000
,  // measure 5
1000
0000
0000
0000
,  // measure 6
0001
0000
0001
0000
,  // measure 7
0001
0000
0000
0000
,  // measure 8
1000
1000
0001
0000
,  // measure 9
0000
0001
0001
1000
,  // measure 10
0000
0000
1000
1000
,  // measure 11
0001
0000
0000
0001
,  // measure 12
1000
0001
0000
0000
,  // measure 13
1000
0010
1000
0100
,  // measure 14
0001
0010
0001
0100
,  // measure 15
1000
0010
1000
0100
,  // measure 16
0001
1000
0001
0100
,  // measure 17
0010
0000
0000
0000
1000
0000
0000
0001
,  // measure 18
0000
0000
0000
0000
0000
0001
0000
0000
,  // measure 19
0010
0000
0000
0000
0001
0000
0000
1000
,  // measure 20
0000
0000
0000
0000
0000
1000
0000
0000
,  // measure 21
0010
0000
0000
0000
0100
0000
0000
0001
,  // measure 22
0000
0000
0000
0000
0000
0001
0000
0000
,  // measure 23
0010
0000
0000
0000
0100
0000
0000
1000
,  // measure 24
0000
0000
0000
0000
0000
0001
0000
0000
,  // measure 25
1000
0000
0000
0000
0000
0000
0000
0000
0001
0000
0000
0001
0000
0000
0001
0000
,  // measure 26
0000
0000
0000
0000
0000
0000
0100
0000
0000
0000
0001
0000
0000
0001
0000
0000
,  // measure 27
0001
0000
0000
0000
0000
0000
0000
0000
1000
0000
0000
1000
0000
0000
1000
0000
,  // measure 28
0000
0000
0000
0100
0000
1000
0001
0000
,  // measure 29
0010
0000
0000
0000
0001
0000
0000
0000
1000
0000
0000
1000
0000
0000
1000
0000
,  // measure 30
0000
0000
0000
0000
0000
0000
0100
0000
0000
0000
1000
0000
0000
1000
0000
0000
,  // measure 31
1000
0000
0000
0000
0000
0000
0000
0000
0001
0000
0000
0001
0000
0000
0001
0000
,  // measure 32
0100
0100
0200
0300
,  // measure 33
1001
0000
0000
0000
,  // measure 34
0001
0010
0100
0000
,  // measure 35
1000
0000
0020
0230
,  // measure 36
0302
0000
0003
0000
,  // measure 37
1000
0000
0000
0000
,  // measure 38
1000
0010
0100
0000
,  // measure 39
0002
0000
0023
0230
,  // measure 40
1300
0001
0001
1001
,  // measure 41
0110
0000
0000
0000
0000
0000
0000
0000
0001
0000
0000
1000
0000
0000
0001
0000
,  // measure 42
0000
0000
0000
0000
,  // measure 43
0110
0000
0000
0000
0000
0000
0000
0000
1000
0000
0000
0001
0000
0000
1000
0000
,  // measure 44
0000
0000
0000
0000
,  // measure 45
0011
0000
0000
0000
0000
0000
0000
0000
1000
0000
0000
0001
0000
0000
0100
0000
,  // measure 46
0000
0000
0000
0000
,  // measure 47
1010
0000
0000
0000
0000
0000
0000
0000
0001
0000
0000
1000
0000
0000
0100
0000
,  // measure 48
0000
1000
0000
0000
0001
0000
0100
0000
,  // measure 49
0110
1000
0001
1000
,  // measure 50
0100
0010
0100
0010
,  // measure 51
0001
0001
1000
1000
,  // measure 52
0010
0100
0001
0010
,  // measure 53
1001
0001
1000
0001
,  // measure 54
0100
0010
0100
0010
,  // measure 55
1000
0001
1000
1000
,  // measure 56
0100
0100
0100
0010
,  // measure 57
1001
0000
0000
0000
0000
0000
0000
0000
1000
0000
0000
1000
0000
0000
1000
0000
,  // measure 58
0000
0000
0000
0000
0000
0000
0010
0000
0000
0000
1000
0000
0000
0001
0000
0000
,  // measure 59
0100
0000
0000
0000
0000
0000
0000
0000
0001
0000
0000
0001
0000
0000
0001
0000
,  // measure 60
0000
0000
0000
0000
0000
1000
0001
0000
,  // measure 61
0110
0000
0000
0000
0000
0000
0000
0000
0001
0000
0000
0001
0000
0000
0001
0000
,  // measure 62
0000
0000
0000
0000
0000
0000
0010
0000
0000
0000
0001
0000
0000
1000
0000
0000
,  // measure 63
0100
0000
0000
0000
0000
0000
0000
0000
1000
0000
0000
0010
0000
0000
0100
0000
,  // measure 64
0000
0000
0000
0000
0000
0000
0000
0001
0000
0000
1000
0000
0100
0000
0000
0000
;

//---------------dance-single - Telperion----------------
#NOTES:
     dance-single:
     Telperion:
     Beginner:
     1:
     0.071,0.131,0.032,0.008,0.000,58.000,4.000,1.000,4.000,0.000,0.000,0.071,0.131,0.032,0.008,0.000,58.000,4.000,1.000,4.000,0.000,0.000: // measure 0
0000
0000
0000
0000
,  // measure 1
0000
0000
0000
0000
,  // measure 2
0000
0000
0000
0000
,  // measure 3
0000
0000
0000
0000
,  // measure 4
1000
0000
1000
0000
,  // measure 5
1000
0000
0000
0000
,  // measure 6
0001
0000
0001
0000
,  // measure 7
0001
0000
0000
0000
,  // measure 8
1000
0000
1000
0000
,  // measure 9
0000
0001
0000
0001
,  // measure 10
0000
0000
1000
0000
,  // measure 11
1000
0000
0000
0001
,  // measure 12
0000
0001
0000
0000
,  // measure 13
0010
0000
0010
0000
,  // measure 14
0010
0000
0010
0000
,  // measure 15
0100
0000
0100
0000
,  // measure 16
0100
0000
0000
0000
,  // measure 17
1000
0000
0000
0000
,  // measure 18
0000
0000
0000
0000
,  // measure 19
0001
0000
0000
0000
,  // measure 20
0000
0000
0000
0000
,  // measure 21
0100
0000
0000
0000
,  // measure 22
0000
0000
0000
0000
,  // measure 23
0100
0000
0000
0000
,  // measure 24
0000
0000
0000
0000
,  // measure 25
0001
0000
0000
0000
,  // measure 26
0000
0000
0000
0000
,  // measure 27
1000
0000
0000
0000
,  // measure 28
0000
0000
0000
0000
,  // measure 29
0100
0000
0000
0000
,  // measure 30
0000
0000
0000
0000
,  // measure 31
0100
0000
0000
0000
,  // measure 32
0100
0100
0200
0300
,  // measure 33
0100
0000
0000
0000
,  // measure 34
1000
0000
0000
0000
,  // measure 35
0001
0000
0000
0000
,  // measure 36
0100
0000
0000
0000
,  // measure 37
0100
0000
0000
0000
,  // measure 38
0001
0000
0000
0000
,  // measure 39
1000
0000
0000
0000
,  // measure 40
0100
0100
0100
0000
,  // measure 41
0110
0000
0000
0000
,  // measure 42
0000
0000
0000
0000
,  // measure 43
0110
0000
0000
0000
,  // measure 44
0000
0000
0000
0000
,  // measure 45
1001
0000
0000
0000
,  // measure 46
0000
0000
0000
0000
,  // measure 47
1001
0000
0000
0000
,  // measure 48
0000
0000
0000
0000
,  // measure 49
0001
0000
0000
0000
,  // measure 50
0100
0000
0000
0000
,  // measure 51
0001
0000
0000
0000
,  // measure 52
0010
0000
0000
0000
,  // measure 53
1000
0000
0000
0000
,  // measure 54
0100
0000
0000
0000
,  // measure 55
1000
0000
0000
0000
,  // measure 56
0010
0000
0000
0000
,  // measure 57
0100
0000
0000
0000
,  // measure 58
0000
0000
0000
0000
,  // measure 59
0100
0000
0000
0000
,  // measure 60
0000
0000
0000
0000
,  // measure 61
0010
0000
0000
0000
,  // measure 62
0000
0000
0000
0000
,  // measure 63
0010
0000
0000
0000
,  // measure 64
0000
0000
0000
0000
,  // measure 65
M00M
0000
0000
0000
,  // measure 66
0000
M00M
0000
0000
0000
0000
0000
0000
;
