#TITLE:dirtygrrrls dirtybois;
#SUBTITLE:;
#ARTIST:Faderhead;
#TITLETRANSLIT:;
#SUBTITLETRANSLIT:;
#ARTISTTRANSLIT:;
#GENRE:;
#CREDIT:;
#MENUCOLOR:ddryellow;
#METERTYPE:DDR;
#BANNER:dirtygrrrls dirtybois.png;
#BACKGROUND:dirtygrrrls dirtybois-bg.png;
#LYRICSPATH:;
#CDTITLE:./CDTITLES/DanceDanceRevolution SC2012.png;
#MUSIC:dirtygrrrls dirtybois.mp3;
#OFFSET:-1.969;
#SAMPLESTART:20.200;
#SAMPLELENGTH:15.000;
#SELECTABLE:YES;
#LISTSORT:;
#BPMS:0.000=130.000;
#STOPS:;
#BGCHANGES:;
#ATTACKS:;

//---------------dance-single - ----------------
#NOTES:
     dance-single:
     :
     Hard:
     8:
     0.514,0.432,0.281,0.025,0.054: // measure 1
0010
0100
0001
0000
1000
0010
0100
0000
,  // measure 2
0001
0010
1000
0001
1000
0010
0001
0000
,  // measure 3
0100
0010
1000
0000
0100
0010
0001
0000
,  // measure 4
1000
0100
0001
0010
1000
0010
0001
0000
,  // measure 5
0100
1000
0001
0000
0100
0010
1000
0000
,  // measure 6
0001
0100
1000
0100
0001
1000
0100
0000
,  // measure 7
0010
0100
1000
0000
0001
0100
0010
0000
,  // measure 8
1000
0010
0100
0010
1000
0001
0100
0000
,  // measure 9
0010
0100
0001
0000
0001
0100
0010
0000
,  // measure 10
0100
0010
1000
0001
1000
0010
0100
0000
,  // measure 11
0001
0100
0010
0000
1000
0010
0100
0000
,  // measure 12
0001
0100
1000
0100
0001
0010
1000
0000
,  // measure 13
1000
0010
0001
0000
0001
0100
1000
0000
,  // measure 14
1000
0010
0001
0010
1000
0100
0001
0000
,  // measure 15
0001
0010
0100
0000
1000
0100
0010
0002
,  // measure 16
0000
0000
1003
0020
0000
0000
0230
0000
,  // measure 17
0310
1000
0001
0000
0100
0010
1000
0000
,  // measure 18
0001
0010
0100
0010
0001
1000
0100
0000
,  // measure 19
1000
0010
0100
0000
0001
1000
0010
0000
,  // measure 20
1000
0100
0001
0100
1000
0010
0001
0010
,  // measure 21
1000
0010
0100
0000
0001
0100
0110
0000
,  // measure 22
1000
0100
0010
0001
0010
0100
1000
0000
,  // measure 23
0010
0100
0101
0000
1000
0010
0110
0000
,  // measure 24
1000
0010
0100
0001
0100
0010
1000
0000
,  // measure 25
0001
1000
1010
0000
0100
0001
0101
0000
,  // measure 26
1000
0100
0010
0100
0001
0100
0010
0000
,  // measure 27
0001
0100
0110
0000
1000
0100
0101
0000
,  // measure 28
0001
0010
0100
0010
0001
1000
0001
0000
,  // measure 29
0100
0010
0000
1000
0100
0010
0011
0000
,  // measure 30
0001
1000
0000
0010
0100
0001
1001
0000
,  // measure 31
1000
0010
0000
0100
0001
1000
1010
0000
,  // measure 32
0100
0010
1000
0001
1000
0010
0100
0000
,  // measure 33
0001
0010
0000
0100
1000
0010
0110
0000
,  // measure 34
1000
0010
0000
0100
0001
1000
1010
0000
,  // measure 35
0010
0100
0000
0001
1000
0010
0110
0000
,  // measure 36
1000
0100
0001
0010
0001
0100
1000
0000
,  // measure 37
0001
0010
0110
0000
1000
0100
0110
0000
,  // measure 38
0001
0100
0010
1000
0010
0100
0001
0000
,  // measure 39
1000
0100
0101
0000
0001
0100
1100
0000
,  // measure 40
1000
0100
0010
0001
0010
0100
1000
0000
,  // measure 41
0001
0100
1010
0000
1000
0010
0101
0000
,  // measure 42
1000
0100
0001
0010
1000
0100
0001
0000
,  // measure 43
0100
1000
0010
0000
0100
0001
1000
0000
,  // measure 44
0010
0100
0001
0100
0010
1000
0001
0000
,  // measure 45
1000
1100
0000
0001
0010
0100
1100
0000
,  // measure 46
1000
1010
0000
0001
0100
0010
1001
0000
,  // measure 47
0001
0101
0000
1000
0010
0100
0101
0000
,  // measure 48
0100
0110
0000
1000
0100
0010
1010
0000
,  // measure 49
0001
1001
0000
0100
0010
1000
1001
0000
,  // measure 50
1000
1100
0000
0001
0100
0010
1010
0000
,  // measure 51
1000
1001
0000
0100
0010
1000
1100
0000
,  // measure 52
0001
0010
0000
0100
1000
0001
0010
0000
,  // measure 53
0100
1000
0010
0000
0100
0001
1001
0000
,  // measure 54
0100
0010
1000
0000
0001
0000
0000
0000
,  // measure 55
0001
0000
0001
0000
0100
0010
0000
0000
1000
0000
1000
0000
0100
0010
0000
0000
,  // measure 56
0001
0000
0001
0000
1000
0100
0000
0000
0010
0000
0010
0000
0001
0100
0000
0000
,  // measure 57
0010
1000
0001
0000
0100
0010
1000
0000
,  // measure 58
0001
0000
0010
0000
0100
0010
0000
0000
0001
0000
1000
0000
0010
1000
0000
0000
,  // measure 59
0010
0000
0100
0000
0001
0100
0000
0000
1000
0000
0010
0000
0100
0010
0000
0000
,  // measure 60
0100
0000
0001
0000
1000
0010
0000
0000
0100
0000
0010
0000
1000
0001
0000
0000
,  // measure 61
0100
0000
0010
0000
1000
0010
0000
0000
0100
0000
0001
0000
1000
0001
0000
0000
,  // measure 62
0100
0000
0010
0000
1000
0010
0000
0000
0100
0000
0000
0000
0000
0000
0000
0000
;

//---------------dance-single - ----------------
#NOTES:
     dance-single:
     :
     Medium:
     6:
     0.349,0.305,0.124,0.000,0.000: // measure 1
1000
0010
1000
0000
0001
0000
0001
0000
,  // measure 2
0100
0010
0100
0000
0010
0000
0010
0000
,  // measure 3
1000
1000
0001
0001
,  // measure 4
0100
0010
0100
0000
0010
0000
1000
0000
,  // measure 5
0001
0000
0100
0000
0010
0100
0010
0000
,  // measure 6
1000
0100
0001
0100
,  // measure 7
1000
0100
1000
0000
0010
0000
0100
0000
,  // measure 8
0010
0100
0010
0000
1000
0000
0001
0000
,  // measure 9
1000
0001
1000
0000
0001
0000
1000
0000
,  // measure 10
0010
0100
0010
0000
0100
0000
0010
0000
,  // measure 11
1000
0001
1000
0000
0001
0100
0001
0000
,  // measure 12
0010
0100
0010
1000
,  // measure 13
0001
0000
1000
0000
,  // measure 14
0001
0001
0100
0100
,  // measure 15
0010
0010
1000
1000
,  // measure 16
0001
0010
0100
1000
,  // measure 17
0001
0010
0100
0000
1000
0000
0100
0000
,  // measure 18
1000
0100
1000
0000
0100
0000
0010
0000
,  // measure 19
0100
0010
0100
0000
0010
0000
0100
0000
,  // measure 20
0010
0100
0001
0000
0100
0000
0001
0000
,  // measure 21
0100
0001
0100
0000
0010
0100
0010
0000
,  // measure 22
1000
0100
0010
0001
,  // measure 23
1000
0100
1000
0010
,  // measure 24
0100
0010
1000
0001
,  // measure 25
1000
0000
0001
0000
0100
0001
0100
0000
,  // measure 26
0010
0100
0010
1000
,  // measure 27
0001
0000
1000
0000
0001
0100
0001
0000
,  // measure 28
1000
0000
0010
0000
0100
0010
0100
0000
,  // measure 29
0001
1000
0010
0110
,  // measure 30
1000
0100
1000
1001
,  // measure 31
0001
0100
0010
0110
,  // measure 32
1000
0100
1000
0000
0001
0100
0001
0000
,  // measure 33
0010
0100
0010
0110
,  // measure 34
1000
0100
1000
1100
,  // measure 35
0001
0010
0001
0011
,  // measure 36
0010
0100
0010
0110
,  // measure 37
1000
0100
0000
0000
1000
0100
1000
0000
,  // measure 38
0001
0100
0001
0000
0010
0100
0010
0000
,  // measure 39
1000
0100
0010
0001
,  // measure 40
1000
0100
1000
0001
,  // measure 41
0100
0000
0010
0000
0100
0010
0100
0000
,  // measure 42
0010
0100
0001
1000
,  // measure 43
0001
1000
0001
0000
1000
0000
0001
0000
,  // measure 44
0100
0001
0100
0000
0001
0100
0001
0000
,  // measure 45
0100
0010
0100
0110
,  // measure 46
1000
0010
1000
1010
,  // measure 47
0001
0100
0001
0101
,  // measure 48
1000
0100
1000
1100
,  // measure 49
0010
0100
0001
0101
,  // measure 50
0010
1000
0100
1100
,  // measure 51
0100
0001
1000
1001
,  // measure 52
0010
0100
0001
0101
,  // measure 53
1000
0100
0010
0000
0001
0010
0100
0000
,  // measure 54
1000
0100
0010
0000
0001
0000
1000
0000
,  // measure 55
0010
1000
0100
0000
1000
0000
0001
0000
,  // measure 56
1000
0001
1000
0000
0010
0100
0010
0000
,  // measure 57
0100
0000
0001
0000
1000
0001
1000
0000
,  // measure 58
0010
0000
0100
0000
0010
0100
0010
0000
,  // measure 59
1000
0000
0100
0000
1000
0001
0000
1000
,  // measure 60
0000
0000
0001
1000
,  // measure 61
0010
0000
0100
0000
0010
0100
0010
0000
,  // measure 62
1000
0001
1000
0000
;

//---------------dance-single - ----------------
#NOTES:
     dance-single:
     :
     Beginner:
     3:
     0.184,0.203,0.000,0.066,0.000: // measure 1
1000
1000
0000
0000
,  // measure 2
0010
0010
0000
0000
,  // measure 3
0100
0100
0000
0000
,  // measure 4
0001
0001
1000
0000
,  // measure 5
0010
0000
0100
0000
,  // measure 6
0010
0000
1000
0000
,  // measure 7
0001
0001
0000
0000
,  // measure 8
1000
1000
0010
0000
,  // measure 9
0100
0000
0100
0000
,  // measure 10
0001
0000
0001
0000
,  // measure 11
1000
0000
1000
0000
,  // measure 12
0010
0000
0010
0000
,  // measure 13
0100
0000
0001
0000
,  // measure 14
1000
0000
0000
0000
,  // measure 15
0010
0000
0100
0000
,  // measure 16
0002
0003
2000
3000
,  // measure 17
0020
0030
0000
0000
,  // measure 18
0200
0000
0300
0002
,  // measure 19
2003
3000
0000
0000
,  // measure 20
0020
0030
0200
0300
,  // measure 21
0001
1000
0001
0000
,  // measure 22
0100
0010
0100
0000
,  // measure 23
0001
0010
0001
0000
,  // measure 24
0100
0010
0100
0000
,  // measure 25
0001
0001
0000
1000
,  // measure 26
0000
0100
0100
0010
,  // measure 27
0000
0001
0000
0001
,  // measure 28
0000
1000
0000
0010
,  // measure 29
0000
0100
0000
0000
,  // measure 30
0010
0100
0010
0000
,  // measure 31
1000
0001
1000
0000
,  // measure 32
0010
0100
0010
0000
,  // measure 33
1000
0100
0010
0000
,  // measure 34
0001
0010
0100
0000
,  // measure 35
0001
1000
0001
0000
,  // measure 36
0010
0100
0010
0000
,  // measure 37
1000
0100
0001
0100
,  // measure 38
1000
0000
0010
0100
,  // measure 39
0010
0000
0001
1000
,  // measure 40
0001
0000
0100
0100
,  // measure 41
0000
0000
0010
0010
,  // measure 42
0000
1000
1000
1000
,  // measure 43
0000
0001
0000
0001
,  // measure 44
0000
0100
0000
0100
,  // measure 45
0000
0010
0000
1000
,  // measure 46
0000
0000
0001
0000
,  // measure 47
1000
0000
0001
0000
,  // measure 48
0010
0000
0001
0000
,  // measure 49
0001
0010
0100
0000
,  // measure 50
1000
0100
0010
0000
,  // measure 51
0001
0100
0010
0000
,  // measure 52
1000
0001
0100
0000
,  // measure 53
0010
1000
0001
0000
,  // measure 54
0100
0010
1000
0000
,  // measure 55
0001
0100
0000
0000
,  // measure 56
0010
1000
0000
0000
,  // measure 57
1000
0010
0000
0000
,  // measure 58
0100
0001
0000
0001
,  // measure 59
0100
0000
0010
0000
,  // measure 60
1000
0000
0001
0000
,  // measure 61
0100
0000
0010
1000
,  // measure 62
0001
0000
0100
0000
;

//---------------dance-single - ----------------
#NOTES:
     dance-single:
     :
     Easy:
     5:
     0.297,0.279,0.140,0.000,0.000: // measure 1
1000
0100
1000
0000
,  // measure 2
0001
0010
0001
0000
,  // measure 3
1000
0100
0001
0100
,  // measure 4
1000
0000
0010
0010
,  // measure 5
0100
0100
0001
0001
,  // measure 6
1000
1000
0010
0010
,  // measure 7
0000
0100
0000
0001
,  // measure 8
1000
1000
0100
0100
,  // measure 9
1000
0010
0100
0010
,  // measure 10
1000
0001
0100
0010
,  // measure 11
0100
0001
0000
1000
,  // measure 12
0000
0010
0000
0100
,  // measure 13
0000
0000
0000
0000
,  // measure 14
0010
1000
0001
1000
,  // measure 15
0010
0100
0001
0100
,  // measure 16
0010
1000
0100
0001
,  // measure 17
0100
1000
0001
0010
,  // measure 18
1000
0010
0001
0010
,  // measure 19
0100
1000
0100
0010
,  // measure 20
0001
0010
0100
1000
,  // measure 21
1000
0100
0001
0100
,  // measure 22
1000
0010
0001
1010
,  // measure 23
0001
0100
1000
0100
,  // measure 24
0001
0010
1000
1010
,  // measure 25
0001
0100
0010
1100
,  // measure 26
0001
0010
0100
0110
,  // measure 27
0001
0100
0010
0100
,  // measure 28
0001
1000
0010
1010
,  // measure 29
1000
0100
0001
1001
,  // measure 30
0001
0100
1000
1100
,  // measure 31
1000
0010
0100
0110
,  // measure 32
0001
0100
1000
0100
,  // measure 33
0001
0010
0100
1000
,  // measure 34
0001
0010
0100
0010
,  // measure 35
0001
1000
0100
1000
,  // measure 36
0010
0100
0010
1000
,  // measure 37
0001
0100
0010
0110
,  // measure 38
1000
0010
0100
0110
,  // measure 39
0001
0100
0010
0100
,  // measure 40
0010
1000
0010
1000
,  // measure 41
0001
0100
0001
1001
,  // measure 42
0010
0100
0001
0100
,  // measure 43
0010
1000
0100
1000
,  // measure 44
0001
0100
0001
1000
,  // measure 45
0010
0100
0010
1010
,  // measure 46
0100
0010
0100
0110
,  // measure 47
0001
1000
0001
1001
,  // measure 48
0100
0001
0100
0101
,  // measure 49
0001
1000
0010
1000
,  // measure 50
0001
0100
0010
0100
,  // measure 51
1000
0001
1000
0001
,  // measure 52
0100
0010
0100
0001
,  // measure 53
1000
1000
0100
0100
,  // measure 54
1000
1000
0010
0010
,  // measure 55
0100
0100
0001
0001
,  // measure 56
1000
1000
0100
0100
,  // measure 57
0010
0010
0001
0001
,  // measure 58
1001
1001
0010
0100
,  // measure 59
0010
1000
0001
0100
,  // measure 60
0010
0100
0010
1000
,  // measure 61
0010
0100
0010
0100
,  // measure 62
0001
1000
0001
0000
;
