#TITLE:Ass And Titties;
#SUBTITLE:;
#ARTIST:DJ Assault;
#TITLETRANSLIT:;
#SUBTITLETRANSLIT:;
#ARTISTTRANSLIT:;
#GENRE:;
#CREDIT:;
#BANNER:ass-banner.png;
#BACKGROUND:ass-bg.png;
#LYRICSPATH:;
#CDTITLE:;
#MUSIC:Ass and Titties.mp3;
#OFFSET:-0.475;
#SAMPLESTART:0.475;
#SAMPLELENGTH:19.524;
#SELECTABLE:YES;
#BPMS:0.000=147.511
;
#STOPS:
;
#BGCHANGES:;
#KEYSOUNDS:;
#ATTACKS:;

//---------------dance-single - ----------------
#NOTES:
     dance-single:
     :
     Hard:
     8:
     0.606,0.607,0.457,0.120,0.207,337.000,42.000,11.000,0.000,0.000,0.000,0.606,0.607,0.457,0.120,0.207,337.000,42.000,11.000,0.000,0.000,0.000: // measure 0
0000
0000
0000
0000
,  // measure 1
0000
0000
0000
0000
,  // measure 2
1002
0000
1003
0000
0010
0100
0010
0100
,  // measure 3
0010
0000
1100
0000
0100
1000
0100
0000
,  // measure 4
0010
0000
0000
0010
0100
0000
1000
0000
0100
0000
1000
0000
0010
0000
0000
0000
,  // measure 5
0010
0000
0000
0100
0001
0000
0010
0000
0001
0000
0100
0000
0010
0000
0000
0000
,  // measure 6
0010
0000
0000
0010
0100
0000
0001
0000
0000
0000
0010
0000
0001
0000
1000
0010
,  // measure 7
0100
0000
0010
0100
0000
0100
0001
0010
,  // measure 8
0002
0000
0023
0000
,  // measure 9
2030
0000
3010
0100
0002
0000
0000
0000
,  // measure 10
0203
0000
0310
0000
0001
0010
0001
0100
,  // measure 11
0010
0000
0000
0010
1000
0000
0100
0000
1000
0000
0000
0000
0010
0000
0000
0000
,  // measure 12
1000
0000
0001
0100
0001
0000
0100
0000
0010
0000
1000
0000
0100
0000
1000
0000
,  // measure 13
0010
0000
1000
0100
1000
0000
0100
0000
0010
0000
0001
0000
0010
0000
0001
0000
,  // measure 14
0100
0000
0010
0100
0010
0000
0100
0000
0001
0000
0010
0000
0001
0000
0100
0000
,  // measure 15
0010
0000
1000
0100
1000
0000
0010
0000
0100
0000
0001
0000
1000
0000
0010
0000
,  // measure 16
0200
0000
0320
0000
2030
0000
3000
0100
,  // measure 17
1000
0010
0100
0001
0000
0100
0010
0100
,  // measure 18
0010
0000
0000
0001
0000
0000
0010
0000
0000
0000
0000
0000
0100
0000
0000
0000
,  // measure 19
1000
0100
0000
1000
0000
0100
0001
0000
,  // measure 20
1000
0000
0000
0010
0001
0000
0000
0000
,  // measure 21
1000
0000
0000
0100
0001
0000
0000
0000
,  // measure 22
0001
0000
0000
0010
1000
0000
0000
0000
,  // measure 23
1000
0000
0000
0001
0100
0000
1000
0000
,  // measure 24
0001
0000
0000
0001
0100
0000
0000
0100
0010
0000
0000
0010
1000
0000
0000
1000
,  // measure 25
0100
0000
0000
0100
0010
0000
0000
0010
0001
0000
0000
0001
0100
0000
0000
0100
,  // measure 26
0010
0000
0000
0010
0100
0000
0000
0100
0001
0000
0000
0001
0010
0000
0000
0010
,  // measure 27
0100
0000
0000
0100
1000
0000
0000
1000
0010
0000
0100
0000
0010
0000
0100
0000
,  // measure 28
0010
0000
0100
0000
0001
1000
0001
0000
0100
0000
0000
0000
0010
0000
0100
0000
,  // measure 29
0010
1000
0100
1000
0000
0000
0100
0000
,  // measure 30
0010
0000
0001
0000
0010
0000
0100
0000
1000
0100
1000
0000
0001
0000
0100
0000
,  // measure 31
0010
1000
0100
1000
0000
0001
0100
0010
,  // measure 32
0100
0000
0000
0110
0110
0110
0000
1100
,  // measure 33
1100
0000
0000
0011
0011
0011
0000
0101
,  // measure 34
0101
0000
0000
0110
0110
0110
0000
1001
,  // measure 35
1001
0000
0000
0110
0110
0110
0000
0000
,  // measure 36
1010
0010
0101
0001
0011
0001
0101
0010
,  // measure 37
0110
1010
1100
0110
,  // measure 38
0011
0001
0101
0010
0110
0010
1010
0010
,  // measure 39
0110
1010
0101
1001
,  // measure 40
1100
0000
0101
0000
0011
0000
0000
0001
,  // measure 41
0100
0010
1000
0100
0000
0000
0010
0000
,  // measure 42
0110
0000
0000
0011
0000
0000
1100
0000
0000
0000
0000
0000
0010
0000
0100
0000
,  // measure 43
0010
1000
0010
0100
0000
0001
0010
0000
,  // measure 44
0010
0000
0000
0010
0100
0000
1000
0000
0010
0000
1000
0000
0100
0000
0010
0000
,  // measure 45
0001
0000
0000
0001
0100
0000
0001
0000
0100
0000
0001
0000
0010
0000
0001
0000
,  // measure 46
0100
0000
0000
0100
0010
0000
1000
0000
0100
0000
1000
0000
0010
0000
0100
0000
,  // measure 47
0010
0000
0000
0010
0100
0000
0001
0000
0100
0000
0010
0000
1000
0000
0000
0000
,  // measure 48
1000
1000
0010
0010
0100
0100
0001
0001
,  // measure 49
0010
0010
0001
0001
0100
0100
0010
0010
,  // measure 50
2000
0000
3200
0000
0310
0001
0010
0001
,  // measure 51
0100
0010
0100
0010
0100
0010
0100
0000
0010
0000
0100
0000
1000
0000
0000
0000
,  // measure 52
0100
0000
0000
0100
0010
0000
1000
0000
0000
0000
0010
0000
0100
0000
0000
0000
,  // measure 53
0100
0000
0000
0100
0001
0000
0010
0000
0000
0000
0100
0000
0010
0000
0000
0000
,  // measure 54
1000
0000
0000
1000
0010
0000
0001
0000
0000
0000
0010
0000
0100
0000
0000
0000
,  // measure 55
0100
0000
0000
0100
0010
0000
1000
0000
0000
0000
0010
0000
0001
0000
0000
0000
;

//---------------dance-single - Blank----------------
#NOTES:
     dance-single:
     :
     Medium:
     6:
     0.364,0.488,0.196,0.065,0.000,210.000,18.000,6.000,0.000,0.000,0.000,0.364,0.488,0.196,0.065,0.000,210.000,18.000,6.000,0.000,0.000,0.000:
0000
0000
0000
0000
,
0000
0000
0000
0000
,
0001
1001
1000
1001
,
0010
0000
0000
0100
0000
0000
0010
0000
,
0100
0000
0100
0001
0100
0000
0000
0000
,
0010
1000
0100
0000
,
2000
0000
0000
0010
0000
0000
3100
0000
,
0002
0000
0000
0100
0000
0000
0013
0000
,
1000
0100
1000
0010
,
1000
0000
0010
0100
0010
0000
0100
0000
,
0001
0001
1000
1000
,
0001
0000
0000
1000
0000
0000
0010
0000
,
0110
0110
1001
1001
,
0110
0110
1001
1001
,
0001
1000
0001
1000
,
0010
0100
0010
0100
,
0010
0000
1000
0000
0100
0000
0000
1000
,
0010
0000
0100
0010
0000
0000
1000
0000
,
0010
0000
0000
0100
0000
0000
0001
0000
,
0010
0000
0000
0001
0000
0100
0001
0000
,
0020
0000
0000
0001
0001
0000
0030
0000
,
0002
0000
0000
1000
1000
0000
0003
0000
,
2000
0000
0000
0010
0010
0000
3000
0000
,
0200
0000
0000
0001
0001
0000
0300
0000
,
0001
0001
0100
0100
,
0001
0010
0001
0100
,
0010
0100
0010
0000
1000
0100
1000
0000
,
0010
0100
0010
1000
0010
0000
0100
0000
,
0001
0001
0010
0000
,
0001
0100
0001
0100
0000
0000
0010
0000
,
0100
0010
0100
0000
0010
0000
1000
0000
,
0001
0000
0000
1000
0000
0000
0001
0000
,
0100
0000
0000
0010
0100
0000
0000
0010
,
1000
0000
0000
0100
1000
0000
0000
1000
,
0010
0000
0000
0100
0010
0000
0000
0100
,
0001
0000
0000
0010
0001
0000
0100
0000
,
0010
0010
0100
0100
0010
0010
1000
1000
,
0001
0100
0001
0010
,
0001
0001
0100
0100
0010
0010
1000
1000
,
0100
1000
0010
0100
,
0010
0010
1000
0000
,
0001
0000
0000
0100
0000
0000
0001
0000
,
0011
0000
0000
1100
0000
0000
0010
0000
,
0110
0000
0000
1001
0000
0000
0100
0000
,
1000
0000
0000
0010
0100
0000
0000
0000
,
0010
0000
0000
1000
0100
0000
0000
0000
,
0010
0000
0000
0001
0010
0000
0000
0000
,
0100
0000
0000
0010
0100
0000
0000
0000
,
1000
1000
0001
0001
,
0100
0010
0100
0010
,
1100
0000
0011
0000
1000
0010
1000
0000
,
1010
0000
0101
0000
0001
0100
0001
0000
,
0010
0000
0000
0001
0000
0000
0100
0000
,
0010
0000
0000
0100
0000
0000
0010
0000
,
0100
0000
0000
0010
0000
0000
1000
0000
,
0100
0000
0000
1000
0000
0000
0100
0000
,
0010
0000
0000
0000
;

//---------------dance-single - Blank----------------
#NOTES:
     dance-single:
     :
     Easy:
     4:
     0.269,0.488,0.131,0.000,0.000,161.000,12.000,0.000,0.000,0.000,0.000,0.269,0.488,0.131,0.000,0.000,161.000,12.000,0.000,0.000,0.000,0.000:
0000
0000
0000
0000
,
0000
0000
0000
0000
,
0010
0000
0010
0000
,
1000
0000
1000
0000
,
0001
1000
0001
0000
,
0010
0000
0010
0000
,
0100
0000
0010
0000
,
0100
0001
0010
0000
,
0001
0000
1000
0000
,
0010
0100
0001
0000
,
0001
0001
1000
1000
,
0010
0100
0010
0000
,
0001
0100
0001
0001
,
1000
0010
1000
1000
,
0100
0010
0100
0100
,
0010
0001
0010
0010
,
0001
1000
1001
0000
,
0010
0100
0110
0000
,
0010
1000
1100
0000
,
0010
0100
0110
0000
,
0001
0000
0001
0000
,
1000
0000
1000
0000
,
0010
0000
0010
0000
,
0100
0000
0100
0000
,
0001
0010
0001
0100
,
0010
0010
1000
1000
,
0010
0100
1000
0100
,
0010
0010
0100
0100
,
0001
0010
0001
0000
,
0100
0000
0001
0000
,
0100
0010
0100
0000
,
0010
1000
0100
0000
,
1000
0000
0001
0000
,
0100
0000
0010
0000
,
0100
0000
0010
0000
,
1000
0000
0001
0000
,
0001
0001
1000
1000
,
0001
0001
1000
1000
,
0010
0010
0100
0100
,
0010
0010
0100
0100
,
0010
1000
0001
0000
,
0100
0001
0010
0000
,
0001
0000
0100
0000
,
0010
1000
0100
0000
,
0010
0000
0001
0001
,
0100
0000
0010
0010
,
1000
0000
0100
0100
,
1000
0000
0010
0010
,
0100
0100
0100
0100
,
0100
0100
0100
0100
,
0110
0110
0110
0110
,
1001
1001
1001
1001
,
0010
0000
0010
0000
,
0100
0000
0100
0000
,
0001
0000
0001
0000
,
0010
0000
0010
0000
,
0100
0000
0000
0000
;

//---------------dance-single - Blank----------------
#NOTES:
     dance-single:
     :
     Beginner:
     3:
     0.177,0.470,0.185,0.000,0.000,97.000,17.000,0.000,0.000,0.000,0.000,0.177,0.470,0.185,0.000,0.000,97.000,17.000,0.000,0.000,0.000,0.000:
0000
0000
0000
0000
,
0000
0000
0000
0000
,
0000
0000
0000
0000
,
0000
0000
0000
0000
,
0001
0000
0000
0000
,
0100
0000
0000
0000
,
0010
0000
0000
0000
,
1000
0000
0000
0000
,
0001
0000
0010
0000
,
0100
0000
1000
0000
,
0010
0000
0010
0000
,
0010
0000
0010
0000
,
0100
0000
0100
0000
,
0100
0000
0100
0000
,
0100
0000
0100
0000
,
0100
0000
0100
0000
,
0001
0000
0000
0000
,
0100
0000
0000
0000
,
0010
0000
0000
0000
,
0100
0000
0000
0000
,
0010
0000
0010
0000
,
1000
0000
1000
0000
,
0001
0000
0001
0000
,
0100
0000
0100
0000
,
0010
0000
0010
0000
,
0010
0000
0010
0000
,
0010
0000
0010
0000
,
0010
0000
0010
0000
,
1000
0000
0000
0000
,
0001
0000
0000
0000
,
0010
0000
0000
0000
,
0100
0000
0000
0000
,
1000
0000
0010
0000
,
1000
0000
0010
0000
,
1000
0000
0010
0000
,
1000
0000
0010
0000
,
0110
0110
0110
0110
,
0110
0110
0110
0110
,
0110
0110
0110
0110
,
0110
0110
0110
0110
,
0110
0000
0000
0000
,
0010
0000
0000
0000
,
0100
0000
0000
0000
,
0001
0000
0000
0000
,
1000
0000
1000
0000
,
0001
0000
0001
0000
,
0010
0000
0010
0000
,
0100
0000
0100
0000
,
0001
0001
0001
0001
,
0001
0001
0001
0000
,
1000
1000
1000
1000
,
1000
1000
1000
0000
,
0010
0000
0000
0000
,
0100
0000
0000
0000
,
0001
0000
0000
0000
;
