#TITLE:Do It Yourself;
#SUBTITLE:;
#ARTIST:Lazybone;
#TITLETRANSLIT:;
#SUBTITLETRANSLIT:;
#ARTISTTRANSLIT:;
#CREDIT:;
#BANNER:;
#BACKGROUND:;
#LYRICSPATH:;
#CDTITLE:;
#MUSIC:Do It Yourself.mp3;
#OFFSET:-9.110;
#SAMPLESTART:67.960;
#SAMPLELENGTH:9.050;
#SELECTABLE:YES;
#BPMS:0.000=212.000;
#STOPS:;
#BGCHANGES:;

//---------------dance-single - ----------------
#NOTES:
     dance-single:
     :
     Hard:
     8:
     0.668,0.679,0.571,0.381,0.000: // measure 1
2002
0003
3010
0100
,  // measure 2
0220
0300
1030
0001
,  // measure 3
2002
3000
0013
0100
,  // measure 4
1100
0000
0000
1000
0001
0000
0100
0000
,  // measure 5
0110
0000
0010
1000
0001
0000
1000
0000
,  // measure 6
0100
0010
0000
2002
0000
0000
3003
0000
,  // measure 7
0101
1100
0101
1001
,  // measure 8
1000
0200
0000
0001
0000
1000
1300
0000
,  // measure 9
1001
0000
0001
0100
0010
0000
0100
0000
,  // measure 10
0001
0000
1000
0100
0000
0010
0001
0000
,  // measure 11
1000
0000
0100
0010
0100
0000
1000
0000
,  // measure 12
0001
0000
0001
0100
1000
0000
0100
0000
,  // measure 13
0001
1000
0100
0001
,  // measure 14
0100
0000
1000
0001
0000
1000
0001
0000
,  // measure 15
1000
0010
0100
0000
0001
0010
0100
0000
,  // measure 16
0010
0000
0001
1000
0000
1000
0001
0000
,  // measure 17
0202
0000
0000
0303
,  // measure 18
2020
0000
0000
3030
,  // measure 19
2002
0000
0000
3003
,  // measure 20
1001
0000
0000
0000
,  // measure 21
1001
0000
1000
0001
0100
0000
0010
0000
,  // measure 22
0100
0000
0001
1000
0000
0001
1000
0000
,  // measure 23
0001
0010
0100
1000
0100
0000
0010
0000
,  // measure 24
0001
0000
1000
0010
0000
0100
0001
0000
,  // measure 25
1000
0100
0010
0100
1000
0000
0001
0000
,  // measure 26
0100
0000
0010
1000
0000
0001
1000
0000
,  // measure 27
0001
0010
0100
0000
0001
0000
0100
0000
,  // measure 28
1000
0000
0001
0100
0000
0010
1000
0000
,  // measure 29
2002
0000
0000
3003
,  // measure 30
0001
0100
0001
0000
1000
0100
1000
0000
,  // measure 31
0001
0010
0100
1000
0001
0000
0110
0000
,  // measure 32
2002
0003
0001
3100
,  // measure 33
0110
0000
0010
0001
0100
0000
0010
2000
,  // measure 34
0000
0001
0100
3001
,  // measure 35
0001
0010
0100
1000
0100
0000
1000
0020
,  // measure 36
0000
1000
0001
1030
,  // measure 37
1001
0000
0001
0010
0100
0000
0001
0000
,  // measure 38
0100
1000
0001
0100
0000
0010
0100
0000
,  // measure 39
0010
1000
0100
0010
0001
0000
0010
0000
,  // measure 40
0001
0100
1000
0100
0000
0010
1000
0000
,  // measure 41
0001
0010
0100
0000
0010
0000
0100
0000
,  // measure 42
0010
0001
1000
0001
0000
1000
0001
0000
,  // measure 43
0100
0010
1000
0100
0010
0000
0100
0000
,  // measure 44
0001
0100
1000
0001
0000
1000
0001
0000
,  // measure 45
0220
0000
0000
0330
,  // measure 46
1000
0010
0100
0010
1000
0010
0100
0010
,  // measure 47
1000
0001
0010
0100
0010
0000
0110
0000
,  // measure 48
2002
3000
1000
0100
,  // measure 49
1003
0000
0001
0010
0100
0000
0010
0002
,  // measure 50
0000
0010
1000
0103
,  // measure 51
0010
1000
0001
1000
0010
0000
0100
0020
,  // measure 52
0000
0001
1000
0130
,  // measure 53
1001
0000
0000
1000
0000
0100
1000
0000
,  // measure 54
0001
0100
0000
0010
0000
1000
0001
0000
,  // measure 55
1000
0000
0100
0010
0100
0000
0010
0001
,  // measure 56
0100
0010
1000
0100
,  // measure 57
0110
0000
0010
0001
1000
0000
0001
0000
,  // measure 58
0100
0010
1000
0100
0000
1000
0001
0000
,  // measure 59
1010
0011
1010
0110
,  // measure 60
0100
0001
0000
2001
0000
0100
3100
0000
,  // measure 61
1001
0000
0001
0010
0100
0010
0100
0000
,  // measure 62
1000
0001
0100
1000
0000
0100
0001
0000
,  // measure 63
1001
0000
1000
0010
0100
0000
0001
0000
,  // measure 64
1001
0000
0000
1000
0100
0000
0010
0000
,  // measure 65
0110
0000
0100
1000
0001
0000
0100
0000
,  // measure 66
0010
1000
0001
1000
0000
0001
0010
0000
,  // measure 67
1100
0101
1100
1001
,  // measure 68
0001
0100
0010
2000
0000
0001
3001
0000
,  // measure 69
0220
0000
0330
1010
,  // measure 70
2002
0000
0000
3003
,  // measure 71
0022
0000
0033
1100
,  // measure 72
2002
0000
0000
3003
,  // measure 73
0220
0000
0330
0110
,  // measure 74
2002
0000
0000
3003
,  // measure 75
1001
0000
0001
1000
0100
0000
1000
0100
,  // measure 76
0010
0001
1000
0010
0100
0001
0010
0100
,  // measure 77
0010
0000
0001
0100
0001
1000
0010
0000
,  // measure 78
0100
0010
1000
0100
0000
0010
0100
0000
,  // measure 79
0010
0000
0001
1000
0010
0000
0100
0001
,  // measure 80
1000
0100
0001
0100
1000
0000
1010
0000
,  // measure 81
0101
0000
0001
0100
1000
0100
0001
0000
,  // measure 82
1000
0100
0001
0100
0000
0010
0001
0000
,  // measure 83
0011
0101
1010
1100
,  // measure 84
1000
2000
0000
0010
0000
0001
3001
0000
,  // measure 85
0110
0000
0001
1000
0100
0010
0100
0000
,  // measure 86
0010
0001
1000
0100
0001
0100
1000
0000
,  // measure 87
0101
0000
0100
0010
1000
0100
0010
0000
,  // measure 88
0001
0100
1000
0100
0010
1000
0001
0000
,  // measure 89
1001
1100
0101
1100
,  // measure 90
1000
0010
0100
0001
0000
1000
0001
1000
,  // measure 91
1100
0101
0110
1001
,  // measure 92
1000
0002
0000
0010
0000
1000
2000
0000
,  // measure 93
3003
1001
0000
0000
;

//---------------dance-single - ----------------
#NOTES:
     dance-single:
     :
     Easy:
     6:
     0.402,0.399,0.312,0.173,0.000: // measure 1
1002
0000
0000
0000
,  // measure 2
2003
0000
0000
0000
,  // measure 3
3200
0000
0000
0000
,  // measure 4
0310
0000
0100
0010
,  // measure 5
0200
0000
0000
0000
,  // measure 6
0320
0000
0000
0000
,  // measure 7
0031
0001
1000
1000
,  // measure 8
0001
1000
0001
0100
,  // measure 9
1001
0000
0100
0001
,  // measure 10
1000
0100
0001
0000
,  // measure 11
0100
1000
0100
0010
,  // measure 12
0100
0010
0001
1000
,  // measure 13
0010
0000
0100
0010
,  // measure 14
1000
0100
0001
0000
,  // measure 15
0100
0010
0100
1000
,  // measure 16
0010
0100
0010
1000
,  // measure 17
2002
0000
3003
0000
,  // measure 18
2002
0000
3003
0000
,  // measure 19
2002
0000
3003
0000
,  // measure 20
0110
0000
0000
0000
,  // measure 21
1001
0000
0001
0000
,  // measure 22
1000
0100
1000
0100
,  // measure 23
0010
0000
0100
0000
,  // measure 24
0010
0001
0100
0000
,  // measure 25
0010
0000
1000
0000
,  // measure 26
0001
0100
1000
0100
,  // measure 27
0001
0000
1000
0000
,  // measure 28
0001
1000
0001
0000
,  // measure 29
0220
0000
0330
0000
,  // measure 30
0010
1000
0010
1000
,  // measure 31
0001
0100
0001
0100
,  // measure 32
0002
0000
0003
0000
,  // measure 33
1001
0000
1000
0100
,  // measure 34
0001
0100
1000
0000
,  // measure 35
1001
0000
0001
0100
,  // measure 36
1000
0100
0001
0000
,  // measure 37
1001
0000
1000
0100
,  // measure 38
0010
0100
1000
0000
,  // measure 39
0001
0000
0100
0001
,  // measure 40
0010
0001
1000
0000
,  // measure 41
0110
0000
0010
1000
,  // measure 42
0100
0010
0100
1000
,  // measure 43
0001
0000
1000
0010
,  // measure 44
0100
0000
0010
0000
,  // measure 45
2002
0000
3003
0000
,  // measure 46
1000
0100
1000
0100
,  // measure 47
0010
0001
1000
0010
,  // measure 48
0220
0000
0330
0000
,  // measure 49
1001
0000
0001
0100
,  // measure 50
0001
1000
0100
0010
,  // measure 51
0110
0000
0010
0100
,  // measure 52
1000
0100
0010
0001
,  // measure 53
1001
0000
1000
0010
,  // measure 54
0100
0000
0010
0100
,  // measure 55
0001
1000
0100
0001
,  // measure 56
0100
1000
0010
0100
,  // measure 57
0001
0000
0100
0001
,  // measure 58
0100
0001
1000
0000
,  // measure 59
0001
1000
0010
1000
,  // measure 60
0001
1000
0010
0100
,  // measure 61
0110
0000
0010
1000
,  // measure 62
0100
0010
0100
0010
,  // measure 63
0110
0000
0010
0001
,  // measure 64
1000
1000
0001
0100
,  // measure 65
0010
0100
0001
1000
,  // measure 66
0100
0100
0010
0000
,  // measure 67
0100
1000
0100
0010
,  // measure 68
0001
1000
0001
0100
,  // measure 69
0110
0000
0000
0110
,  // measure 70
0110
0000
0000
0000
,  // measure 71
1001
0000
0000
1001
,  // measure 72
1001
0000
0000
0000
,  // measure 73
0110
0000
0000
1001
,  // measure 74
1001
0000
0000
0000
,  // measure 75
0001
0100
0010
1000
,  // measure 76
0100
0010
0100
0010
,  // measure 77
0110
0000
0100
0010
,  // measure 78
0001
1000
0001
0100
,  // measure 79
0001
0000
1000
0010
,  // measure 80
0100
0001
0010
0100
,  // measure 81
0110
0000
0010
0001
,  // measure 82
1000
0001
0100
0000
,  // measure 83
0010
0100
0001
0010
,  // measure 84
0100
0010
0001
1000
,  // measure 85
1001
0000
0001
0100
,  // measure 86
1100
0000
1000
0100
,  // measure 87
0101
0000
1000
0100
,  // measure 88
0001
0100
1000
0010
,  // measure 89
1001
0001
0001
1000
,  // measure 90
1000
0100
0010
0100
,  // measure 91
0001
0100
1000
0001
,  // measure 92
2002
0000
0000
0000
,  // measure 93
3003
1001
0000
0000
;

//---------------dance-single - ----------------
#NOTES:
     dance-single:
     :
     Medium:
     7:
     0.517,0.479,0.415,0.389,0.000: // measure 1
2002
0000
3003
0000
,  // measure 2
2020
0000
3030
0000
,  // measure 3
0220
0000
0330
0000
,  // measure 4
2002
3003
0001
1000
,  // measure 5
2002
0000
3003
0000
,  // measure 6
0220
0000
0330
0000
,  // measure 7
0010
0001
0100
1000
,  // measure 8
0200
0010
0000
0010
0000
0310
0100
0000
,  // measure 9
1001
0000
0000
0001
0100
0000
0010
0000
,  // measure 10
0100
0000
0000
0100
0001
0000
1000
0000
,  // measure 11
0100
0001
0100
1000
,  // measure 12
0010
0100
0001
1000
,  // measure 13
1001
0000
0000
0001
0100
0000
1000
0000
,  // measure 14
0100
0010
1000
0000
,  // measure 15
0001
0010
0100
1000
,  // measure 16
0001
0000
1000
0001
0000
1000
0001
0000
,  // measure 17
0220
0000
0000
0330
,  // measure 18
2002
0000
0000
3003
,  // measure 19
0220
0000
0000
0330
,  // measure 20
1001
0000
0000
0000
,  // measure 21
1001
0000
0001
0010
,  // measure 22
0100
0000
1000
0001
0000
0001
1000
0000
,  // measure 23
0010
0000
0100
0010
,  // measure 24
1000
0000
0001
0010
0000
0010
0001
0000
,  // measure 25
1000
0000
0100
0001
,  // measure 26
0100
0000
1000
0001
0000
0001
1000
0000
,  // measure 27
0001
0000
0100
1000
,  // measure 28
0100
0000
0010
1000
0000
0010
1000
0000
,  // measure 29
2002
0000
3003
0000
,  // measure 30
0001
1000
0001
0000
1000
0000
0100
0000
,  // measure 31
0010
0100
0010
0000
0001
1000
0001
0000
,  // measure 32
2002
0000
0000
3003
,  // measure 33
0010
0000
1000
0010
0000
0100
0001
0000
,  // measure 34
1000
0100
0001
0100
,  // measure 35
1000
0000
0001
0010
0000
0100
1000
0000
,  // measure 36
0001
1000
0010
0100
,  // measure 37
1001
0000
0000
1000
0100
0000
0001
0000
,  // measure 38
0100
0000
0010
0001
0000
0010
0001
0000
,  // measure 39
1000
0000
0000
0001
0100
0000
0010
0000
,  // measure 40
1000
0000
0001
1000
0000
0001
1000
0010
,  // measure 41
0100
0000
0000
0010
0100
0000
0001
0000
,  // measure 42
1000
0000
0100
1000
0000
0001
0010
0000
,  // measure 43
0001
0000
0000
1000
0100
0000
0010
0000
,  // measure 44
0001
0000
1000
0010
0000
0100
0010
0000
,  // measure 45
2002
0000
0000
3003
,  // measure 46
1000
0100
1000
0000
0001
0010
0001
0000
,  // measure 47
1000
0010
0100
0000
0001
0010
0100
0000
,  // measure 48
2002
0000
0000
3003
,  // measure 49
1000
0000
0010
0100
0000
0100
0001
0000
,  // measure 50
1000
0100
0001
0100
,  // measure 51
1000
0000
0001
0010
0000
0100
1000
0000
,  // measure 52
0001
0010
1000
0010
,  // measure 53
1001
0000
1000
0010
,  // measure 54
0110
0000
0100
0001
,  // measure 55
1001
0000
1000
0100
,  // measure 56
0010
0000
0000
0010
0100
0000
0010
0000
,  // measure 57
1001
0000
1000
0010
,  // measure 58
0001
0010
1000
0001
,  // measure 59
1000
1000
0100
0100
,  // measure 60
0010
0001
0000
1000
0000
0001
1000
0000
,  // measure 61
0110
0000
0000
0010
1000
0000
0001
0000
,  // measure 62
1000
0000
0000
0001
0010
0000
0100
0000
,  // measure 63
1000
0000
0000
1000
0100
0000
0010
0000
,  // measure 64
0100
0000
0000
0010
0001
0000
1000
0000
,  // measure 65
1001
0001
0100
1000
,  // measure 66
0100
0010
1000
0000
,  // measure 67
0001
1000
0100
0010
,  // measure 68
0001
0000
1000
0100
0000
0010
0001
0000
,  // measure 69
2002
0000
3003
1001
,  // measure 70
2002
0000
3003
0000
,  // measure 71
0220
0000
0330
0110
,  // measure 72
0220
0000
0330
0000
,  // measure 73
2002
0000
3003
0110
,  // measure 74
0220
0000
0330
0000
,  // measure 75
0110
0000
0010
1000
0010
0000
1000
0000
,  // measure 76
2002
0000
0000
3003
,  // measure 77
1000
0000
0001
0100
0000
0100
0001
0000
,  // measure 78
1000
0000
0100
1000
0000
1000
0100
0000
,  // measure 79
0010
0000
0100
0010
0000
0010
0100
0000
,  // measure 80
0010
0000
0001
1000
0001
0000
1000
0000
,  // measure 81
0010
0000
0100
0001
0000
0001
1000
0000
,  // measure 82
0001
1000
0100
0010
,  // measure 83
0100
0100
0010
0010
,  // measure 84
2002
0000
0000
3003
,  // measure 85
1001
0001
0100
0010
,  // measure 86
0110
0010
1000
0100
,  // measure 87
1100
1000
0100
0010
,  // measure 88
0011
0000
0000
0001
0010
0000
0100
0000
,  // measure 89
0110
0010
0001
1000
,  // measure 90
1001
0001
0100
0010
,  // measure 91
1001
1001
0110
0110
,  // measure 92
2002
0000
0000
0000
,  // measure 93
3003
0110
0000
0000
;

//---------------dance-single - ----------------
#NOTES:
     dance-single:
     :
     Beginner:
     3:
     0.195,0.240,0.216,0.000,0.000: // measure 1
1001
0000
0000
0000
,  // measure 2
0100
0000
0000
0000
,  // measure 3
0001
0000
0000
0000
,  // measure 4
1000
0000
0001
0000
,  // measure 5
1000
0000
0000
0000
,  // measure 6
0100
0000
0000
0000
,  // measure 7
0010
0000
0100
0000
,  // measure 8
0010
0000
0000
0000
,  // measure 9
1001
0000
0000
0000
,  // measure 10
1000
0000
0000
0000
,  // measure 11
0001
0000
0000
0000
,  // measure 12
0100
0000
0010
0000
,  // measure 13
0100
0000
0000
0000
,  // measure 14
0001
0000
0000
0000
,  // measure 15
1000
0000
0000
0000
,  // measure 16
0001
0000
0000
0000
,  // measure 17
1001
0000
0000
0000
,  // measure 18
1001
0000
0000
0000
,  // measure 19
1001
0000
0000
0000
,  // measure 20
0110
0000
0000
0000
,  // measure 21
1001
0000
0000
0000
,  // measure 22
0001
0000
1000
0000
,  // measure 23
0001
0000
0000
0000
,  // measure 24
1000
0000
0100
0000
,  // measure 25
1000
0000
0000
0000
,  // measure 26
0001
0000
0010
0000
,  // measure 27
0100
0000
0000
0000
,  // measure 28
0100
0000
0010
0000
,  // measure 29
1001
0000
0000
0000
,  // measure 30
0100
0000
0010
0000
,  // measure 31
0100
0000
0010
0000
,  // measure 32
1001
0000
0000
0000
,  // measure 33
0010
0000
1000
0000
,  // measure 34
0100
0000
0000
0000
,  // measure 35
0010
0000
0001
0000
,  // measure 36
0100
0000
0000
0000
,  // measure 37
1001
0000
0000
0000
,  // measure 38
0001
0000
1000
0000
,  // measure 39
0001
0000
0000
0000
,  // measure 40
1000
0000
0010
0000
,  // measure 41
0100
0000
0000
0000
,  // measure 42
0010
0000
0100
0000
,  // measure 43
0001
0000
0000
0000
,  // measure 44
1000
0000
0100
0000
,  // measure 45
1001
0000
0000
0000
,  // measure 46
0001
0000
1000
0000
,  // measure 47
0001
0000
1000
0000
,  // measure 48
0001
0000
0000
0000
,  // measure 49
1001
0000
0000
0000
,  // measure 50
1000
0000
0010
0000
,  // measure 51
0100
0000
0000
0000
,  // measure 52
0010
0000
0100
0000
,  // measure 53
0110
0000
0000
0000
,  // measure 54
0010
0000
1000
0000
,  // measure 55
0100
0000
0000
0000
,  // measure 56
0010
0000
0001
0000
,  // measure 57
1000
0000
0001
0000
,  // measure 58
0100
0000
0000
0000
,  // measure 59
0010
0000
0010
0000
,  // measure 60
0100
0000
0100
0000
,  // measure 61
1001
0000
0000
0000
,  // measure 62
0001
0000
1000
0000
,  // measure 63
0100
0000
0000
0000
,  // measure 64
0010
0000
0100
0000
,  // measure 65
1000
0000
0100
0000
,  // measure 66
0010
0000
0000
0000
,  // measure 67
0001
0000
1000
0000
,  // measure 68
0001
0000
1000
0000
,  // measure 69
1001
0000
0000
0000
,  // measure 70
0110
0000
0000
0000
,  // measure 71
0110
0000
0000
0000
,  // measure 72
1001
0000
0000
0000
,  // measure 73
0110
0000
0000
0000
,  // measure 74
0110
0000
0000
0000
,  // measure 75
1001
0000
0000
0000
,  // measure 76
1001
0000
0000
0000
,  // measure 77
0110
0000
0000
0000
,  // measure 78
0010
0000
0000
0000
,  // measure 79
1000
0000
0100
0000
,  // measure 80
0010
0000
0001
0000
,  // measure 81
1000
0000
0000
0000
,  // measure 82
0001
0000
0000
0000
,  // measure 83
1000
0000
0010
0000
,  // measure 84
0100
0000
0001
0000
,  // measure 85
1000
0000
0100
0000
,  // measure 86
1000
0000
0100
0000
,  // measure 87
0010
0000
0001
0000
,  // measure 88
0010
0000
0001
0000
,  // measure 89
1000
0000
0001
0000
,  // measure 90
1000
0000
0001
0000
,  // measure 91
0100
0000
0010
0000
,  // measure 92
1001
0000
0000
0000
,  // measure 93
0000
1001
0000
0000
;
