#TITLE:Do Back Burn;
#SUBTITLE:;
#ARTIST:PRASTIK DANCEFLOOR;
#TITLETRANSLIT:;
#SUBTITLETRANSLIT:;
#ARTISTTRANSLIT:;
#CREDIT:;
#BANNER:bn.png;
#BACKGROUND:bg.png;
#LYRICSPATH:;
#CDTITLE:;
#MUSIC:27 - Do Back Burn.mp3;
#OFFSET:-7.432;
#SAMPLESTART:14.480;
#SAMPLELENGTH:12.000;
#SELECTABLE:YES;
#BPMS:0.000=136.000;
#STOPS:;
#BGCHANGES:;

//---------------dance-single - ----------------
#NOTES:
     dance-single:
     :
     Hard:
     7:
     0.405,0.382,0.196,0.000,0.137: // measure 1
1000
0000
0010
0000
0000
0100
0000
0000
0001
0000
0000
1000
0000
1000
0000
0000
,  // measure 2
0100
0100
0100
0100
,  // measure 3
1000
0000
0001
0000
0000
0100
0000
0000
0001
0000
0000
1000
0000
1000
0000
0000
,  // measure 4
0001
0000
0000
0000
0000
0000
0000
0000
0000
0100
0000
0000
0000
0000
0000
0000
0000
0000
0010
0000
0000
0000
0000
0000
1000
0000
0000
0000
0100
0000
0000
0000
1000
0000
0000
0000
0100
0000
0000
0000
0000
0000
1000
0000
0000
0000
0000
0000
,  // measure 5
0001
0100
0001
0100
0000
0100
0010
0100
,  // measure 6
0000
0100
0001
0100
0000
0101
0000
1100
,  // measure 7
0000
1000
0100
1000
0000
1000
0010
1000
,  // measure 8
0000
1000
0100
1000
0000
1100
0000
0110
,  // measure 9
0000
0010
0100
0010
0000
0010
0001
0010
,  // measure 10
0000
0010
0100
0010
0000
0110
0000
0011
,  // measure 11
0000
0001
0100
0001
0000
0100
0010
0100
,  // measure 12
0001
1000
1000
0000
1000
0010
0010
0000
,  // measure 13
0000
0010
0000
1000
0000
0010
0000
0001
,  // measure 14
0000
0010
0000
1000
0000
1010
0000
0011
,  // measure 15
0000
0001
0000
0100
0000
1000
0000
0100
,  // measure 16
0000
0001
0000
0100
0000
1100
0000
0101
,  // measure 17
0000
0001
0000
1000
0000
0001
0000
0010
,  // measure 18
0000
0001
0000
0100
0000
0101
0000
0011
,  // measure 19
0000
0001
0000
1000
0000
0010
0000
1000
,  // measure 20
0000
0100
1000
0100
0100
1000
0010
0000
,  // measure 21
0100
0000
0001
0010
0000
0001
1001
0000
,  // measure 22
0001
0000
0100
0010
0000
0100
0101
0000
,  // measure 23
0001
0000
1000
0100
0000
1000
1010
0000
,  // measure 24
1000
0000
0010
0100
0000
0100
0101
0000
,  // measure 25
0001
0000
1000
0100
0000
1000
1010
0000
,  // measure 26
1000
0000
0001
0010
0000
0100
1100
0000
,  // measure 27
1000
0000
0000
0000
0001
0000
0100
0000
0000
0000
0100
0000
0010
0000
0000
1001
,  // measure 28
0000
0000
0000
0000
,  // measure 29
1000
1000
1000
1000
,  // measure 30
0001
0100
0001
0100
0001
0100
0001
0100
,  // measure 31
0010
0010
0010
0100
,  // measure 32
0010
1000
0001
0010
,  // measure 33
0001
0001
0001
0001
,  // measure 34
0100
0010
0100
0010
0100
0010
0100
0010
,  // measure 35
1000
0010
1000
0010
1000
0010
1000
0010
,  // measure 36
1000
0000
0100
0000
0001
0000
0100
0010
,  // measure 37
0001
0000
0100
0000
0000
0001
0000
0000
0010
0000
0000
0100
0000
0100
0000
0000
,  // measure 38
1000
0001
1000
0001
,  // measure 39
0010
0000
0001
0000
0000
1000
0000
0000
0001
0000
0000
0100
0000
0100
0000
0000
,  // measure 40
0001
0010
0001
0010
,  // measure 41
0001
0000
1000
0000
0000
0100
0000
0000
1000
0000
0000
0001
0000
0001
0000
0000
,  // measure 42
0100
0010
0100
0010
,  // measure 43
1000
0000
0100
0000
0000
1000
0000
0000
0001
0000
0000
0100
0000
0100
0000
0000
,  // measure 44
0010
1000
0010
1000
,  // measure 45
0100
0000
0010
0000
0000
0001
0000
0000
0100
0000
0000
0010
0000
0010
0000
0000
,  // measure 46
0100
0001
0100
1000
0100
0001
0100
1000
,  // measure 47
0100
0000
0010
0000
0000
1000
0000
0000
0001
0000
0000
1000
0000
1000
0000
0000
,  // measure 48
1000
0100
0001
0100
1000
0100
0001
0100
,  // measure 49
1000
0001
1000
0001
,  // measure 50
0010
0010
0010
0010
,  // measure 51
0001
1000
0001
1000
,  // measure 52
0100
0100
0100
0100
,  // measure 53
1001
0000
0000
0000
;

//---------------dance-single - ----------------
#NOTES:
     dance-single:
     :
     Medium:
     5:
     0.330,0.356,0.313,0.000,0.000: // measure 1
1000
1000
0001
0001
,  // measure 2
0100
0100
0100
0100
,  // measure 3
0001
1000
0001
1000
,  // measure 4
0110
0000
1001
0000
,  // measure 5
0000
0001
0000
1000
0000
0001
0000
1000
,  // measure 6
0000
0001
0000
1000
0000
1001
0000
1001
,  // measure 7
0000
0010
0000
0100
0000
0010
0000
0100
,  // measure 8
0000
0010
0000
0100
0000
0110
0000
0110
,  // measure 9
0000
0010
0000
1000
0000
0010
0000
1000
,  // measure 10
0000
0010
0000
1000
0000
1010
0000
0101
,  // measure 11
0000
0100
0000
0001
0000
0100
0000
0001
,  // measure 12
0000
0100
0001
0010
0100
1000
0001
0000
,  // measure 13
0000
1000
0000
0001
0000
0100
0000
0001
,  // measure 14
0000
1000
0000
0100
0000
1100
0000
1001
,  // measure 15
0000
0001
0000
0010
0000
0001
0000
1000
,  // measure 16
0000
0010
0000
1000
0000
1010
0000
0011
,  // measure 17
0000
0001
0000
0100
0000
0010
0000
0100
,  // measure 18
0000
0001
0000
0100
0000
0110
0000
1010
,  // measure 19
0000
1000
0000
0100
0000
0010
0000
0100
,  // measure 20
0000
1000
0000
0001
0000
1000
0000
0001
,  // measure 21
0100
0000
0001
0100
0000
0000
0010
0000
,  // measure 22
0100
0000
0001
0100
0000
0000
0010
0000
,  // measure 23
0100
0000
0010
0100
0000
0000
0001
0000
,  // measure 24
1000
0000
0100
1000
0000
0000
0010
0000
,  // measure 25
0100
0000
0001
1000
0000
0000
0100
0000
,  // measure 26
1000
0000
0001
1000
0000
0000
0010
0000
,  // measure 27
1000
0000
1000
0100
0000
0000
1000
0000
,  // measure 28
0100
0000
0000
0000
,  // measure 29
1000
0001
0100
0010
,  // measure 30
0100
0100
0100
0100
,  // measure 31
0010
0010
0010
0010
,  // measure 32
1000
0100
0010
0001
,  // measure 33
0100
0001
0100
0001
,  // measure 34
0010
0010
0010
0010
,  // measure 35
0100
0100
0100
0100
,  // measure 36
0100
0100
0100
0100
,  // measure 37
1000
0001
0100
0001
,  // measure 38
0101
0101
0101
0101
,  // measure 39
0001
0100
0010
1000
,  // measure 40
1100
1100
1100
1100
,  // measure 41
1000
0010
0100
0010
,  // measure 42
0110
1001
0110
1001
,  // measure 43
0001
1000
0100
1000
,  // measure 44
1010
0101
1010
0101
,  // measure 45
1001
0000
0001
0010
0001
0000
0010
0000
,  // measure 46
0100
0100
0100
0100
,  // measure 47
1000
0000
0100
1000
0100
0000
1000
0000
,  // measure 48
0010
0010
0010
0010
,  // measure 49
0100
0000
0001
0000
,  // measure 50
1000
1000
1000
1000
,  // measure 51
0001
0000
0100
0000
,  // measure 52
0001
0001
0001
0001
,  // measure 53
1001
0000
0000
0000
;

//---------------dance-single - ----------------
#NOTES:
     dance-single:
     :
     Easy:
     2:
     0.192,0.229,0.020,0.020,0.000: // measure 1
1000
0000
0001
0000
,  // measure 2
0100
0001
0100
0001
,  // measure 3
0100
0000
0010
0000
,  // measure 4
0110
0000
0000
0000
,  // measure 5
0000
0000
0000
0100
0000
0000
0000
0100
,  // measure 6
0000
0000
0000
0100
0000
0010
0000
0100
,  // measure 7
0000
0000
0000
0001
0000
0000
0000
1000
,  // measure 8
0000
0000
0000
0001
0000
1000
0000
0001
,  // measure 9
0000
0000
0000
1000
0000
0000
0000
0100
,  // measure 10
0000
0000
0000
1000
0000
0100
0000
0100
,  // measure 11
0000
0000
0000
1000
0000
0000
0000
0010
,  // measure 12
0000
0100
0010
0100
,  // measure 13
0000
0000
0000
0001
0000
0000
0000
0100
,  // measure 14
0000
0000
0000
0010
0000
1000
0000
1000
,  // measure 15
0000
0000
0000
0010
0000
0000
0000
0100
,  // measure 16
0000
0000
0000
0001
0000
1000
0000
0001
,  // measure 17
0000
0000
0000
1000
0000
0000
0000
0100
,  // measure 18
0000
0000
0000
1000
0000
0100
0000
1000
,  // measure 19
0000
0000
0000
0010
0000
0000
0000
0100
,  // measure 20
0000
0001
1000
0010
,  // measure 21
0110
0000
0000
0010
,  // measure 22
0100
0000
0000
0001
,  // measure 23
1000
0000
0000
1000
,  // measure 24
0100
0000
0000
0100
,  // measure 25
0100
0000
0000
1000
,  // measure 26
0001
0000
0000
0001
,  // measure 27
0001
0000
0000
0100
,  // measure 28
0100
0000
0000
0000
,  // measure 29
0010
0000
1000
0000
,  // measure 30
0001
0001
1000
1000
,  // measure 31
0001
0000
1000
0000
,  // measure 32
0100
1000
0100
1000
,  // measure 33
0100
0000
1000
0000
,  // measure 34
0010
0010
0100
0100
,  // measure 35
0001
0001
1000
1000
,  // measure 36
0001
0100
0010
1000
,  // measure 37
0100
1000
0100
0100
,  // measure 38
1000
0000
0001
0000
,  // measure 39
0100
0001
0100
0001
,  // measure 40
0010
0000
0010
0000
,  // measure 41
0100
1000
0100
1000
,  // measure 42
0010
0000
0010
0000
,  // measure 43
0100
0001
1000
0001
,  // measure 44
0010
0000
0010
0000
,  // measure 45
0001
0100
0010
0100
,  // measure 46
0002
0000
0000
0003
,  // measure 47
1000
0010
0100
0010
,  // measure 48
2000
0000
0000
3000
,  // measure 49
0001
0000
1000
0000
,  // measure 50
0010
0000
1000
0000
,  // measure 51
0100
0000
1000
0000
,  // measure 52
0001
0000
0100
0000
,  // measure 53
0010
0000
0000
0000
;

//---------------dance-single - ----------------
#NOTES:
     dance-single:
     :
     Beginner:
     1:
     0.130,0.153,0.010,0.000,0.000: // measure 1
1000
0000
0000
0000
,  // measure 2
0001
0000
0001
0000
,  // measure 3
1000
0000
0000
0000
,  // measure 4
0010
0000
0100
0000
,  // measure 5
0001
0000
0001
0000
,  // measure 6
0001
0000
0001
0000
,  // measure 7
1000
0000
1000
0000
,  // measure 8
1000
0000
1000
0000
,  // measure 9
0010
0000
0010
0000
,  // measure 10
0010
0000
0010
0000
,  // measure 11
0100
0000
0100
0000
,  // measure 12
0100
0000
0000
0000
,  // measure 13
0001
0000
1000
0000
,  // measure 14
0001
0000
1000
0000
,  // measure 15
0010
0000
0100
0000
,  // measure 16
0010
0000
0100
0000
,  // measure 17
0001
0000
0010
0000
,  // measure 18
0001
0000
0010
0000
,  // measure 19
0100
0000
1000
0000
,  // measure 20
0100
0000
0000
0000
,  // measure 21
1000
0000
0000
0001
,  // measure 22
0000
0100
0000
0001
,  // measure 23
0001
0000
0000
1000
,  // measure 24
0000
0010
0000
0100
,  // measure 25
0100
0000
0000
0010
,  // measure 26
0000
0100
0000
0001
,  // measure 27
0001
0000
0000
1000
,  // measure 28
1000
0000
0000
0000
,  // measure 29
1000
0000
0000
0000
,  // measure 30
0001
0000
0000
0000
,  // measure 31
0100
0000
0000
0000
,  // measure 32
0010
0000
0100
0000
,  // measure 33
0001
0000
0000
0000
,  // measure 34
1000
0000
0000
0000
,  // measure 35
0100
0000
0000
0000
,  // measure 36
0100
0000
0000
0000
,  // measure 37
1000
0000
0000
0000
,  // measure 38
0001
0000
0001
0000
,  // measure 39
0100
0000
0000
0000
,  // measure 40
0010
0000
0010
0000
,  // measure 41
0100
0000
0000
0000
,  // measure 42
0001
0000
0001
0000
,  // measure 43
1000
0000
0000
0000
,  // measure 44
0100
0000
0100
0000
,  // measure 45
1000
0000
0000
0000
,  // measure 46
0001
0001
0001
0001
,  // measure 47
0001
0000
0000
0000
,  // measure 48
1000
1000
1000
1000
,  // measure 49
1000
0000
0000
0000
,  // measure 50
0010
0010
0010
0010
,  // measure 51
0000
0000
0000
0000
,  // measure 52
0100
0100
0100
0100
,  // measure 53
1001
0000
0000
0000
;
