#TITLE:Disco the ground;
#SUBTITLE:;
#ARTIST:sampling disaster 咲-SAKI-;
#TITLETRANSLIT:;
#SUBTITLETRANSLIT:;
#ARTISTTRANSLIT:sampling disaster -SAKI-;
#GENRE:;
#CREDIT:;
#BANNER:;
#BACKGROUND:bgblack.PNG;
#LYRICSPATH:;
#CDTITLE:cdtitle.png;
#MUSIC:Disco the ground.ogg;
#OFFSET:-1.780;
#SAMPLESTART:17.120;
#SAMPLELENGTH:12.000;
#SELECTABLE:YES;
#BPMS:0.000=140.000
;
#STOPS:
;
#BGCHANGES:;
#KEYSOUNDS:;
#ATTACKS:;

//---------------dance-single - ----------------
#NOTES:
     dance-single:
     :
     Beginner:
     1:
     0.078,0.084,0.057,0.034,0.000,40.000,5.000,3.000,0.000,0.000,0.000,0.078,0.084,0.057,0.034,0.000,40.000,5.000,3.000,0.000,0.000,0.000: // measure 0
0000
0000
0000
0000
,  // measure 1
0000
0000
0000
0000
,  // measure 2
0000
0000
0000
0000
,  // measure 3
0000
0000
0000
0000
,  // measure 4
1000
0000
0000
0000
,  // measure 5
0100
0000
0000
0000
,  // measure 6
0010
0000
0000
0000
,  // measure 7
0001
0000
0000
0000
,  // measure 8
0000
0000
0000
0000
,  // measure 9
0110
0000
0000
0000
,  // measure 10
0010
0000
0000
0000
,  // measure 11
1001
0000
0000
0000
,  // measure 12
0001
0000
0000
0000
,  // measure 13
1001
0000
0000
0000
,  // measure 14
1000
0000
0000
0000
,  // measure 15
0110
0000
0000
0000
,  // measure 16
0010
0000
0000
0000
,  // measure 17
0100
0000
0000
0000
,  // measure 18
0000
0000
0000
0000
,  // measure 19
0001
0000
0000
0000
,  // measure 20
0000
0000
0000
0000
,  // measure 21
1000
0000
0000
0000
,  // measure 22
0000
0000
0000
0000
,  // measure 23
0010
0000
0000
0000
,  // measure 24
0000
0000
0000
0000
,  // measure 25
1000
0000
0000
0000
,  // measure 26
1000
0000
0000
0000
,  // measure 27
0001
0000
0000
0000
,  // measure 28
0001
0000
0000
0000
,  // measure 29
0100
0000
0000
0000
,  // measure 30
0100
0000
0000
0000
,  // measure 31
0010
0000
0000
0000
,  // measure 32
0010
0000
0000
0000
,  // measure 33
0020
0000
0000
0000
,  // measure 34
0030
0000
0000
0000
,  // measure 35
0200
0000
0000
0000
,  // measure 36
0300
0000
0000
0000
,  // measure 37
0002
0000
0000
0000
,  // measure 38
0003
0000
0000
0000
,  // measure 39
1000
0000
1000
0000
,  // measure 40
1000
0000
1000
0000
,  // measure 41
1000
0000
0000
0000
,  // measure 42
0010
0000
0000
0000
,  // measure 43
0100
0000
0000
0000
,  // measure 44
0001
0000
0000
0000
,  // measure 45
0010
0000
0000
0000
,  // measure 46
0100
0000
0000
0000
,  // measure 47
1000
0000
0000
0000
,  // measure 48
0001
0000
0000
0000
,  // measure 49
1001
0000
0000
0000
;

//---------------dance-single - ----------------
#NOTES:
     dance-single:
     :
     Easy:
     2:
     0.193,0.224,0.023,0.011,0.000,115.000,2.000,1.000,0.000,0.000,0.000,0.193,0.224,0.023,0.011,0.000,115.000,2.000,1.000,0.000,0.000,0.000: // measure 0
0000
0000
0000
0000
,  // measure 1
0000
0000
0000
0000
,  // measure 2
0000
0000
0000
0000
,  // measure 3
0000
0000
0000
0000
,  // measure 4
1000
0000
0100
0000
,  // measure 5
0010
0000
0001
0000
,  // measure 6
0100
0000
0010
0000
,  // measure 7
1001
0000
0000
0000
,  // measure 8
0000
0000
0000
0000
,  // measure 9
1000
1000
1000
0000
,  // measure 10
1000
0000
0100
0000
,  // measure 11
0010
0001
0010
0000
,  // measure 12
0001
0000
0100
0000
,  // measure 13
0010
1000
0001
0000
,  // measure 14
0010
0000
0100
0000
,  // measure 15
1000
0100
0010
0000
,  // measure 16
0001
0001
0001
0000
,  // measure 17
0001
0100
0000
0100
,  // measure 18
0001
0010
0000
0010
,  // measure 19
0100
1000
0000
1000
,  // measure 20
0010
0100
0000
0100
,  // measure 21
0001
1000
0000
1000
,  // measure 22
0100
0010
0000
0010
,  // measure 23
0001
1000
0000
1000
,  // measure 24
0010
0100
0000
0100
,  // measure 25
0001
0100
0001
0100
,  // measure 26
0010
1000
0010
1000
,  // measure 27
0100
1000
0100
1000
,  // measure 28
0001
0010
0001
0000
,  // measure 29
0001
0010
0001
0010
,  // measure 30
0100
1000
0100
1000
,  // measure 31
0001
0100
0001
0000
,  // measure 32
1000
0010
1000
0000
,  // measure 33
0100
0000
0010
0000
,  // measure 34
0100
0000
1000
0000
,  // measure 35
0001
0000
0100
0000
,  // measure 36
0020
0000
0000
0030
,  // measure 37
0010
0000
1000
0000
,  // measure 38
0100
0000
0010
0000
,  // measure 39
0100
0100
0100
0100
,  // measure 40
0100
0100
0100
0000
,  // measure 41
0100
0000
0000
0000
,  // measure 42
1000
0000
0010
0000
,  // measure 43
0100
0100
0000
0000
,  // measure 44
0001
0000
0010
0000
,  // measure 45
0001
0001
0000
0000
,  // measure 46
0100
0000
0010
0000
,  // measure 47
1000
1000
0000
0000
,  // measure 48
0100
0000
0010
0000
,  // measure 49
1001
0000
0000
0000
;

//---------------dance-single - ----------------
#NOTES:
     dance-single:
     :
     Medium:
     5:
     0.388,0.336,0.206,0.023,0.000,218.000,18.000,2.000,0.000,0.000,0.000,0.388,0.336,0.206,0.023,0.000,218.000,18.000,2.000,0.000,0.000,0.000: // measure 0
1000
0000
0001
0000
,  // measure 1
0100
0000
0010
0000
,  // measure 2
1000
0000
0010
0000
,  // measure 3
0100
0000
0001
0100
,  // measure 4
0001
0010
0100
0010
,  // measure 5
0001
0100
0010
1010
,  // measure 6
1000
0100
1000
0010
,  // measure 7
0100
0100
0100
0100
0100
0100
0100
0000
,  // measure 8
0010
0000
0000
0000
,  // measure 9
1001
0000
1001
0000
0001
0100
0010
0000
,  // measure 10
1000
0000
0100
0000
1000
0001
0100
0000
,  // measure 11
0010
1010
1000
1100
,  // measure 12
0100
0010
0100
0000
1000
0001
0100
0000
,  // measure 13
0001
0101
1000
1100
,  // measure 14
0001
0010
0100
0000
0100
0010
0001
0000
,  // measure 15
0010
0011
1000
1010
,  // measure 16
0110
0101
1001
1100
,  // measure 17
0001
0000
0100
0000
0000
0100
0010
0000
,  // measure 18
0000
1000
0100
0000
0100
1000
0010
0100
,  // measure 19
0001
0000
0010
0000
0000
0010
0001
0000
,  // measure 20
0000
0100
0010
0000
1000
0100
1000
0001
,  // measure 21
0100
0000
0010
0000
0000
1000
0100
0000
,  // measure 22
0000
0100
1000
0010
0100
0001
0010
0000
,  // measure 23
0010
0000
0001
0000
0000
0001
0100
0000
,  // measure 24
0000
0010
1000
0000
1000
0010
0100
0000
,  // measure 25
0001
0000
0100
0000
0010
1000
0001
0000
,  // measure 26
0010
0000
0100
0000
1000
0010
0100
0000
,  // measure 27
0010
0000
1000
0000
0001
0010
0001
0000
,  // measure 28
0100
0000
0010
0000
0100
0001
0010
0000
,  // measure 29
0100
0000
1000
0000
0001
0100
0010
0000
,  // measure 30
1000
0000
0100
0000
0010
0100
1000
0000
,  // measure 31
0010
0100
0001
0010
,  // measure 32
0001
0100
0010
1000
,  // measure 33
0000
0010
1000
0000
0010
0000
0100
0000
,  // measure 34
0001
0010
0001
0000
0010
0000
0100
0000
,  // measure 35
1000
0001
0100
0000
0010
0000
1000
0000
,  // measure 36
2002
0000
0000
3003
,  // measure 37
0001
0000
0100
0000
0010
0100
0010
0000
,  // measure 38
1000
0000
0100
0000
0010
0001
1000
0000
,  // measure 39
0100
0100
0100
0100
,  // measure 40
0110
0110
0110
0110
,  // measure 41
0001
0000
0100
0000
0000
0010
0100
0000
,  // measure 42
0000
0010
1000
0000
1000
0100
1000
0001
,  // measure 43
0100
0000
0010
0000
0000
0100
0001
0000
,  // measure 44
0000
0010
0100
0000
0100
1000
0001
0100
,  // measure 45
0010
0000
1000
0000
0010
0100
0010
0000
,  // measure 46
1000
0000
0001
0000
0010
0100
1000
0000
,  // measure 47
0001
0000
0100
0000
0010
1000
0001
0000
,  // measure 48
0010
0000
0100
0000
1000
0000
0001
1000
,  // measure 49
0001
0000
0000
0000
;

//---------------dance-single - ----------------
#NOTES:
     dance-single:
     :
     Hard:
     7:
     0.498,0.392,0.274,0.057,0.097,276.000,24.000,5.000,0.000,0.000,0.000,0.498,0.392,0.274,0.057,0.097,276.000,24.000,5.000,0.000,0.000,0.000: // measure 0
0010
0000
1000
0000
0100
1000
0001
0000
,  // measure 1
0100
0010
1000
1100
,  // measure 2
0100
0000
0010
0000
0001
0100
0010
0000
,  // measure 3
0100
0001
0010
0110
,  // measure 4
0100
0000
1000
0000
0001
0100
0010
0000
,  // measure 5
1000
0001
0010
0110
,  // measure 6
0100
0000
0010
0000
0001
1000
0010
0000
,  // measure 7
0100
0000
0100
0000
0001
0000
0001
0000
1000
0000
1000
0000
0010
0100
0000
0000
,  // measure 8
2002
0000
0000
3003
,  // measure 9
1100
0000
0000
0000
0011
0000
0000
0001
0000
0100
0000
0010
1000
0000
0001
0000
,  // measure 10
0010
0001
0100
0010
1000
0001
0010
0100
,  // measure 11
1000
0000
0001
0000
0100
0010
0100
0000
,  // measure 12
0001
0000
0010
0000
0001
0000
0100
0000
0010
0000
0000
1000
0000
0000
0001
0000
,  // measure 13
0100
0010
1000
0001
0010
0100
1000
0000
,  // measure 14
0100
0000
0010
0000
0001
0100
0010
0000
,  // measure 15
1000
0100
1000
0001
0100
0010
1000
0000
,  // measure 16
1001
0110
1001
0110
,  // measure 17
0001
0000
0100
0000
0000
0100
0001
0000
,  // measure 18
0000
0000
0010
0000
0100
0000
0000
1000
0000
0000
0001
0000
0100
0000
0010
0000
,  // measure 19
1000
0000
0000
0000
1100
0000
0000
0001
0000
0000
0100
0000
0010
0000
0000
0000
,  // measure 20
1000
0000
0100
0000
0010
0000
0000
0010
0001
0000
0100
0000
0010
0000
1000
0000
,  // measure 21
0001
0000
0000
0000
0011
0000
0000
0010
0000
0000
0001
0000
0100
0000
0000
0000
,  // measure 22
0010
0000
1000
0000
0100
0000
0000
0100
0000
0000
1000
0000
0010
0000
0100
0000
,  // measure 23
0001
0000
0000
0000
0101
0000
0000
0100
0000
0000
0010
0000
1000
0000
0000
0000
,  // measure 24
0001
0010
0001
0000
1001
0000
0110
0000
,  // measure 25
0010
1000
0100
1000
0010
0100
0001
0000
,  // measure 26
0010
0001
0100
0010
1000
0001
0010
0000
,  // measure 27
0010
0001
0100
0010
1000
0001
0010
0000
,  // measure 28
0010
0001
0100
0010
1000
0001
0010
0000
,  // measure 29
0100
1000
0100
0010
0001
1000
0010
0000
,  // measure 30
0100
0001
0010
0100
1000
0001
0100
0010
,  // measure 31
0000
0010
0100
0001
0010
0000
1001
0000
,  // measure 32
0010
1000
0100
0010
0001
0000
1001
0000
,  // measure 33
0001
0100
0010
1000
0001
0010
0100
0000
,  // measure 34
0000
0010
0001
0100
0010
1000
0001
0000
,  // measure 35
0010
0001
0100
0010
1000
0100
0010
0000
,  // measure 36
0200
0000
0000
0000
,  // measure 37
0310
0000
0001
1000
0010
0100
0001
0000
,  // measure 38
0010
0000
0100
1000
0001
0100
0010
0000
,  // measure 39
0100
0100
0100
0100
,  // measure 40
0110
0110
0220
0330
,  // measure 41
1000
0000
1100
0000
0000
1000
0100
0000
,  // measure 42
0000
0000
0010
0000
0001
0000
0000
0010
0000
0000
0001
0000
0100
0000
0010
0000
,  // measure 43
1000
0000
0000
0000
1100
0000
0000
0001
0000
0000
0100
0000
0010
0000
0000
0000
,  // measure 44
0000
0000
1000
0000
0100
0000
0000
0100
1000
0000
0010
0000
0100
0000
0001
0000
,  // measure 45
0010
0000
0000
0000
0011
0000
0000
0001
0000
0000
0100
0000
0010
0000
0000
0000
,  // measure 46
0000
0000
0010
0000
1000
0000
0000
0100
0000
0000
1000
0000
0001
0000
0100
0000
,  // measure 47
0010
0000
0000
0000
1001
0000
0000
0100
0000
0000
1000
0000
0010
0000
0000
0000
,  // measure 48
0100
0001
1000
0000
0001
0010
0100
1000
,  // measure 49
0001
0000
0000
0000
;
