#TITLE:Dinosaur;
#SUBTITLE:;
#ARTIST:Ke$ha;
#TITLETRANSLIT:;
#SUBTITLETRANSLIT:;
#ARTISTTRANSLIT:;
#GENRE:;
#CREDIT:;
#BANNER:dinosaur-banner,png.png;
#BACKGROUND:dinosaur-bg.png;
#LYRICSPATH:;
#CDTITLE:;
#MUSIC:Dinosaur.mp3;
#OFFSET:-0.378;
#SAMPLESTART:5.514;
#SAMPLELENGTH:15.104;
#SELECTABLE:YES;
#BPMS:0.000=136.091
;
#STOPS:
;
#BGCHANGES:;
#KEYSOUNDS:;
#ATTACKS:;

//---------------dance-single - Blank----------------
#NOTES:
     dance-single:
     :
     Hard:
     8:
     0.545,0.600,0.110,0.082,0.227,264.000,8.000,6.000,0.000,0.000,0.000,0.545,0.600,0.110,0.082,0.227,264.000,8.000,6.000,0.000,0.000,0.000: // measure 0
0000
0000
0000
0000
,  // measure 1
0000
0000
0000
0000
,  // measure 2
0000
0000
0000
0000
,  // measure 3
0001
0100
0000
0001
0010
0000
0001
0100
,  // measure 4
0000
0010
0100
0010
1000
0100
1000
0000
,  // measure 5
0100
0010
0000
0010
0100
0000
0100
0010
,  // measure 6
0000
0010
0100
1000
0100
1000
0010
0100
,  // measure 7
0010
1000
0000
0010
0100
0000
0001
0010
,  // measure 8
0000
0100
0010
0001
0100
0000
0001
0000
,  // measure 9
1000
0010
1000
0100
0000
1000
0010
0000
,  // measure 10
1000
0001
0100
0010
0100
0000
0110
0000
,  // measure 11
0010
1000
0010
0000
1000
0000
0010
0100
0010
0100
0010
0000
0100
0000
0001
0000
,  // measure 12
0010
0001
0010
1000
0010
0000
0100
0000
0000
0000
1000
0000
0010
0000
0000
0000
,  // measure 13
0100
0010
0100
0000
0000
0000
0010
0100
0010
0000
0110
0000
0000
0000
0000
0000
,  // measure 14
0100
0001
1000
0010
0000
0000
1001
0000
,  // measure 15
0101
0000
1000
0001
0100
0010
0100
0000
,  // measure 16
0010
1000
0100
1000
0010
0100
0010
0000
,  // measure 17
0010
0100
0001
0010
0000
0001
0000
0100
,  // measure 18
0000
0010
1000
0010
0110
0000
0011
0000
,  // measure 19
1000
0010
0100
0001
0010
0001
0100
0001
,  // measure 20
0020
0230
2300
3010
,  // measure 21
0100
0001
0100
0001
0010
0001
0100
0000
,  // measure 22
0010
0100
0001
1000
0001
0000
1001
0000
,  // measure 23
1000
0000
0010
0000
0100
0000
0100
0010
0000
0100
0010
0100
0001
0000
0100
0000
,  // measure 24
0001
0000
1000
0010
1000
0000
1000
0100
0000
1000
0010
1000
0010
0000
1000
0000
,  // measure 25
0100
0000
1000
0000
0010
0100
0000
0010
0000
0100
0001
0100
0001
0000
0100
0000
,  // measure 26
0010
0000
1000
0000
0100
1000
0000
1000
0000
1000
0010
1000
0010
0000
1000
0000
,  // measure 27
0010
0000
0100
0000
0001
0000
0010
0000
0001
0100
0001
0100
0001
0100
0001
0100
,  // measure 28
0001
1000
0100
0010
0001
0100
0010
0000
,  // measure 29
0010
0100
0001
0010
0001
1000
0010
0000
,  // measure 30
0100
0000
0001
0000
0010
0000
0001
1000
0010
0000
1000
0001
0010
0000
0000
0000
,  // measure 31
0100
1000
0010
0100
0001
0010
0001
0000
,  // measure 32
0001
0000
0100
0000
0001
0000
0010
0001
0010
0000
0001
0100
0001
0000
0000
0000
,  // measure 33
0100
0010
1000
0100
1000
0000
0010
0000
,  // measure 34
0100
0010
0100
0000
0010
0000
1000
0100
0000
1000
0010
0000
1000
0000
0000
0000
,  // measure 35
0010
0100
0010
1000
0200
0000
0320
0000
,  // measure 36
0031
0000
0100
0010
1000
0000
0100
0000
,  // measure 37
1000
0010
0100
0010
0000
0100
0010
0000
,  // measure 38
0100
0001
0010
0001
0100
0010
0100
0000
,  // measure 39
0010
1000
0100
2000
0000
3000
1001
0000
;

//---------------dance-single - Blank----------------
#NOTES:
     dance-single:
     :
     Medium:
     5:
     0.359,0.355,0.233,0.027,0.007,164.000,17.000,2.000,0.000,0.000,0.000,0.359,0.355,0.233,0.027,0.007,164.000,17.000,2.000,0.000,0.000,0.000: // measure 0
0000
0000
0000
0000
,  // measure 1
0000
0000
0000
0000
,  // measure 2
0000
0000
0000
0000
,  // measure 3
0001
0100
0000
0010
0100
0000
0010
1000
,  // measure 4
0000
0100
1000
0000
0010
0000
0100
0000
,  // measure 5
0001
0010
0000
0001
0100
0000
0010
0100
,  // measure 6
0000
0010
1000
0000
0100
0000
1000
0000
,  // measure 7
0001
0000
0000
0000
0100
0000
0000
0010
,  // measure 8
0000
1000
0100
1000
,  // measure 9
0010
0100
0010
0000
0100
0001
0100
0000
,  // measure 10
0001
0010
0001
1001
,  // measure 11
0001
0000
0100
0001
0100
0000
0010
0000
,  // measure 12
1000
0100
1000
0100
0000
0010
0100
0000
,  // measure 13
0010
0000
0100
0001
0100
0000
0010
0000
,  // measure 14
0100
0001
1000
0000
0001
0100
0001
0000
,  // measure 15
0010
0011
0100
0110
,  // measure 16
0010
1000
0010
0000
1000
0000
1100
0000
,  // measure 17
0010
0000
0100
0000
0001
0100
0001
0000
,  // measure 18
0010
0100
0010
0000
0110
0000
1001
0000
,  // measure 19
0001
0100
0001
0000
0001
0010
0001
0000
,  // measure 20
0101
0110
1100
0010
,  // measure 21
0100
0000
0000
0001
0000
0000
0010
0000
,  // measure 22
0000
0001
1000
1010
,  // measure 23
0010
0000
0000
0100
0010
0000
0100
0000
,  // measure 24
0001
0000
0000
0100
0001
0000
0010
0000
,  // measure 25
0100
0000
0000
1000
0100
0000
1000
0000
,  // measure 26
0010
0000
0100
0000
0010
0000
0000
0100
0000
0000
0001
0000
0100
0000
0000
0000
,  // measure 27
2002
0000
0000
3003
0001
1000
0001
0000
,  // measure 28
0110
0000
0000
0010
1000
0000
0000
0100
,  // measure 29
0000
1000
0010
0000
0100
0000
0001
0000
,  // measure 30
0110
0000
0000
0001
0100
0000
0000
0010
,  // measure 31
0000
0001
0100
0010
,  // measure 32
1000
0010
0000
0100
0001
0000
0010
0001
,  // measure 33
0000
1000
0001
0000
0100
0000
0010
0000
,  // measure 34
0110
0000
0000
1100
0000
0000
0101
0000
,  // measure 35
0000
0010
0100
0000
0001
0000
0010
0000
,  // measure 36
0001
0000
0001
0100
0001
0000
0000
0000
,  // measure 37
0010
0001
0010
0001
0000
0000
0100
0000
,  // measure 38
0001
0000
1000
0100
1000
0000
0100
0000
,  // measure 39
1000
0000
0000
0001
0000
0000
1001
0000
;

//---------------dance-single - Blank----------------
#NOTES:
     dance-single:
     :
     Easy:
     4:
     0.243,0.246,0.096,0.000,0.000,117.000,7.000,0.000,0.000,0.000,0.000,0.243,0.246,0.096,0.000,0.000,117.000,7.000,0.000,0.000,0.000,0.000:
0000
0000
0000
0000
,
0000
0000
0000
0000
,
0000
0000
0000
0000
,
0001
0001
0100
0100
,
0010
1000
1001
0000
,
0010
0010
0100
0100
,
0010
0100
0001
0010
,
0001
0000
0100
0000
,
0010
0100
0010
0100
,
0010
0000
1000
0000
,
0001
1000
1001
0000
,
0010
0010
0010
0000
,
0100
0000
0100
0000
,
0001
0010
0100
0000
,
1000
0001
1000
1001
,
0010
0000
0010
0000
,
0100
0010
0100
0000
,
0010
0010
1000
1000
,
0001
1000
0010
0100
,
1000
1000
0010
0010
,
1000
0100
0010
0000
,
0001
0000
0001
0000
,
0100
0001
0100
0101
,
0010
0010
0100
0100
,
0001
0010
0001
0100
,
0010
0010
1000
1000
,
0100
0010
0001
0100
,
0010
0000
0100
0000
,
0010
0000
1000
0000
,
0100
0000
1000
0010
,
0100
0000
0001
0000
,
0100
0010
0100
0010
,
1000
0000
0100
0000
,
0010
0001
0100
0000
,
1001
0000
0000
0000
,
1010
0000
0101
0000
,
0010
0010
0010
0010
,
0100
0100
0100
0100
,
0001
0010
0100
1000
,
0001
1000
0001
0010
;

//---------------dance-single - Blank----------------
#NOTES:
     dance-single:
     :
     Beginner:
     1:
     0.096,0.134,0.000,0.000,0.000,49.000,0.000,0.000,0.000,0.000,0.000,0.096,0.134,0.000,0.000,0.000,49.000,0.000,0.000,0.000,0.000,0.000:
0000
0000
0000
0000
,
0000
0000
0000
0000
,
0000
0000
0000
0000
,
0001
0000
0000
0000
,
0100
0000
0000
0000
,
0010
0000
0000
0000
,
1000
0000
0000
0000
,
0010
0000
0000
0000
,
0100
0000
0000
0000
,
0001
0000
0000
0000
,
1000
0000
0000
0000
,
0010
0000
0010
0000
,
0010
0000
0000
0000
,
0100
0000
0100
0000
,
0100
0000
0000
0000
,
0001
0000
1000
0000
,
0010
0010
0010
0000
,
0100
0000
0001
0000
,
0010
0000
0001
0000
,
0100
0000
0000
0000
,
0010
0000
0000
0000
,
1000
0000
0000
0000
,
0001
0000
0000
0000
,
1000
0000
0000
0000
,
0010
0000
0000
0000
,
0100
0000
0000
0000
,
0010
0000
0000
0000
,
0100
0000
0000
0000
,
0010
0000
0000
0000
,
0010
0000
0000
0000
,
0100
0000
0000
0000
,
0001
0000
0000
0000
,
0010
0000
0001
0000
,
0010
0000
0001
0000
,
1000
0000
0000
0000
,
0010
0000
0100
0000
,
0010
0000
0100
0000
,
0010
0000
0100
0000
,
0001
0000
0000
0000
,
1000
0000
0000
0000
;
