#TITLE:Diabolic Tastemaker;
#SUBTITLE:;
#ARTIST:Cherry Poppin Daddies;
#TITLETRANSLIT:;
#SUBTITLETRANSLIT:;
#ARTISTTRANSLIT:;
#CREDIT:;
#BANNER:;
#BACKGROUND:;
#LYRICSPATH:;
#CDTITLE:;
#MUSIC:13 - Diabolic Tastemaker.mp3;
#OFFSET:0.020;
#SAMPLESTART:22.600;
#SAMPLELENGTH:12.000;
#SELECTABLE:YES;
#BPMS:0.000=125.300,160.000=62.650,167.000=125.300;
#STOPS:46.000=0.359
,165.000=0.479
;
#BGCHANGES:;

//---------------dance-single - ----------------
#NOTES:
     dance-single:
     :
     Hard:
     8:
     0.545,0.653,0.348,0.154,0.518:
0000
0000
0000
0000
,
0000
0000
0000
0000
,
1000
0000
0001
0010
0001
0000
0001
0100
0001
0000
1000
0100
1000
0000
0000
0000
,
1000
0100
0000
0011
0000
0101
0000
0110
0000
1001
0000
0110
0000
1001
0000
0001
,
2000
0001
0100
3010
,
0010
0000
1000
0000
0000
0100
0000
0000
0010
0000
0000
0001
0000
0000
0001
0000
,
1000
0000
0000
0000
1100
0000
0100
0000
0010
0000
0000
0001
0000
0000
0010
0000
,
0011
0000
0001
0100
0010
0000
0001
1000
,
1001
0000
0000
0000
0001
0000
1000
0000
0100
0000
0000
0010
0000
0000
0100
0000
,
0110
0000
0000
0000
0001
0000
0100
0000
0010
0000
0000
0001
0000
0000
0100
0000
,
0010
0000
0000
0000
1000
0000
0100
0000
0001
0000
0000
0100
0000
0000
1000
0000
,
1001
0110
2001
3001
,
1000
0000
0100
0000
1000
0000
0001
0000
0001
0100
0000
0000
0101
0000
0000
0000
,
0011
0000
0000
0000
0001
0000
1000
0000
0010
1000
0000
0000
1010
0000
0000
0000
,
1001
0000
1000
0000
0100
0000
0010
0000
0001
0100
0000
0000
0110
0000
0100
0000
,
0100
0010
1000
0100
0020
0000
0000
0000
0001
0000
0001
0000
0031
0000
1000
0000
,
0010
1000
0100
1000
1000
0001
0010
0001
,
0001
0100
0000
0001
0000
0000
1000
0000
0100
0000
1000
0000
0001
0000
1000
0000
,
0002
0000
1000
1000
2003
0000
0010
3010
,
0100
0000
0100
0000
0001
0000
0010
0000
0100
0000
0000
0000
0000
1001
0000
0000
,
1000
0010
0100
0010
1000
0001
0010
0100
,
0001
2000
0000
3010
0001
1000
0100
0010
,
0001
0100
0010
0000
1010
0000
1000
0100
,
0010
0001
0100
0000
0101
0000
1001
0000
,
1000
0010
0100
0001
1000
0001
1000
0010
,
0100
0010
1000
0100
0010
0002
1000
1000
,
2003
0000
0010
0010
3020
0000
1030
0001
,
0001
0100
0000
0000
0101
0000
0000
0000
0001
0000
0010
0000
0100
0000
0000
0000
,
0100
0000
0010
0000
0100
0000
0000
0000
0100
0000
0010
0000
0101
0000
1000
0001
,
0000
1000
0000
2010
0000
0000
0000
0000
3100
0000
0000
0000
0002
0000
0000
0000
,
1003
0000
2000
0000
3010
0000
1000
0001
,
1000
0001
0100
0010
0100
0000
1001
0000
,
1000
0000
0100
0000
0010
0000
0000
0000
0001
0000
1000
0000
0010
0000
1000
0010
,
0000
1000
0000
0100
0000
0010
0000
0001
0000
0000
0000
0000
0011
0000
0000
0001
,
0000
0010
0000
0100
0000
0000
0000
0000
1000
0000
0001
0000
0100
0000
0001
0100
,
0000
0001
0000
0010
0000
0100
0000
1000
0000
0000
0000
0000
1100
0000
0000
1010
,
0000
0010
0000
1000
0000
0010
0000
0100
0000
0001
0000
0000
0001
0010
0000
0001
,
0000
1000
0000
0100
0000
1000
0000
0010
0000
0000
0000
0101
0000
0000
0011
0000
,
0001
0100
0020
0000
2030
0000
3002
0000
,
2003
3020
0230
0002
,
0000
0000
0000
0000
0303
0000
0000
0000
0000
0000
0000
0001
1000
0000
2001
0000
,
0000
0000
0002
0000
3003
0000
0000
0000
0000
0000
0000
0000
0010
0000
0000
0001
,
1000
0000
0010
0000
0000
0010
0000
1000
0001
0000
0010
0000
0010
0000
0000
0001
,
1000
0000
0010
0000
1000
0000
0001
0000
1000
0000
0010
0000
0100
0000
0000
0001
,
1000
0000
0010
0000
0000
0100
0000
0001
1000
0000
0010
0000
0100
0000
0000
0001
,
1000
0000
0100
0000
0001
0000
0100
0000
1000
0000
0010
0000
1000
0000
0000
0001
,
0100
0000
0010
0000
0000
0000
0010
0000
1000
0100
0000
0010
0000
0100
0000
0000
,
0010
0001
0000
1000
0000
0100
0000
0001
0000
0100
0000
1000
0000
0100
0000
0000
,
0010
0001
0000
0100
0000
0000
0010
0000
1000
0100
0000
0010
0000
0001
0000
0000
,
1000
0001
0000
0100
0000
0010
0000
1000
0000
0010
0000
0001
0000
0010
0000
1000
,
0000
0100
0000
0010
0000
0001
0000
0100
0000
0010
0000
1000
0001
0000
0000
0000
,
1001
0000
0110
0000
1001
0000
1000
0100
,
1000
0001
0100
0001
0100
0000
0101
0000
,
0010
0000
1000
0000
0100
0000
0001
0000
0000
0101
0000
0000
0001
0000
1000
0000
,
0100
1000
0010
0100
0001
0100
0001
0010
,
0001
0100
0001
0100
0010
1000
0010
1000
0010
0000
0110
0000
1001
0000
1000
0000
,
0100
0010
0001
0010
0100
1000
0001
1000
,
1000
0100
1000
0100
1000
0100
0010
0001
0010
0001
0010
0000
0100
0000
0010
0000
,
1000
0000
0001
0000
0100
0000
0001
0000
1000
0000
0100
0000
1000
0000
0010
1000
,
0002
0000
0000
0000
1000
0000
0000
0000
0013
0000
0000
0000
0001
0010
0000
0000
,
0011
0000
0101
0000
0001
0100
0010
0000
,
1001
0000
1100
0000
0001
1000
0100
0010
,
0001
0000
0100
0000
0010
0000
0000
0010
1000
0000
0000
0000
1100
0000
0000
0000
,
0011
0000
0000
0000
0001
0010
0001
0100
0001
0010
0100
0000
1000
0000
0010
0000
,
0100
0000
0001
0010
0000
0000
0100
0000
0010
0000
0001
0000
0100
0000
0000
0010
,
1000
0000
0000
0000
1000
0000
0000
0000
1000
0000
1000
0100
0000
0000
0010
0000
,
0000
0000
0001
0000
0000
0001
0100
0000
0000
0000
0010
0100
0010
0000
0001
1000
,
0001
0000
1000
0000
0000
0100
0000
0000
0010
0000
0001
0000
0000
0000
1000
0000
,
0000
0000
0001
0000
1000
0000
1000
0010
0000
0010
1000
0000
0000
0000
1001
0000
,
0000
1000
0000
0001
0000
0100
0000
0001
0000
1000
0000
0100
0000
0010
0000
0001
,
0000
0010
0000
1000
0000
0010
0000
0001
0000
0000
0000
0011
0000
0000
0000
1010
,
0000
0000
0000
1001
0000
0000
0000
1000
0000
0001
0000
0100
0000
0000
0000
0010
,
0000
1000
0000
0000
0000
1000
0000
0100
0000
0010
0000
0001
0000
0000
0000
0101
,
0000
0000
0000
1002
0000
0010
0000
0000
0000
0100
0000
0000
0000
0000
0000
0103
,
0000
0010
0000
1000
0000
0000
0000
0001
0000
0100
0000
0010
0000
0000
0000
1000
,
0000
0000
0000
1001
0000
0000
0000
0000
0000
0000
0000
0000
0000
0000
0000
0000
;

//---------------dance-single - Copied from----------------
#NOTES:
     dance-single:
     Copied from:
     Medium:
     6:
     0.326,0.377,0.267,0.114,0.000:
0000
0000
0000
0000
,
0000
0000
0000
0000
,
0010
1000
0100
0000
0100
1000
0010
0000
,
0010
1000
0001
0100
,
0020
0100
1000
0031
,
0001
1000
0001
0000
0001
0000
0010
0100
,
0010
1010
0001
1000
,
0101
0000
0100
0010
1000
0000
0100
0000
,
0110
0100
1000
0001
,
1001
0000
0100
0000
0001
0000
1000
1000
,
0001
0010
0100
0000
,
0110
1001
0120
0130
,
0010
0100
0010
0000
0100
0000
1100
0000
,
0101
0000
0100
0000
0001
0001
0011
0000
,
0110
1000
0100
1001
,
1000
0001
0002
0000
0100
0000
0103
0000
,
0001
0000
1000
0000
0010
1000
0001
0000
,
0100
0000
0001
0000
1000
0000
0100
0010
,
0200
0000
0010
0000
0320
0000
0001
0030
,
1000
0000
0100
0000
1000
0000
0001
1000
,
0010
0000
1000
0000
0010
1000
0001
0000
,
0100
0000
0100
1000
,
0100
0001
0011
0010
,
0001
1000
1100
0110
,
0010
0001
1000
0000
0010
0000
0010
0000
,
1000
0010
0001
0010
,
0020
0000
0001
0000
0032
0000
0013
1000
,
0100
1100
0100
1000
,
1000
0000
1000
0001
1000
0000
1100
0001
,
0100
0010
1000
0000
1000
0000
0200
0000
,
0310
0020
0031
0010
,
0010
1000
1000
0110
,
0010
1000
0001
0010
0100
0000
0001
0000
,
0110
1000
0010
0101
,
0000
0000
0010
1000
,
0001
0010
0100
1000
0001
0000
1010
0000
,
1100
0011
0101
0100
,
0010
0000
1000
0000
0100
0010
0001
0000
,
0100
0002
0023
0230
,
0320
0032
2003
0200
,
0000
3300
0000
0010
,
0000
0000
0000
0001
,
0010
0000
0100
0001
,
0010
0010
0010
1000
,
0010
0000
0010
1000
,
0010
0100
0010
0010
,
1000
0000
0010
0000
,
0001
0000
0000
0000
,
0001
0000
0010
0000
,
0010
0000
0000
0000
,
1000
0100
0010
0001
0000
0000
0100
0000
,
0110
1001
0110
0010
,
0010
1000
1000
1100
,
0001
1000
0000
0100
,
1000
0001
0100
0100
,
0100
0001
0001
0110
,
1000
0100
1000
0100
,
0010
0010
0001
1000
,
0010
1000
0010
0010
,
0200
0000
0010
0000
0301
0000
0100
0001
,
0101
0000
1100
0000
0100
0000
0001
1000
,
0110
1010
0100
1000
,
0100
0000
0001
0000
0010
1000
1010
0000
,
0101
0100
0100
0010
,
1000
0000
0001
1000
0001
0000
1000
0000
,
0010
0010
0010
0000
,
1001
0110
1001
0001
,
0100
0000
0001
0000
,
0000
0010
0000
0000
,
0010
0100
1000
0001
,
0010
0000
0010
0000
,
0100
0001
0100
0001
,
1000
0000
0000
0000
,
0110
0000
0000
0010
,
0100
1000
0000
0000
,
0001
0110
0000
0000
;

//---------------dance-single - Copied from Copied f----------------
#NOTES:
     dance-single:
     Copied from Copied f:
     Easy:
     4:
     0.258,0.327,0.221,0.114,0.000: // measure 1
0000
0000
0000
0000
,  // measure 2
0000
0000
0000
0000
,  // measure 3
0001
1000
1000
0001
,  // measure 4
0001
0000
0000
0000
,  // measure 5
0002
1000
0010
0103
,  // measure 6
0100
0000
0100
0000
,  // measure 7
0001
0011
0100
0000
,  // measure 8
1100
1000
0100
1000
,  // measure 9
1001
1000
0010
0000
,  // measure 10
0110
1000
0100
0000
,  // measure 11
0100
0001
1000
0000
,  // measure 12
1001
0110
1002
1003
,  // measure 13
0001
0001
1000
1010
,  // measure 14
1100
1000
0100
0101
,  // measure 15
1001
0010
1000
0110
,  // measure 16
0010
0200
1000
1300
,  // measure 17
0100
0010
0001
0100
,  // measure 18
1000
0000
0010
1000
,  // measure 19
2000
0000
0001
0000
3002
0000
0100
0003
,  // measure 20
0010
1000
0010
0000
,  // measure 21
0001
0010
0001
0100
,  // measure 22
1000
0000
1000
0010
,  // measure 23
1000
0100
0101
0001
,  // measure 24
0100
0010
1010
1001
,  // measure 25
0001
0010
0001
0001
,  // measure 26
0010
0001
0100
0001
,  // measure 27
0002
0100
0203
0301
,  // measure 28
1000
1010
1000
0010
,  // measure 29
0010
0010
0010
1010
,  // measure 30
0000
0000
0010
2000
,  // measure 31
3001
0002
0103
0001
,  // measure 32
0001
0010
0010
1001
,  // measure 33
0001
0100
1000
0100
,  // measure 34
0000
0000
0000
1100
,  // measure 35
0000
0000
0001
0010
,  // measure 36
0000
0000
0000
0011
,  // measure 37
0000
0000
0000
1000
,  // measure 38
0000
0000
0000
0000
,  // measure 39
1000
0200
0302
2003
,  // measure 40
3002
0203
0320
2000
,  // measure 41
0000
3030
0000
0001
,  // measure 42
0000
0000
0000
0100
,  // measure 43
0001
0000
1000
0100
,  // measure 44
0001
0001
0001
0010
,  // measure 45
0001
0000
0001
0010
,  // measure 46
0001
1000
0001
0001
,  // measure 47
0010
0000
0001
0000
,  // measure 48
0100
0000
0000
0000
,  // measure 49
0100
0000
0001
0000
,  // measure 50
0001
0000
0000
0000
,  // measure 51
0000
0000
0000
1000
,  // measure 52
1001
0110
1001
0001
,  // measure 53
0001
0010
0010
1010
,  // measure 54
0100
0010
0000
1000
,  // measure 55
0010
0100
1000
1000
,  // measure 56
1000
0100
0100
1001
,  // measure 57
0010
1000
0010
1000
,  // measure 58
0001
0001
0100
0010
,  // measure 59
0001
0010
0001
0001
,  // measure 60
2000
0001
3100
1000
,  // measure 61
1100
1010
1000
0100
,  // measure 62
1001
0011
1000
0010
,  // measure 63
1000
0100
0001
0011
,  // measure 64
1100
1000
1000
0001
,  // measure 65
0010
0000
0100
0010
,  // measure 66
0001
0001
0001
0000
,  // measure 67
0000
0000
0000
0100
,  // measure 68
1000
0000
0100
0000
,  // measure 69
0000
0001
0000
0000
,  // measure 70
0001
1000
0010
0100
,  // measure 71
0001
0000
0001
0000
,  // measure 72
1000
0000
0000
0000
,  // measure 73
0010
0000
0000
0000
,  // measure 74
1001
0000
0000
0001
,  // measure 75
1000
0010
0000
0000
,  // measure 76
0000
1001
0000
0000
;
