#TITLE:Demented Cupcakes;
#SUBTITLE:;
#ARTIST:Foozogz;
#TITLETRANSLIT:;
#SUBTITLETRANSLIT:;
#ARTISTTRANSLIT:;
#CREDIT:;
#BANNER:;
#BACKGROUND:;
#LYRICSPATH:;
#CDTITLE:;
#MUSIC:Demented Cupcakes.mp3;
#OFFSET:-11.300;
#SAMPLESTART:21.960;
#SAMPLELENGTH:12.000;
#SELECTABLE:YES;
#BPMS:0.000=180.000;
#STOPS:151.750=1.320
,155.750=1.320
;
#BGCHANGES:;

//---------------dance-single - ----------------
#NOTES:
     dance-single:
     :
     Hard:
     8:
     0.570,0.613,0.099,0.088,0.126: // measure 1
0010
1000
0100
1000
0001
0100
0010
0000
,  // measure 2
1000
0001
0010
0100
0010
0001
1000
0000
,  // measure 3
0010
0100
0001
0100
0010
1000
0001
0000
,  // measure 4
0010
0100
1000
0001
0100
0010
0010
0100
,  // measure 5
0001
0010
0100
1000
0001
0100
0010
0000
,  // measure 6
0010
0100
0001
1000
0100
0010
0100
0000
,  // measure 7
1000
0001
0100
0010
1000
0001
0010
0000
,  // measure 8
0001
0100
0100
0010
1000
0001
0010
0001
,  // measure 9
0100
0010
1000
0000
0001
0010
0100
0000
,  // measure 10
0010
0001
0100
0010
0010
0100
0001
0010
,  // measure 11
0100
1000
0001
0000
0100
0010
1000
0000
,  // measure 12
0001
0010
0100
0100
1000
0001
0100
0010
,  // measure 13
1000
0001
0100
0000
0100
0001
0010
0000
,  // measure 14
0010
0001
0100
0010
1000
0001
0010
0000
,  // measure 15
0100
0010
0001
0000
0100
0010
0100
0000
,  // measure 16
0010
1000
0001
0010
0100
1000
0010
0100
,  // measure 17
0101
0000
1010
0000
1000
0001
1001
0000
,  // measure 18
1000
0100
1000
0100
0001
0100
0001
0100
,  // measure 19
1000
0100
1000
0010
,  // measure 20
0100
0001
0010
0100
,  // measure 21
0010
0000
0000
0001
0000
0000
0100
0000
,  // measure 22
0010
0100
0001
0010
,  // measure 23
0100
0000
0001
0000
0100
0000
0010
0001
,  // measure 24
1000
0000
0010
0000
0100
0000
0001
0100
,  // measure 25
0010
1000
0100
0010
,  // measure 26
0100
1000
0010
0000
0100
0000
1000
0000
,  // measure 27
0100
0000
0010
0000
1000
0000
0001
0010
,  // measure 28
0100
1000
0001
0100
,  // measure 29
0010
0000
1000
0000
0001
0000
0010
0100
,  // measure 30
1000
0001
0100
0010
1000
0000
0001
0010
,  // measure 31
0100
0000
1100
0000
1000
0000
1010
0010
,  // measure 32
0100
0001
0010
0100
,  // measure 33
1100
2002
0000
3003
,  // measure 34
0110
0000
0000
0000
,  // measure 35
0000
0000
0000
0000
,  // measure 36
0100
0100
0000
0000
,  // measure 37
0000
0000
0000
0000
,  // measure 38
0010
0000
1000
0000
0100
0000
1000
0000
0001
0100
0010
0000
0100
0000
0001
1000
,  // measure 39
0001
0000
0010
0100
0000
0010
0001
0000
0100
0010
0100
0000
0001
0000
1000
0010
,  // measure 40
1000
0010
0100
0001
0010
0100
0010
0001
,  // measure 41
0100
0010
1000
0001
0010
0100
1000
0000
,  // measure 42
1000
0001
0100
0010
1000
0001
0010
0100
,  // measure 43
1000
1000
0010
0010
0100
0100
0001
0001
,  // measure 44
0010
0001
0100
0010
1000
0001
0010
0000
,  // measure 45
0010
0001
0100
0010
1000
0001
0010
0000
,  // measure 46
0010
0100
1000
0001
0100
0010
1000
0000
,  // measure 47
0001
0001
0010
0010
0100
0100
1000
1000
,  // measure 48
0001
0000
1000
0100
1000
0000
0010
0001
0010
0000
0100
0000
0001
0000
0100
0000
,  // measure 49
0010
1000
0001
0010
0100
0010
0001
0100
,  // measure 50
0010
0000
1000
0000
0001
0010
0001
0000
0100
0000
0010
0000
1000
0000
0001
0000
,  // measure 51
0010
0000
0100
0000
1000
0000
0001
0000
0100
1000
0100
0000
0010
0000
1000
0000
,  // measure 52
0001
0010
0100
0002
0000
0000
0103
0010
0001
2000
0000
0000
,  // measure 53
3010
0000
0000
1000
0000
0000
0100
0000
1000
0000
0001
0000
0100
0000
0010
0000
,  // measure 54
1000
0010
0100
2000
0000
0000
3100
0010
1000
0002
0000
0000
,  // measure 55
0013
0000
0001
0100
0000
0010
1000
0000
0001
0010
0001
1000
0100
0000
1000
0000
,  // measure 56
2002
0000
0000
0000
,  // measure 57
3003
0000
0000
0000
;

//---------------dance-single - ----------------
#NOTES:
     dance-single:
     :
     Medium:
     6:
     0.430,0.429,0.066,0.055,0.033: // measure 1
0010
0000
1000
0100
0000
0100
1000
0000
,  // measure 2
0010
0000
0100
0001
0100
0010
1000
0000
,  // measure 3
0001
0000
0010
0100
0000
0100
0010
0000
,  // measure 4
0001
0000
1000
0000
0010
0100
0001
0000
,  // measure 5
0100
0000
0010
0000
1000
0001
0010
0000
,  // measure 6
0100
0000
1000
0000
0100
0010
0100
0000
,  // measure 7
1000
0000
0001
0000
0100
0010
0100
0000
,  // measure 8
0001
0000
0010
0000
0100
1000
0001
0000
,  // measure 9
0100
0000
0010
1000
0000
1000
0010
0000
,  // measure 10
0100
0001
0100
0010
1000
0000
0001
0000
,  // measure 11
0010
0000
0100
1000
0000
1000
0001
0000
,  // measure 12
0100
0000
0010
0100
0000
0001
0010
0100
,  // measure 13
1000
0000
0001
0000
0100
0010
0100
0000
,  // measure 14
0001
0000
0010
0000
0100
1000
0001
0000
,  // measure 15
0100
0000
0010
0000
1000
0001
0010
0000
,  // measure 16
0100
0000
1000
0001
0000
0001
0100
0000
,  // measure 17
0110
0000
1001
0000
0001
1000
0002
0000
,  // measure 18
1003
0010
0100
0000
0001
0000
0100
0000
,  // measure 19
0010
0010
1000
1000
,  // measure 20
0001
0010
0100
1000
,  // measure 21
0010
0000
0000
0100
0000
0000
0010
0000
,  // measure 22
1000
0000
0100
1000
0100
0000
0010
0000
,  // measure 23
0001
0001
0100
0100
,  // measure 24
0001
0000
0010
0000
0100
0000
1000
0001
,  // measure 25
0100
0010
0100
0001
,  // measure 26
0010
0001
0010
0000
0100
0000
1000
0000
,  // measure 27
0001
0001
0100
0100
,  // measure 28
0010
0000
0000
1000
0000
0001
1000
0000
,  // measure 29
0010
0000
0010
0000
0100
0000
0001
0100
,  // measure 30
0010
1000
0001
0000
0010
0000
0100
1000
,  // measure 31
0100
0010
0001
0100
,  // measure 32
1000
0100
0001
0010
,  // measure 33
0110
2002
0000
3003
,  // measure 34
0110
0000
0000
0000
,  // measure 35
0000
0000
0000
0000
,  // measure 36
0010
0010
0000
0000
,  // measure 37
0000
0000
0000
0000
,  // measure 38
0010
0000
0000
1000
0000
0000
0100
0000
1000
0000
0010
0000
0100
0000
0001
0000
,  // measure 39
0010
0000
0000
0001
0000
0000
0100
0000
0010
0000
1000
0000
0001
0000
0010
0000
,  // measure 40
0100
0000
0010
0000
0001
0100
0010
0000
,  // measure 41
1000
0000
0001
0000
0010
0100
1000
0000
,  // measure 42
0001
0000
0100
0000
0010
1000
0001
0000
,  // measure 43
0010
0000
0001
0000
1000
0001
1000
0001
,  // measure 44
1000
0000
0010
0000
0100
0001
0100
0000
,  // measure 45
0010
0000
1000
0000
0001
0010
0100
0000
,  // measure 46
1000
0000
0010
0000
0100
0001
1000
0000
,  // measure 47
0100
0000
0010
0000
0100
0010
0100
0010
,  // measure 48
0100
1000
0010
0000
0100
0001
1000
0000
,  // measure 49
0100
0010
0100
1000
0001
0100
0010
0000
,  // measure 50
1000
0001
0010
0000
0010
0001
0100
0000
,  // measure 51
0010
1000
0001
0000
0010
0000
0100
0000
,  // measure 52
1000
0000
0001
1000
0000
0000
0010
0000
0100
0010
0000
0000
,  // measure 53
0100
0000
0001
0000
0010
0100
1000
0001
,  // measure 54
0100
0000
0001
0100
0000
0000
0010
0000
1000
0010
0000
0000
,  // measure 55
0100
0001
0010
0000
0100
1000
0001
0000
,  // measure 56
2002
0000
0000
0000
,  // measure 57
3003
0000
0000
0000
;

//---------------dance-single - ----------------
#NOTES:
     dance-single:
     :
     Easy:
     5:
     0.386,0.399,0.066,0.077,0.022: // measure 1
0010
1000
0100
1000
,  // measure 2
0001
0000
0100
0000
0010
1000
0010
0000
,  // measure 3
0100
0001
1000
0100
,  // measure 4
0010
0000
0100
0000
1000
0001
1000
0000
,  // measure 5
0001
0100
0010
1000
,  // measure 6
0001
0000
0010
0000
0100
0010
0001
0000
,  // measure 7
0100
0010
1000
0001
,  // measure 8
0010
0000
0100
0000
0001
0100
0010
0000
,  // measure 9
0001
0100
0010
0010
,  // measure 10
1000
0000
1000
0000
0100
0100
0100
0000
,  // measure 11
1000
0010
0100
0100
,  // measure 12
0001
0000
0001
0000
0010
0010
0010
0000
,  // measure 13
0001
0100
0010
0010
,  // measure 14
1000
0000
1000
0000
0001
0001
0001
0000
,  // measure 15
1000
0010
0100
0100
,  // measure 16
0001
0000
0001
0000
1000
1000
1000
0000
,  // measure 17
0002
0000
2003
0000
3001
1000
0002
0000
,  // measure 18
1003
0010
0100
0001
,  // measure 19
0010
0010
0100
0100
,  // measure 20
1000
0001
0100
0010
,  // measure 21
1000
0000
0000
0001
0000
0000
1000
0000
,  // measure 22
0010
0100
0001
1000
,  // measure 23
0001
0001
0010
0010
,  // measure 24
0100
1000
0001
0100
,  // measure 25
0100
0000
0000
0001
0000
0000
0100
0000
,  // measure 26
0010
1000
0100
1000
,  // measure 27
0010
0010
1000
1000
,  // measure 28
0001
0010
0100
0010
,  // measure 29
0001
0001
0000
0000
,  // measure 30
0100
0100
0010
0010
,  // measure 31
1000
0001
1000
0010
,  // measure 32
0100
0001
0010
0100
,  // measure 33
1000
2002
0000
3003
,  // measure 34
1001
0000
0000
0000
,  // measure 35
0000
0000
0000
0000
,  // measure 36
0100
0100
0000
0000
,  // measure 37
0000
0000
0000
0000
,  // measure 38
1000
0000
0010
0000
0100
0000
0001
1000
,  // measure 39
1001
0000
0010
0000
0100
0000
0001
0010
,  // measure 40
0011
0000
0001
0000
0100
0010
0100
0000
,  // measure 41
0001
0000
0010
0000
0100
1000
0001
0000
,  // measure 42
0100
0000
0010
0000
1000
0001
0010
0000
,  // measure 43
0100
0000
1000
0000
0100
1000
0100
1000
,  // measure 44
0100
0000
0010
0000
0001
0100
0010
0000
,  // measure 45
0100
0000
0001
0000
0010
0100
1000
0000
,  // measure 46
0010
0000
0100
0000
0001
1000
0100
0000
,  // measure 47
0010
0000
0001
0000
0010
0001
0010
0001
,  // measure 48
0010
0000
0001
0000
0100
0010
0100
0000
,  // measure 49
0001
0010
0001
0000
1000
0100
1000
0000
,  // measure 50
0001
0000
0100
0000
0010
1000
0010
0000
,  // measure 51
0100
0001
0100
0000
0110
0000
0010
0000
,  // measure 52
1000
0000
1000
0100
0000
0000
0010
0000
0010
0001
0000
0000
,  // measure 53
0100
0000
0010
0000
1000
0001
0010
0000
,  // measure 54
0100
0000
0100
1000
0000
0000
0001
0000
0001
0010
0000
0000
,  // measure 55
0001
0000
0100
0000
0010
1000
0001
0000
,  // measure 56
2002
0000
0000
0000
,  // measure 57
3003
0000
0000
0000
;
