#TITLE:Daisy Chains;
#SUBTITLE:;
#ARTIST:Ms. Triniti;
#TITLETRANSLIT:;
#SUBTITLETRANSLIT:;
#ARTISTTRANSLIT:;
#GENRE:;
#CREDIT:;
#BANNER:;
#BACKGROUND:;
#LYRICSPATH:;
#CDTITLE:;
#MUSIC:Daisy Chains.mp3;
#OFFSET:-0.289;
#SAMPLESTART:43.777;
#SAMPLELENGTH:17.907;
#SELECTABLE:YES;
#BPMS:0.000=129.000
;
#STOPS:
;
#BGCHANGES:;
#KEYSOUNDS:;
#ATTACKS:;

//---------------dance-single - ----------------
#NOTES:
     dance-single:
     :
     Hard:
     8:
     0.493,0.482,0.201,0.115,0.765,328.000,21.000,12.000,0.000,0.000,0.000,0.493,0.482,0.201,0.115,0.765,328.000,21.000,12.000,0.000,0.000,0.000:
0000
0000
0000
0000
,
0000
0000
0000
0000
,
0000
0000
0000
0000
,
0000
0000
0000
0000
,
0001
0000
0001
0100
0000
0100
0010
0000
0010
1000
0000
1000
,
0100
1100
0010
0110
,
0001
0000
0001
0100
0000
0100
0001
0000
0001
0010
0000
0010
,
0100
0000
0000
1100
0000
0000
0010
0000
0100
0001
0000
1000
,
0010
0000
0000
0100
0000
0000
0010
0000
0100
1000
0000
0100
,
0001
0000
0000
0010
0000
0000
0100
0000
1000
0010
0000
0100
,
0001
0000
0000
0010
0000
0000
0100
0000
1000
0010
0000
0100
,
1000
0000
0000
1000
0000
0000
0100
0000
0001
0010
0000
0001
,
1000
0000
0010
0100
0000
0001
0100
0000
0001
0000
0000
0010
,
0000
0000
0000
0001
0000
0000
0100
0000
0000
0010
0000
0100
,
0010
0000
1000
0100
0000
1000
0010
0000
0100
0010
0000
0100
,
0010
0100
0001
0010
,
0100
0000
0100
1000
0000
1000
0010
0000
0000
0001
0000
0001
,
0100
0000
0100
1000
0000
1000
0010
0000
0000
0100
0000
0001
,
1000
0000
1000
0001
0000
0001
1000
0000
1000
0001
0000
0001
,
1000
0000
1010
0000
0000
0100
0001
0000
0100
0000
0000
0100
,
0020
2030
3200
0310
,
0001
0000
0001
0100
0000
0100
0010
0000
0000
1000
0000
0000
,
0002
0000
0000
0013
0000
0100
1000
0000
0010
0000
0000
0100
,
0010
0000
0000
1000
0000
0000
0001
0000
0001
1000
0001
1000
,
0001
0000
0001
1000
0000
1000
0010
0000
0010
0100
0000
0010
,
0100
0000
0100
0010
0000
0010
1000
0000
1000
0100
0000
1000
,
0100
0000
0100
0010
0000
0010
0001
0000
0001
0100
0000
0100
,
0001
0000
1001
0000
0000
0100
0000
0000
1000
0010
0100
0010
,
1000
0000
0000
0010
0000
0000
0100
0000
0000
0001
0000
0100
,
0001
0000
0000
0010
0000
0000
0100
0000
1000
0100
0000
1000
,
0010
0000
0100
0010
0000
0100
0001
0000
0010
0001
0000
0100
,
0001
0000
0100
0001
0000
0010
1000
0010
1000
0010
1000
0010
,
0001
0000
0000
0110
0000
0000
0010
0000
1000
0000
0000
0110
,
0000
0000
0101
0000
0000
1001
0000
0000
1100
0000
0000
0000
,
0100
0000
1000
0010
0000
0100
0001
0000
0000
0010
0000
0001
,
0100
0000
0010
0000
0000
0100
0000
0000
0010
0000
0000
1001
,
0000
0000
0000
0001
0000
0000
0010
0000
0100
0000
0000
0010
,
0000
0000
0001
0000
0000
1000
0000
0000
0010
0000
0000
1000
,
0100
0000
0010
0100
0000
0010
0001
0000
0100
0010
0000
0100
,
0010
0000
1000
0000
0000
0010
1000
0001
1000
0001
1000
0001
,
1000
0000
1000
0010
0000
0010
0100
0000
0100
0001
0000
0001
,
0010
0000
0101
0000
0000
0110
0000
0000
0000
1010
0000
0000
,
0100
0000
0100
1000
0000
1000
0010
0000
0010
0100
0000
0100
,
0001
0000
0011
0000
0000
0101
0000
0000
0000
0110
0000
0000
,
1000
0010
1000
0100
1000
0010
1000
0100
1000
0010
1000
0010
,
0100
0000
0001
0000
0000
0010
0000
0000
0000
0001
0000
0000
,
0100
0000
0010
0100
0000
0010
1000
0000
0100
1000
0000
0010
,
0100
0000
0010
0000
0000
0110
0000
0000
0000
0110
0000
0000
,
2000
3020
0230
0302
,
0013
0000
0200
0000
0000
2300
0000
0000
0000
3000
0000
0000
,
0010
0000
0100
0001
0000
0100
0001
0000
0010
0001
0000
0100
,
0010
0000
0100
0000
0000
0010
0000
0000
0010
0100
0000
0000
,
0001
0010
0001
0100
0001
0010
0001
0100
0001
0010
0001
0100
,
0010
0000
1000
0000
0000
0010
0000
0000
0000
0100
0000
0000
,
0001
0000
0100
0010
0000
0010
1000
0000
1000
0100
0000
0100
,
0010
0000
0011
0000
0000
2020
0000
0000
0000
0000
0000
0000
,
3030
0000
0000
0000
;

//---------------dance-single - ----------------
#NOTES:
     dance-single:
     :
     Medium:
     7:
     0.351,0.344,0.172,0.096,0.263,229.000,18.000,10.000,0.000,0.000,0.000,0.351,0.344,0.172,0.096,0.263,229.000,18.000,10.000,0.000,0.000,0.000:
0000
0000
0000
0000
,
0000
0000
0000
0000
,
0000
0000
0000
0000
,
0000
0000
0000
0000
,
0002
0203
0320
2030
,
3100
0000
1000
0000
0000
0010
0000
0000
0000
0000
0000
0000
,
0200
0000
0000
0302
0000
0003
0020
0000
0000
0230
0000
0000
,
1300
0000
0100
0000
0000
1000
0000
0000
0000
0010
0000
0000
,
0102
0000
0000
0100
0000
0000
0100
0000
0000
0103
0000
0020
,
1000
1000
1000
1030
,
0001
0000
0000
0100
0000
0000
0001
0000
0010
0000
0000
0001
,
0000
0100
0010
0100
,
1000
1100
0100
1100
,
0010
0110
0100
0110
,
0001
0000
0000
0010
0000
0000
0001
0000
0000
0100
0000
0001
,
0100
0010
0100
0010
,
0001
0000
0000
0010
0000
0000
0100
0000
0000
1000
0000
0010
,
1000
0000
0000
0010
0000
0000
0100
0000
0000
0001
0000
0010
,
0001
0100
0010
0100
,
0001
0000
1000
0000
0000
0001
0000
0000
0000
0000
0000
0000
,
0001
0000
0000
0010
0000
0000
0100
0000
0000
1000
0000
0010
,
1000
0000
1000
0010
0000
0010
0100
0000
0000
0001
0000
0000
,
0010
0000
0000
0001
0000
0100
0001
0000
0000
0100
0000
0010
,
0100
0010
1000
0001
,
1000
0000
0000
0001
0000
0000
0100
0000
0000
0001
0000
0010
,
0001
0000
0000
0100
0000
0000
0010
0000
0000
1000
0000
0100
,
1000
0010
0100
0010
,
0100
0000
0000
0001
0000
0000
0100
0000
0000
0001
0000
1000
,
0001
0000
0000
1000
0000
0000
0010
0000
0100
0000
0000
0010
,
0000
0000
0100
0000
0000
0001
0000
0000
0010
0000
0000
0000
,
0001
0100
0010
1000
,
0100
1000
0010
0100
,
0001
1001
0010
0100
,
1010
0000
0000
0010
0000
0000
0100
0000
0000
0001
0000
0010
,
0001
0000
0000
0100
0000
0000
0010
0000
0000
1000
0000
0001
,
1000
0000
0001
0000
0000
1000
0000
0000
0001
0000
0000
1000
,
0000
0000
0000
0000
0000
0000
0001
0000
0100
0000
0000
0010
,
0000
0000
1000
0000
0000
0100
0000
0000
0010
0000
0000
0001
,
0100
0000
0100
0010
0000
0010
1000
0000
0000
0100
0000
0000
,
0010
0000
0001
0000
0000
0100
0000
0000
0010
0000
0000
1000
,
0001
0000
0000
1000
0000
1000
0010
0000
0010
0100
0000
0100
,
0001
0010
0001
0000
,
0100
0000
0000
0010
0000
0000
1000
0000
0000
0100
0000
1000
,
0010
0100
0001
0000
,
0001
0000
0001
0100
0000
0100
0010
0000
0010
1000
0000
1000
,
0100
1000
0010
0000
,
0100
0001
0010
0100
,
0001
0000
0000
0100
0000
0000
1000
0000
0010
1000
0000
0000
,
0010
0100
0001
0010
,
0001
0000
0000
0100
0000
0000
0010
0000
0000
1000
0000
0100
,
1000
0000
0000
0010
0000
0000
0100
0000
0000
0010
0000
0100
,
0010
0100
0001
1000
,
1010
0101
0011
0101
,
1001
0001
0100
0010
,
0110
0011
0110
1100
,
1010
0000
0000
0000
0000
0101
0000
0000
0000
0000
0000
0000
;

//---------------dance-single - ----------------
#NOTES:
     dance-single:
     :
     Easy:
     4:
     0.276,0.316,0.096,0.038,0.000,188.000,10.000,4.000,0.000,0.000,0.000,0.276,0.316,0.096,0.038,0.000,188.000,10.000,4.000,0.000,0.000,0.000:
0000
0000
0000
0000
,
0000
0000
0000
0000
,
0000
0000
0000
0000
,
0000
0000
0000
0000
,
0001
0010
0001
0010
,
0001
0000
1000
0000
,
0010
0100
0010
0100
,
0010
0000
1000
0010
,
1000
1000
0001
0100
,
0010
0010
0010
1000
,
0100
0100
0100
0010
,
0001
0000
1000
0000
,
0010
0100
0001
0001
,
0010
0001
0100
0100
,
0010
1000
0100
0100
,
0010
0001
0010
0010
,
0100
0100
1100
1010
,
0010
0010
0110
0101
,
0001
0010
0100
1000
,
0010
0010
0010
0000
,
0001
0100
0001
0010
,
0001
0001
0100
0100
,
0010
1000
0001
0100
,
0010
1001
0001
0010
,
0100
1001
0010
0010
,
0100
0100
0100
0100
,
0001
0010
0001
0100
,
0010
0010
0010
0010
,
1000
0100
0010
0001
,
0100
0010
0100
0010
,
0100
0010
1000
0100
,
0010
0100
0010
0100
,
0001
0010
0010
0001
,
0100
0100
0100
0010
,
1000
0100
1000
0010
,
0100
0010
0100
0001
,
0010
0010
0001
0001
,
0100
0010
1000
0100
,
1000
0010
1000
0010
,
0100
0010
0100
0010
,
0110
0001
0010
0100
,
1000
0010
0110
0000
,
0010
1000
0100
0010
,
0001
0100
0001
0100
,
0010
0001
0010
0100
,
0001
0010
0100
0100
,
1000
0010
0100
0001
,
1001
0000
1001
0000
,
0001
0001
1000
1000
,
0020
0000
0000
0030
,
0100
0100
0100
0100
,
0200
0000
0000
0300
,
0001
0010
0100
1000
,
0020
0000
2030
0000
,
3001
0100
0001
0010
,
0100
0000
0000
0000
;

//---------------dance-single - ----------------
#NOTES:
     dance-single:
     :
     Beginner:
     2:
     0.123,0.210,0.000,0.000,0.000,90.000,0.000,0.000,0.000,0.000,0.000,0.123,0.210,0.000,0.000,0.000,90.000,0.000,0.000,0.000,0.000,0.000: // measure 0
0000
0000
0000
0000
,  // measure 1
0000
0000
0000
0000
,  // measure 2
0000
0000
0000
0000
,  // measure 3
0000
0000
0000
0000
,  // measure 4
0001
0000
0000
0000
,  // measure 5
1000
0000
0000
0000
,  // measure 6
0010
0000
0000
0000
,  // measure 7
0100
0000
0000
0000
,  // measure 8
0001
0000
0000
0000
,  // measure 9
1000
0000
0000
0000
,  // measure 10
0010
0000
0000
0000
,  // measure 11
0100
0000
0000
0000
,  // measure 12
0001
0000
0001
0000
,  // measure 13
1000
0000
1000
0000
,  // measure 14
0010
0000
0010
0000
,  // measure 15
0100
0000
0100
0000
,  // measure 16
0001
0001
0001
0000
,  // measure 17
1000
1000
1000
0000
,  // measure 18
0010
0000
0100
0000
,  // measure 19
0010
0000
0010
0000
,  // measure 20
1000
1000
1000
0000
,  // measure 21
0001
0001
0001
0000
,  // measure 22
0100
0000
0010
0000
,  // measure 23
0100
0000
0000
0000
,  // measure 24
0000
0001
0000
1000
,  // measure 25
0000
0001
0000
0100
,  // measure 26
0100
0100
0100
0000
,  // measure 27
0010
0010
0010
0000
,  // measure 28
0100
0100
0000
0010
,  // measure 29
0000
1000
0000
0010
,  // measure 30
0010
0010
0010
0010
,  // measure 31
0010
0010
0010
0010
,  // measure 32
0010
0000
0000
0000
,  // measure 33
1000
0000
0000
0000
,  // measure 34
0001
0000
0000
0000
,  // measure 35
0010
0000
0000
0000
,  // measure 36
0100
0000
0010
0000
,  // measure 37
0100
0000
0010
0000
,  // measure 38
0001
0000
0001
0000
,  // measure 39
0001
0000
0001
0000
,  // measure 40
0001
0000
0000
0000
,  // measure 41
1000
0000
0000
0000
,  // measure 42
0010
0000
0000
0000
,  // measure 43
0100
0000
0000
0000
,  // measure 44
0010
0000
0010
0000
,  // measure 45
0010
0000
0000
0000
,  // measure 46
0100
0000
0100
0000
,  // measure 47
0100
0000
0000
0000
,  // measure 48
0001
0000
0001
0000
,  // measure 49
0001
0000
0000
0000
,  // measure 50
1000
0000
1000
0000
,  // measure 51
1000
0000
0000
0000
,  // measure 52
0100
0000
0000
0000
,  // measure 53
1000
0000
0000
0000
,  // measure 54
0010
0000
0000
0000
,  // measure 55
0100
0000
0000
0000
;
