#TITLE:synchronization;
#SUBTITLE:;
#ARTIST:ziki 7;
#TITLETRANSLIT:;
#SUBTITLETRANSLIT:;
#ARTISTTRANSLIT:;
#GENRE:;
#CREDIT:Meseki;
#MENUCOLOR:0.5,0.0,0.75,1.0;
#BANNER:synchronization-bn.png;
#BACKGROUND:synchronization-bg.png;
#LYRICSPATH:;
#CDTITLE:cdtitle.png;
#MUSIC:synchronization.mp3;
#OFFSET:-0.492;
#SAMPLESTART:78.031;
#SAMPLELENGTH:14.769;
#SELECTABLE:YES;
#LISTSORT:;
#DISPLAYBPM:130.000;
#BPMS:0.000=260.000,7.000=520.000,7.500=173.333,8.000=130.000,39.000=195.000,39.167=130.000,39.250=195.000,39.417=130.000,39.500=195.000,39.667=130.000,39.750=195.000,39.917=130.000,130.500=148.571,132.000=130.000,136.500=173.333,137.500=130.000,152.250=173.333,153.750=130.000,164.500=260.000,165.000=130.000,199.000=195.000,199.500=130.000,221.750=173.333,222.250=130.000,227.500=97.500,228.000=260.000,228.500=130.000,235.000=260.000,235.500=130.000,239.000=260.000,240.000=130.000,250.500=260.000,252.000=130.000,257.000=173.333,257.250=130.000,260.000=195.000,260.250=130.000,260.500=195.000,260.750=130.000,261.000=195.000,261.250=130.000,261.500=195.000,261.750=130.000,262.000=260.000,263.000=195.000,263.250=130.000;
#STOPS:0.000=0.115
,0.500=0.115
,1.000=0.115
,1.500=0.115
,2.000=0.115
,2.500=0.115
,3.000=0.115
,3.500=0.115
,4.000=0.058
,4.250=0.058
,4.500=0.058
,4.750=0.058
,5.000=0.058
,5.250=0.058
,5.500=0.058
,5.750=0.058
,6.000=0.058
,6.250=0.058
,6.500=0.058
,6.750=0.058
,7.000=0.058
,7.500=0.058
,7.667=0.058
,7.833=0.058
,39.000=0.026
,39.250=0.026
,39.500=0.026
,39.750=0.026
,130.500=0.029
,131.000=0.029
,131.500=0.029
,136.000=0.115
,152.250=0.058
,152.750=0.058
,153.250=0.058
,164.500=0.029
,164.625=0.029
,164.750=0.029
,164.875=0.029
,199.000=0.077
,221.750=0.058
,227.500=0.038
,235.000=0.029
,235.125=0.029
,235.250=0.029
,235.375=0.029
,239.000=0.029
,239.125=0.029
,239.250=0.029
,239.375=0.029
,239.500=0.029
,239.625=0.029
,239.750=0.029
,239.875=0.029
,250.500=0.058
,250.750=0.058
,251.000=0.058
,251.250=0.058
,251.500=0.058
,251.750=0.058
,257.000=0.029
,260.000=0.038
,260.500=0.038
,261.000=0.038
,261.500=0.038
,262.000=0.029
,262.125=0.029
,262.250=0.029
,262.375=0.029
,262.500=0.029
,262.625=0.029
,262.750=0.029
,262.875=0.029
,263.000=0.038
;
#TICKCOUNT:0.000=2;
#BGCHANGES:;
#KEYSOUNDS:;
#ATTACKS:;

//---------------dance-single - ----------------
#NOTES:
     dance-single:
     :
     Medium:
     5:
     0.280,0.336,0.021,0.189,0.014: // measure 1
0000
0000
0000
0000
,  // measure 2
0000
0000
0000
0000
,  // measure 3
1000
0000
0001
0000
0000
1000
0010
0000
,  // measure 4
0100
0000
0001
0000
0000
0100
0010
0000
,  // measure 5
1000
0000
0100
0000
0000
0001
0100
0000
,  // measure 6
0010
0000
0001
0000
0000
0100
0010
0000
,  // measure 7
1000
0000
0001
0000
0000
1000
0010
0000
,  // measure 8
0100
0000
0001
0000
0000
0100
0010
0000
,  // measure 9
1000
0000
0010
0000
0000
0001
0010
0000
,  // measure 10
0100
0000
0001
0000
0000
0010
0200
0000
,  // measure 11
1300
0000
0000
0010
0000
1000
0001
0000
,  // measure 12
0100
0000
0000
0100
0000
0010
1000
0000
,  // measure 13
0100
0000
0000
0010
0000
0001
0100
0000
,  // measure 14
0010
0000
0000
0010
0000
1000
0001
0000
,  // measure 15
0010
0000
0000
0100
0000
1000
0001
0000
,  // measure 16
0100
0000
0000
0100
0000
0010
1000
0000
,  // measure 17
0100
0000
0000
0001
0000
0100
1000
0000
,  // measure 18
0010
0000
0000
0010
0000
0100
0001
0000
,  // measure 19
2000
0000
0000
3000
0001
0100
0010
0000
,  // measure 20
1000
0000
0000
1000
0000
0100
0010
0000
,  // measure 21
0002
0000
0000
0003
0100
0010
1000
0000
,  // measure 22
0001
0000
0000
0001
0100
0010
0100
0000
,  // measure 23
0002
0000
0000
0003
1000
0001
0010
0000
,  // measure 24
0100
0000
0000
0100
0000
0010
0001
0000
,  // measure 25
2000
0000
0000
0000
3010
1000
0100
0000
,  // measure 26
0010
0000
0000
0010
0001
1000
0001
0000
,  // measure 27
0200
0000
0300
0000
0000
0000
0010
1000
,  // measure 28
0010
0000
0000
1000
0000
0000
0100
0000
,  // measure 29
0010
0000
0000
0000
0000
0001
0100
0000
,  // measure 30
1000
0000
0000
0000
,  // measure 31
0200
0000
0300
0000
0000
0000
0001
1000
,  // measure 32
0001
0000
0000
0010
0000
0000
0100
0000
,  // measure 33
1000
0000
0000
0000
0000
0001
0100
0000
,  // measure 34
0020
0000
0030
0000
0000
1000
0001
0000
,  // measure 35
0020
0030
0000
0001
0000
0000
0100
0001
,  // measure 36
0100
0000
0000
0010
0000
0000
1000
0000
,  // measure 37
0100
0000
0000
0000
0000
0010
0001
0000
,  // measure 38
2000
0000
3000
0000
0000
0010
1000
0000
,  // measure 39
0020
0000
0030
0000
0200
0000
0301
1000
,  // measure 40
0001
0000
0000
0010
0000
0000
0100
0000
,  // measure 41
0020
0000
0030
0000
0002
1003
0010
0000
,  // measure 42
0100
0010
0100
0000
0001
0000
0000
0000
,  // measure 43
1002
0000
0000
0000
0000
0000
0000
0000
0000
0103
0000
0000
0000
0000
0000
0010
0000
0000
0000
0000
0000
0000
1000
0000
,  // measure 44
0000
0000
0000
0000
0000
0000
0001
0010
,  // measure 45
0100
0000
0000
0001
0000
0000
0100
0000
,  // measure 46
1000
0000
0000
0000
0000
0001
1000
0000
,  // measure 47
0020
0000
0000
0000
0000
0000
0000
0000
0000
0130
0000
0000
0000
0000
0000
0001
0000
0000
0000
0000
0000
0000
0010
0000
,  // measure 48
0000
0000
0000
0000
0000
0000
0001
0010
,  // measure 49
0100
0000
0000
0001
0000
0000
0100
0000
,  // measure 50
1000
0000
0000
0000
0000
0010
0100
0000
,  // measure 51
0002
0000
0000
0000
0000
0000
0000
0000
0000
1003
0000
0000
0000
0000
0000
0100
0000
0000
0000
0000
0000
0000
0010
0000
,  // measure 52
0000
0000
0000
0000
0000
0000
0001
0100
,  // measure 53
0010
0000
0000
0001
0000
0000
0010
0000
,  // measure 54
1000
0000
0000
0000
0000
0001
0010
0000
,  // measure 55
0200
0000
0000
0000
0000
0000
0000
0000
0000
1300
0000
0000
0000
0000
0000
0010
0000
0000
0000
0000
0000
0000
0001
0000
,  // measure 56
0000
0000
0000
0000
0000
0000
0010
1000
,  // measure 57
0100
0000
0000
0001
0000
0000
0100
0000
,  // measure 58
1000
0000
1000
0000
,  // measure 59
1020
0000
0030
0000
0000
0000
0000
0000
0010
0000
0000
0000
0200
0300
0001
0000
,  // measure 60
1000
0000
1000
0200
,  // measure 61
0310
0000
0010
0000
,  // measure 62
0010
0000
0000
0000
0010
0001
0100
0000
,  // measure 63
0001
0000
0000
0000
0000
0000
0000
0000
0001
0000
0200
0300
0020
0030
0200
0300
,  // measure 64
0001
0000
0000
0000
0001
1000
0100
0000
,  // measure 65
0010
0000
0000
0001
0000
0000
1000
0000
,  // measure 66
0020
0000
0000
0000
0000
0000
0000
0000
0030
0000
0000
0000
0200
0300
0000
0000
,  // measure 67
1001
0000
0000
0001
0000
0000
0100
0000
,  // measure 68
0000
0010
0000
0000
1000
0100
0010
0000
,  // measure 69
0001
0100
0000
0000
0100
0000
0000
0010
,  // measure 70
0000
0000
1000
0000
0000
0001
0010
0000
,  // measure 71
0001
0000
0000
1000
0000
0000
0100
0000
,  // measure 72
0000
0010
0000
0000
0001
0100
0010
0000
,  // measure 73
1000
0100
0000
0000
0100
0000
0000
0010
,  // measure 74
0000
0000
0000
0000
0001
0000
0000
0000
0000
0000
0100
0000
2000
3000
0000
0000
;

//---------------dance-single - ----------------
#NOTES:
     dance-single:
     :
     Easy:
     3:
     0.207,0.258,0.021,0.175,0.014: // measure 1
0000
0000
0000
0000
,  // measure 2
0000
0000
0000
0000
,  // measure 3
1000
0100
0000
0010
,  // measure 4
0001
0010
0000
0001
,  // measure 5
0100
0001
0000
0100
,  // measure 6
0010
0100
0000
0010
,  // measure 7
1000
0010
0000
1000
,  // measure 8
0100
1000
0000
0001
,  // measure 9
0010
0001
0000
0001
,  // measure 10
0100
0010
1000
0002
,  // measure 11
1003
0000
0000
1000
0000
0000
0010
0000
,  // measure 12
0100
0000
0000
0100
0000
0000
0001
0000
,  // measure 13
0010
0000
0000
0010
0000
0000
0100
0000
,  // measure 14
1000
0000
0000
1000
0000
0000
0001
0000
,  // measure 15
0100
0000
0000
0100
0000
0000
0010
0000
,  // measure 16
1000
0000
0000
1000
0000
0000
0100
0000
,  // measure 17
0010
0000
0000
0010
0000
0000
0001
0000
,  // measure 18
1000
0000
0000
1000
0000
0000
0001
0000
,  // measure 19
0020
0030
0200
0300
,  // measure 20
1000
0000
0000
1000
0000
0000
0010
0000
,  // measure 21
0200
0300
0002
0003
,  // measure 22
0010
0000
0100
1000
,  // measure 23
0020
0030
0200
0300
,  // measure 24
0001
0000
0000
0001
0000
0000
0100
0000
,  // measure 25
0020
0030
2000
3000
,  // measure 26
0100
0000
0010
0001
,  // measure 27
0200
0300
0000
0010
,  // measure 28
0001
0000
0000
0010
0000
0000
0100
0000
,  // measure 29
0001
0000
0000
0000
0000
0010
0000
0000
,  // measure 30
0100
0000
0000
0000
,  // measure 31
2000
3000
0000
0001
,  // measure 32
0010
0000
0000
0100
0000
0000
1000
0000
,  // measure 33
0010
0000
0000
0000
0000
0100
0000
0000
,  // measure 34
0002
0003
0000
0000
,  // measure 35
0020
0030
0000
0000
0000
0000
0100
0000
,  // measure 36
0001
0000
0000
0100
0000
0000
0010
0000
,  // measure 37
0001
0000
0000
0000
0000
0100
0000
0000
,  // measure 38
0020
0030
0000
0000
,  // measure 39
2000
3000
0200
1300
,  // measure 40
0001
0000
0000
0100
0000
0000
0010
0000
,  // measure 41
2000
3000
0200
0310
,  // measure 42
0001
0000
0000
0000
,  // measure 43
0012
0000
0000
0000
0000
0000
0003
0000
0000
1000
0000
0000
0000
0000
0000
0000
0000
0000
0000
0000
0000
0000
0100
0000
,  // measure 44
0000
0000
0000
0010
,  // measure 45
0001
0000
0000
1000
0000
0000
0100
0000
,  // measure 46
0010
0000
0000
0000
,  // measure 47
0002
0000
0000
0000
0000
0000
0003
0000
0000
0100
0000
0000
0000
0000
0000
0000
0000
0000
0000
0000
0000
0000
0010
0000
,  // measure 48
0000
0000
0000
1000
,  // measure 49
0100
0000
0000
0001
0000
0000
0100
0000
,  // measure 50
1000
0000
0000
0000
,  // measure 51
0020
0000
0000
0000
0000
0000
0030
0000
0000
0100
0000
0000
0000
0000
0000
0000
0000
0000
0000
0000
0000
0000
0001
0000
,  // measure 52
0000
0000
0000
0010
,  // measure 53
0100
0000
0000
1000
0000
0000
0001
0000
,  // measure 54
0100
0000
0000
0000
,  // measure 55
0020
0000
0000
0000
0000
0000
0030
0000
0000
1000
0000
0000
0000
0000
0000
0000
0000
0000
0000
0000
0000
0000
0001
0000
,  // measure 56
0000
0000
0000
0010
,  // measure 57
0100
0000
0000
0001
0000
0000
0100
0000
,  // measure 58
1000
0000
1000
0000
,  // measure 59
1002
0003
0000
0000
0001
0000
0010
0000
,  // measure 60
0001
0000
0000
0000
0001
0000
0200
0300
,  // measure 61
0010
0000
0010
0000
,  // measure 62
0010
0000
0010
0100
,  // measure 63
1000
0000
1000
0100
,  // measure 64
0001
0000
0001
0001
,  // measure 65
1000
0000
0000
0010
0000
0000
0100
0000
,  // measure 66
0002
0000
0003
1000
,  // measure 67
1001
0000
0000
0001
0000
0000
1000
0000
,  // measure 68
0000
0100
0000
0000
0010
0000
0000
0000
,  // measure 69
0000
0001
0000
0000
1000
0000
0000
0010
,  // measure 70
0000
0000
0100
0000
0000
0001
0000
0000
,  // measure 71
0010
0000
0000
0100
0000
0000
1000
0000
,  // measure 72
0000
0010
0000
0000
0001
0000
0000
0010
,  // measure 73
0000
0100
0000
0000
0001
0000
0000
0010
,  // measure 74
0000
0000
0100
0000
0000
1000
0000
0000
;

//---------------dance-single - ----------------
#NOTES:
     dance-single:
     :
     Hard:
     8:
     0.396,0.621,0.056,0.259,0.329:
0000
0000
0000
0000
,
0000
0000
0000
0000
,
1000
0000
0000
0000
0001
0000
0000
0000
0000
0000
0100
0000
0001
0100
0000
0000
,
0010
0000
0000
0000
1000
0000
0000
0100
0000
0000
0010
0000
0001
0000
0000
0000
,
0100
0000
0000
0000
0010
0000
0000
0000
0000
0000
1000
0000
0001
1000
0000
0000
,
0100
0000
0000
0000
0010
0000
0000
0100
0000
0000
0100
0000
1000
0000
0000
0000
,
0001
0000
0000
0000
0100
0000
0000
0000
0000
0000
0010
0000
1000
0010
0000
0000
,
0100
0000
0000
0000
0001
0000
0000
0010
0000
0000
0100
0000
1000
0000
0000
0000
,
0010
0000
0000
0000
1000
0000
0000
0000
0000
0000
0001
0000
0100
0001
0000
0000
,
0010
0000
0000
0000
0100
0000
0000
1000
0000
0000
1000
0000
0200
0000
0320
0000
,
0130
0000
0000
1000
0000
0000
0100
0000
0000
0000
0010
0000
0001
0100
0000
0000
,
0010
0000
0000
1000
0000
0000
0010
0000
0000
0000
0100
0000
0001
0000
0000
0000
,
0010
0000
0000
0001
0000
0000
0010
0000
0000
0000
0100
0000
1000
0001
0000
0000
,
0100
0000
0000
0010
0000
0000
0100
0000
0000
0000
0010
0000
1000
0000
0000
0000
,
0001
0000
0000
0010
0000
0000
0001
0000
0000
0000
0100
0000
0010
1000
0000
0000
,
0100
0000
0000
0010
0000
0000
0100
0000
0000
0000
1000
0000
0001
0000
0000
0000
,
0100
0000
0000
0001
0000
0000
0100
0000
0000
0000
0010
0000
1000
0001
0000
0000
,
0010
0000
0000
0100
0000
0000
0010
0000
0000
0000
0001
0000
1000
0000
0000
0000
,
0020
0000
0000
0000
0000
0000
0000
0130
0000
0000
0001
0000
0010
0001
0000
0000
,
0100
0000
0000
0010
0000
0000
0100
0000
0000
0000
0001
0000
0010
0000
0000
0000
,
0200
0000
0000
0000
0000
0000
0000
1300
0000
0000
0010
0000
0100
0010
0000
0000
,
1000
0000
0000
0000
0000
0000
0001
0010
0001
0000
0010
0000
0100
0000
0000
0000
,
2000
0000
0000
0000
0000
0000
0000
3100
0000
0000
0010
0000
0001
0100
0000
0000
,
0010
0000
0000
1000
0000
0000
0010
0000
0000
0000
0100
0000
0001
0000
0000
0000
,
0020
0000
0000
0000
0000
0000
0000
0130
0000
0000
1000
0000
0001
1000
0000
0000
,
0010
0000
0000
0100
0000
0000
0010
0000
1000
0010
1000
0000
0001
0000
0000
0000
,
0020
0000
0030
0000
0000
0000
0100
0010
,
0001
0000
0000
0100
0000
0000
0010
0000
0000
1000
0000
0000
0100
0000
0010
0000
,
0100
0000
0000
0000
0000
0010
0001
0000
,
0101
0000
0000
0000
0000
0000
0000
0000
0000
0000
0001
0000
1000
0001
0000
0000
,
0200
0000
0300
0000
0000
0000
0010
1000
,
0001
0000
0000
0010
0000
0000
0001
0000
0000
0100
0000
0000
0010
0000
1000
0000
,
0010
0000
0000
0000
0000
0100
0001
0100
,
0020
0000
0000
0000
0030
0000
0000
0000
0000
0000
1000
0000
0001
1000
0000
0000
,
0200
0310
0000
0100
0000
0000
1000
0010
,
0001
0000
0000
0010
0000
0000
0100
0000
0000
0001
0000
0000
0010
0000
0001
0000
,
0100
0000
0000
0000
0000
0010
1000
0000
,
0200
0000
0000
0000
0300
0000
0000
0000
0000
0000
0010
0000
0001
0010
0000
0000
,
0200
1000
0000
1000
0300
1000
0000
1000
0000
0000
0000
0000
0010
0000
0100
0000
,
0001
0000
0000
0010
0000
0000
0100
0000
0000
1000
0000
0000
0010
0000
0001
0000
,
0020
0000
0000
0000
0030
0000
0000
0000
0200
0000
0301
0000
0010
0001
0000
0000
,
0100
0000
0020
2030
3010
0000
0000
0000
0010
0000
0000
0000
0000
0000
0000
0000
,
1002
0000
0000
0000
0000
0000
0000
0000
0000
0013
0000
0000
0000
0000
0000
0100
0000
0000
0000
0000
0000
0000
1000
0001
,
0000
0000
0000
0000
0000
0000
0010
0100
,
1000
0000
0000
0010
0000
0000
0100
0000
,
0101
0000
0000
0000
0000
0000
0000
0000
0000
0000
0001
0000
0010
0001
0000
0000
,
0020
0000
0000
0000
0000
0000
0000
0000
0000
0130
0000
0000
0000
0000
0000
1000
0000
0000
0000
0000
0000
0000
0001
0010
,
0000
0000
0000
0000
0000
0000
0100
1000
,
0001
0000
0000
0010
0000
0000
0100
0000
,
1100
0000
0000
0000
0000
0000
0000
0000
0000
0000
1000
0000
0001
0000
0000
0001
,
0020
0000
0000
0000
0000
0000
0000
0000
0000
0031
0000
0000
0000
0000
0000
0100
0000
0000
0000
0000
0000
0000
0010
1000
,
0000
0000
0000
0000
0000
0000
0010
0100
,
0001
0000
0000
0010
0000
0000
1000
0000
,
0110
0000
0000
0000
0000
0000
0000
0000
0000
0000
1000
0000
0001
1000
0000
0000
,
0020
0000
0000
0000
0000
0000
0000
0000
0000
0130
0000
0000
0000
0000
0000
0001
0000
0000
0000
0000
0000
0000
1000
0010
,
0000
0000
0000
0000
0000
0000
0000
0200
0300
0000
0001
0000
0010
0000
0100
0000
,
1000
0000
0000
0010
0000
0000
0100
0000
,
0101
0000
0001
0000
,
1002
0000
0003
0000
1000
0000
0010
0000
1000
0000
0010
0000
0200
0302
0103
0000
,
0010
0000
0000
0000
0000
0000
0000
0000
0010
0000
1000
0000
0002
0023
0032
0023
,
0032
0000
0000
0003
0200
0000
0000
0300
,
0010
0000
0000
0000
0000
0000
0000
0000
1000
0010
1000
0000
0010
0000
0010
0000
,
0200
0000
0000
0000
0000
0300
0000
0000
0001
0000
1000
0001
1000
0001
1000
0001
,
1000
0000
0000
0000
0000
0000
0000
0000
1000
0000
0010
0000
0100
0001
0000
0000
,
0010
0000
0000
0000
0002
0003
1000
0000
0000
0000
0000
0000
0100
0000
0000
0000
,
0020
0030
0002
0003
0020
0030
0002
0003
0100
0010
0100
0010
0200
0300
0000
0000
,
1001
0000
0000
0001
0000
0000
0010
0000
0000
0001
0000
0000
0100
0000
0000
0010
,
0000
0000
1000
0000
0000
0001
0000
0000
0010
0000
0000
0100
0000
0000
1000
0100
,
0000
0000
0001
0000
0000
0100
0000
0000
0010
0000
0000
0001
0000
0000
1000
0000
,
0000
0010
0000
0000
0100
0000
0000
0001
0000
0000
0100
0000
0000
1000
0000
0000
,
0100
0000
0000
0010
0000
0000
1000
0000
0000
0100
0000
0000
0010
0000
0000
0001
,
0000
0000
0100
0000
0000
0010
0000
0000
1000
0000
0000
0001
0000
0000
1000
0010
,
0000
0000
0001
0000
0000
0010
0000
0000
0100
0000
0000
0001
0000
0000
0010
0000
,
0000
1000
0000
0000
0100
0000
0000
0010
0000
0000
1000
0000
0000
0001
0000
0000
;

//---------------dance-single - ----------------
#NOTES:
     dance-single:
     :
     Beginner:
     2:
     0.110,0.155,0.014,0.035,0.000: // measure 1
0000
0000
0000
0000
,  // measure 2
0000
0000
0000
0000
,  // measure 3
1000
0000
0000
0000
,  // measure 4
0001
0000
0000
0000
,  // measure 5
0100
0000
0000
0000
,  // measure 6
0010
0000
0000
0000
,  // measure 7
1000
0000
0000
0000
,  // measure 8
0100
0000
0000
0000
,  // measure 9
0010
0000
0000
0000
,  // measure 10
0001
0000
0000
0000
,  // measure 11
1000
0000
0000
0010
0000
0000
0000
0000
,  // measure 12
1000
0000
0000
0010
0000
0000
0000
0000
,  // measure 13
0100
0000
0000
0001
0000
0000
0000
0000
,  // measure 14
0100
0000
0000
0001
0000
0000
0000
0000
,  // measure 15
1000
0000
0000
0100
0000
0000
0000
0000
,  // measure 16
1000
0000
0000
0100
0000
0000
0000
0000
,  // measure 17
0010
0000
0000
0001
0000
0000
0000
0000
,  // measure 18
0010
0000
0000
0001
0000
0000
0000
0000
,  // measure 19
2000
0000
3000
0000
,  // measure 20
0001
0000
0000
0010
,  // measure 21
0020
0000
0030
0000
,  // measure 22
0100
0000
0000
1000
,  // measure 23
2000
0000
3000
0000
,  // measure 24
0010
0000
0000
0100
,  // measure 25
0200
0000
0300
0000
,  // measure 26
0001
0000
1000
0000
,  // measure 27
0100
0000
0000
0000
,  // measure 28
0010
0000
0000
0100
0000
0000
0000
0000
,  // measure 29
1000
0000
0000
0000
,  // measure 30
0001
0000
0000
0000
,  // measure 31
0100
0000
0000
0000
,  // measure 32
0010
0000
0000
0100
0000
0000
0000
0000
,  // measure 33
0001
0000
0000
0000
,  // measure 34
1000
0000
0000
0000
,  // measure 35
0100
0000
0000
0000
,  // measure 36
0010
0000
0000
0001
0000
0000
0000
0000
,  // measure 37
1000
0000
0000
0000
,  // measure 38
0010
0000
0000
0000
,  // measure 39
0100
0000
0000
0000
,  // measure 40
0001
0000
0000
0010
0000
0000
0000
0000
,  // measure 41
0100
0000
0000
0000
,  // measure 42
1000
0000
0000
0000
,  // measure 43
0001
0000
0000
0100
0000
0000
0000
0000
,  // measure 44
0000
0000
0000
0000
,  // measure 45
0010
0000
0000
1000
0000
0000
0000
0000
,  // measure 46
0001
0000
0000
0000
,  // measure 47
0010
0000
0000
0100
0000
0000
0000
0000
,  // measure 48
0000
0000
0000
0000
,  // measure 49
1000
0000
0000
0010
0000
0000
0000
0000
,  // measure 50
0100
0000
0000
0000
,  // measure 51
0001
0000
0000
1000
0000
0000
0000
0000
,  // measure 52
0000
0000
0000
0000
,  // measure 53
0100
0000
0000
0010
0000
0000
0000
0000
,  // measure 54
0001
0000
0000
0000
,  // measure 55
1000
0000
0000
0100
0000
0000
0000
0000
,  // measure 56
0000
0000
0000
0000
,  // measure 57
0010
0000
0000
0001
0000
0000
0000
0000
,  // measure 58
1000
0000
1000
0000
,  // measure 59
1001
0000
0000
0000
,  // measure 60
0001
0000
0001
0000
,  // measure 61
0100
0000
0100
0000
,  // measure 62
0100
0000
0100
0000
,  // measure 63
0010
0000
0010
0000
,  // measure 64
0010
0000
0010
0000
,  // measure 65
1000
0000
0000
0001
0000
0000
0000
0000
,  // measure 66
0020
0000
0030
0000
,  // measure 67
0110
0000
0000
0100
,  // measure 68
0000
0000
1000
0000
,  // measure 69
0000
0001
0000
0000
0000
0000
0000
0100
,  // measure 70
0000
0000
0000
0000
0000
0010
0000
0000
,  // measure 71
0010
0000
0000
1000
,  // measure 72
0000
0000
0001
0000
,  // measure 73
0000
0010
0000
0000
0000
0000
0000
0100
,  // measure 74
0000
0000
0000
0000
0000
1000
0000
0000
;
