#TITLE:minefield surfing;
#SUBTITLE:;
#ARTIST:trapman;
#TITLETRANSLIT:;
#SUBTITLETRANSLIT:;
#ARTISTTRANSLIT:;
#GENRE:;
#CREDIT:Meseki;
#MENUCOLOR:0.0,0.0,1.0,1.0;
#BANNER:minefield surfing-bn.png;
#BACKGROUND:minefield surfing-bg.png;
#LYRICSPATH:;
#CDTITLE:cdtitle.png;
#MUSIC:minefield surfing.mp3;
#OFFSET:-1.643;
#SAMPLESTART:14.329;
#SAMPLELENGTH:13.771;
#SELECTABLE:YES;
#LISTSORT:;
#DISPLAYBPM:150.000;
#BPMS:0.000=150.000,30.000=175.000,32.000=150.000,42.000=175.000,44.000=150.000,54.000=175.000,56.000=150.000,64.000=200.000,68.000=150.000,80.000=200.000,84.000=150.000,90.000=175.000,92.000=200.000,96.000=150.000,97.000=152.000,98.000=155.000,99.000=158.000,100.000=160.000,101.000=170.000,102.000=180.000,103.000=170.000,104.000=160.000,105.000=150.000,106.000=148.000,107.000=140.000,108.000=130.000,109.000=120.000,110.000=135.000,111.000=170.000,112.000=180.000,113.000=190.000,114.000=170.000,115.000=150.000,116.000=140.000,117.000=120.000,118.000=150.000,119.000=160.000,120.000=170.000,121.000=220.000,122.000=250.000,123.000=200.000,124.000=180.000,125.000=170.000,126.000=160.000,127.000=150.000,128.000=130.000,129.000=120.000,130.000=90.000,131.000=130.000,132.000=140.000,133.000=120.000,134.000=100.000,135.000=90.000,136.000=60.000,137.000=100.000,138.000=130.000,139.000=150.000,140.000=170.000,141.000=180.000,142.000=190.000,143.000=200.000,144.000=210.000,145.000=220.000,146.000=230.000,147.000=240.000,148.000=250.000,149.000=220.000,150.000=200.000,151.000=180.000,152.000=150.000,153.000=130.000,154.000=120.000,155.000=140.000,156.000=150.000,157.000=160.000,158.000=170.000,159.000=160.000,160.000=150.000,161.000=152.000,162.000=155.000,163.000=158.000,164.000=160.000,165.000=170.000,166.000=180.000,167.000=170.000,168.000=160.000,169.000=150.000,170.000=148.000,171.000=140.000,172.000=130.000,173.000=120.000,174.000=135.000,175.000=170.000,176.000=180.000,177.000=190.000,178.000=170.000,179.000=150.000,180.000=140.000,181.000=120.000,182.000=150.000,183.000=160.000,184.000=170.000,185.000=220.000,186.000=250.000,187.000=200.000,188.000=180.000,189.000=170.000,190.000=160.000,191.000=150.000,192.000=130.000,193.000=120.000,194.000=90.000,195.000=130.000,196.000=140.000,197.000=120.000,198.000=100.000,199.000=90.000,200.000=60.000,201.000=100.000,202.000=130.000,203.000=150.000,204.000=170.000,205.000=180.000,206.000=190.000,207.000=200.000,208.000=210.000,209.000=220.000,210.000=230.000,211.000=240.000,212.000=250.000,213.000=220.000,214.000=200.000,215.000=180.000,216.000=150.000,217.000=130.000,218.000=120.000,219.000=140.000,220.000=150.000,221.000=160.000,222.000=170.000,223.000=160.000,224.000=150.000,256.000=151.000,256.500=152.000,257.000=153.000,257.500=154.000,258.000=155.000,258.500=156.000,259.000=157.000,259.500=158.000,260.000=159.000,260.500=160.000,261.000=161.000,261.500=162.000,262.000=163.000,262.500=164.000,263.000=165.000,263.500=166.000,264.000=167.000,264.500=168.000,265.000=169.000,265.500=170.000,266.000=171.000,266.500=172.000,267.000=173.000,267.500=174.000,268.000=175.000,268.500=176.000,269.000=177.000,269.500=178.000,270.000=179.000,270.500=180.000,271.000=181.000,271.500=182.000,272.000=183.000,272.500=184.000,273.000=185.000,273.500=186.000,274.000=187.000,274.500=188.000,275.000=189.000,275.500=190.000,276.000=191.000,276.500=192.000,277.000=193.000,277.500=194.000,278.000=195.000,278.500=196.000,279.000=197.000,279.500=198.000,280.000=199.000,280.500=200.000,281.000=201.000,281.500=202.000,282.000=203.000,282.500=204.000,283.000=205.000,283.500=206.000,284.000=207.000,284.500=208.000,285.000=209.000,285.500=210.000,286.000=211.000,286.500=212.000,287.000=213.000,287.500=214.000,288.000=215.000,288.500=200.000,289.000=185.000,289.500=170.000,290.000=165.000,290.500=150.000,291.000=135.000,291.500=110.000,292.000=150.000;
#STOPS:;
#TICKCOUNT:0.000=2;
#BGCHANGES:;
#KEYSOUNDS:;
#ATTACKS:;

//---------------dance-single - ----------------
#NOTES:
     dance-single:
     :
     Medium:
     7:
     0.389,0.410,0.026,0.009,0.022:
0000
0000
0000
0000
,
0000
0000
0000
0000
,
0000
0000
0000
0000
,
0000
0000
0000
0000
,
1000
0001
0010
0000
0100
1000
00M1
0000
,
1000
0000
0000
0000
0010
0000
0000
0000
0010
0000
0000
0010
0000
0000
0010
0000
,
0100
0001
0010
0000
0001
0010
0100
0000
,
1000
0000
0010
0000
M100
0010
0100
0000
,
0001
0010
0000
0000
0100
0000
0000
1000
,
0100
0010
0000
0000
0100
0000
00M1
0000
,
0100
0010
0000
0000
0001
0100
00M1
0000
,
1001
0000
1000
001M
,
0100
0001
0000
0000
0010
0000
0000
0100
,
1000
0100
0000
0000
M010
0000
0001
0100
,
00M1
0100
0000
0000
0010
0000
0000
1000
,
0100
0010
0000
0000
0M01
0000
1000
0001
,
1M00
001M
M100
00M1
,
0010
0001
0000
0000
0010
0000
100M
0000
,
0010
0100
0000
0000
100M
0000
0000
0010
,
0100
0001
0000
0000
1000
0000
0010
0000
,
0100
M001
0100
100M
,
0100
0010
0000
0000
1000
0000
0001
0010
,
M001
0100
0000
0000
001M
0100
M010
0000
,
1M00
0001
0010
100M
,
0010
0100
100M
0010
,
0100
M001
0010
0001
,
0100
0010
1000
1M00
,
0001
M010
010M
10M0
,
0100
0010
010M
1000
,
0010
0100
M001
0M10
,
0001
0100
0001
0100
,
001M
0000
0000
0000
1000
0000
0000
0000
010M
0000
0000
0010
0000
0000
0100
0000
,
1000
0010
010M
0001
,
01M0
1000
010M
0001
,
10M0
0010
M001
0010
,
1000
0100
001M
0100
,
1000
0001
1000
001M
,
0100
00M1
0100
0001
,
1000
0001
M100
001M
,
0100
0000
0000
0000
0001
0000
0000
0000
M100
0000
0000
0010
0000
0000
0100
0000
,
0001
0010
100M
0010
,
0001
1000
001M
0100
,
10M0
0100
0001
1000
,
0100
001M
0001
0100
,
0010
1M00
0001
0100
,
100M
0100
001M
1000
,
0001
0010
010M
M010
,
0001
0000
0000
0000
1000
0000
0000
0000
010M
0000
0000
0010
0000
0000
0100
0000
,
1000
0010
010M
0001
,
0010
0100
10M0
0010
,
0M10
0100
0001
1000
,
001M
1000
0M01
0010
,
0100
1000
01M0
100M
,
0010
M100
001M
0100
,
0001
0010
0001
01M0
,
1M01
0000
0000
0000
0000
0000
0000
0000
0001
0000
0000
0010
M000
0000
0001
0000
,
1M00
0000
0010
0000
0100
0001
M010
0000
,
0100
0000
100M
0000
0010
0100
M001
0000
,
0010
0000
M001
0000
0100
0010
100M
0000
,
0100
0000
0010
0000
010M
1000
01M0
1000
,
0001
0000
0100
0000
001M
1000
0100
0000
,
M010
0000
0001
0000
0100
0010
100M
0000
,
0100
0000
M010
0000
010M
1000
0010
0000
,
0100
0000
M001
0000
0M10
0001
0M10
0001
,
1M00
0000
00M1
0000
0100
0010
100M
0000
,
010M
0000
M010
0000
0100
1000
0001
0000
,
0100
0000
100M
0000
0100
0010
M100
0000
,
0001
0000
0010
0000
010M
1000
01M0
1000
,
0010
0000
0100
0000
M001
0010
0001
0000
,
0100
0000
001M
0000
1M00
0001
10M0
0000
,
0100
0000
0010
0000
M001
0100
00M1
0200
,
0301
0000
10M0
0000
0001
0010
0100
0000
,
100M
0000
0010
0000
M100
0001
0010
0000
,
1MM1
0000
0000
0000
;

//---------------dance-single - ----------------
#NOTES:
     dance-single:
     :
     Easy:
     4:
     0.205,0.189,0.017,0.000,0.004: // measure 1
0000
0000
0000
0000
,  // measure 2
0000
0000
0000
0000
,  // measure 3
0000
0000
0000
0000
,  // measure 4
0000
0000
0000
0000
,  // measure 5
1000
0000
0001
0000
,  // measure 6
1000
0100
100M
0000
,  // measure 7
0100
0000
0010
0000
,  // measure 8
0001
0100
00M1
0000
,  // measure 9
1000
0000
0001
0000
,  // measure 10
0100
0000
0010
1000
,  // measure 11
0M01
0000
1000
0000
,  // measure 12
0001
0000
0100
0010
,  // measure 13
010M
0000
0010
0000
,  // measure 14
1000
0000
0100
0000
,  // measure 15
10M0
0000
0001
0000
,  // measure 16
0100
0000
0010
1000
,  // measure 17
0M10
0000
M10M
0000
,  // measure 18
0001
0000
1000
0010
,  // measure 19
100M
0000
0100
0000
,  // measure 20
0010
0000
0001
0100
,  // measure 21
00M1
0000
1M00
0000
,  // measure 22
0100
0000
0010
0001
,  // measure 23
0010
0000
0M01
0000
,  // measure 24
10M0
0000
0010
0000
,  // measure 25
M10M
0010
0100
0000
,  // measure 26
0001
0000
0M10
0000
,  // measure 27
0100
0000
10M0
0000
,  // measure 28
0001
1MM0
0001
0000
,  // measure 29
0100
0000
001M
0000
,  // measure 30
1000
0100
10M0
0000
,  // measure 31
0001
0000
M010
0000
,  // measure 32
0100
0000
10MM
0000
,  // measure 33
0010
0100
001M
0000
,  // measure 34
1M00
0000
0100
0000
,  // measure 35
M010
M001
0100
0000
,  // measure 36
0010
0000
100M
0000
,  // measure 37
0001
0000
0M10
0000
,  // measure 38
010M
0000
1000
0000
,  // measure 39
0010
0000
0100
M001
,  // measure 40
0100
0000
M01M
0000
,  // measure 41
1000
0100
10M0
0000
,  // measure 42
001M
0000
0100
0000
,  // measure 43
0001
0000
10M0
0000
,  // measure 44
0100
M01M
0100
0000
,  // measure 45
0010
0000
M001
0000
,  // measure 46
1000
0M10
1000
0000
,  // measure 47
001M
0000
0100
0000
,  // measure 48
0001
0000
1MM0
0000
,  // measure 49
0100
001M
0100
0000
,  // measure 50
1000
0000
0M10
0000
,  // measure 51
M100
M001
0010
0000
,  // measure 52
0100
0000
100M
0000
,  // measure 53
0100
0000
001M
0000
,  // measure 54
0001
0000
M100
0000
,  // measure 55
0010
0000
1000
0000
,  // measure 56
1MM1
0000
0000
0000
0000
0000
0000
0000
0M01
0000
0000
00M0
0000
0000
0M00
0000
,  // measure 57
1000
0000
01M0
0000
,  // measure 58
1000
0000
0M10
0000
,  // measure 59
0100
0000
M001
0000
,  // measure 60
0100
0000
001M
1000
,  // measure 61
0100
0000
M010
0000
,  // measure 62
0100
0000
10M0
0000
,  // measure 63
0010
0000
M10M
0000
,  // measure 64
0010
0000
0000
0000
1000
0M00
0001
00M0
,  // measure 65
1000
0000
010M
0000
,  // measure 66
M010
0001
0010
0000
,  // measure 67
0100
0000
100M
0000
,  // measure 68
0001
0000
0100
0010
,  // measure 69
1M00
0000
00M1
0000
,  // measure 70
M100
0000
001M
0000
,  // measure 71
1000
0000
0100
0010
,  // measure 72
M001
0000
0100
0000
,  // measure 73
M01M
0000
1M00
0001
,  // measure 74
1MM1
0000
0000
0000
;

//---------------dance-single - ----------------
#NOTES:
     dance-single:
     :
     Hard:
     9:
     0.596,0.601,0.026,0.000,0.371:
0000
0000
0000
0000
,
0000
0000
0000
0000
,
0000
0000
0000
0000
,
0000
0000
0000
0000
,
M001
0000
0010
0100
0000
0000
0000
1000
001M
0000
0100
0000
M000
0001
M000
0000
,
0010
0000
0000
0000
0M01
0000
1000
0000
0M01
0000
0000
0001
0M00
0000
1M00
0010
,
1000
0000
001M
0100
0000
0000
0000
0001
M010
0000
0100
0000
000M
1000
000M
0000
,
0100
0000
0000
0000
M010
0000
0000
0000
0001
M000
0100
0001
0100
0000
0000
0000
,
0010
0000
1000
0000
0000
0100
0000
0000
001M
0000
0000
0100
0000
0000
1000
0000
,
0001
0000
0010
0000
0000
0100
0000
0000
100M
0000
0010
0000
0100
0000
0001
0000
,
M010
0000
0001
0000
0000
0100
0000
0000
0010
0000
0100
0010
0100
0000
0000
0000
,
1MM1
0000
0001
0000
0000
1000
0000
0000
0100
0000
0010
0000
0M01
0000
0010
0000
,
0100
0000
1000
0000
0000
0010
0000
0000
0100
0000
0000
0001
00M0
0000
1000
0000
,
0100
0000
0010
0000
M000
0001
0000
0000
0100
0000
0010
000M
1000
0000
0001
0000
,
0M10
0000
0001
0000
0000
1000
0000
0000
001M
0000
0000
0100
0000
0000
0001
0000
,
1000
0000
0010
0000
0000
0100
0000
0000
100M
0000
0100
0000
0010
0000
1000
0000
,
0001
0000
0010
0000
0M01
0000
0000
0000
1M00
0000
0000
0010
0M00
0000
1000
0000
,
0001
0000
0010
0000
0000
0100
0000
0000
10M0
0000
0001
0000
0010
0000
0100
0000
,
1000
0000
0010
0000
0000
0100
0000
0000
M001
0000
0000
0100
0000
0000
0010
0000
,
1000
0000
0100
0000
0000
0010
0000
0000
0001
0000
1M00
0000
0010
0000
1000
0000
,
0100
0000
0010
0000
010M
0000
0000
0000
100M
0000
0000
0010
000M
0000
1000
0000
,
0001
0000
0010
0000
0000
0100
0000
0000
1000
0000
0010
0000
0100
0000
0001
0000
,
10M0
0000
0100
0000
0000
0010
0000
0000
0M01
0000
1000
0001
1M00
0000
0010
0000
,
M10M
0001
M100
0000
001M
1000
001M
0100
,
0001
0000
1000
0001
0010
0100
M010
0000
,
0001
0100
0010
1000
0100
000M
0100
0000
,
0010
0000
0001
0000
M010
0000
0001
0000
0100
0000
0000
0010
000M
0000
0100
0000
,
0010
0000
1000
000M
0100
0000
0000
0010
0000
0001
0000
0M00
0000
1000
0000
0000
,
0001
0100
M010
0100
0001
0000
10M0
0000
,
0100
0010
M001
0010
0100
0000
10M0
0000
,
0001
0000
0100
0000
0000
0010
0000
0000
010M
0010
0000
0000
1000
0000
0000
0000
,
0100
0000
0010
0000
0100
0000
0000
0000
M010
0000
0000
0001
0000
0000
1000
0000
,
0010
0000
000M
0100
0010
0000
1000
0000
0001
0000
0010
0000
M001
0000
0100
0000
,
M000
0000
0010
0000
100M
0000
0100
0000
0010
0000
0001
0000
1000
0010
100M
0000
,
0010
0100
0001
1000
0100
0000
0010
0000
0001
0000
0000
1000
0000
0M00
0010
0000
,
1000
0000
0100
0000
0010
0000
0000
0001
M000
0100
0000
0000
0000
0001
00M0
0000
,
1000
0100
100M
0000
00M1
0100
M001
0000
,
0010
0100
100M
0000
0010
0100
M001
0000
,
0010
0000
0001
0000
0M00
1000
0000
0000
0010
1000
000M
0000
0100
0000
0010
0000
,
M001
0000
0100
0000
0001
0000
0000
0000
1000
0000
0000
0010
000M
0000
1000
0000
,
0100
0000
0010
M001
0100
0010
1000
0000
,
0010
0100
0001
0000
0010
100M
0010
M000
,
0100
0000
1000
0000
0010
0000
1000
0000
0M01
0000
0000
0010
0000
0000
0001
0000
,
M100
0010
0100
0000
0010
0000
0000
1000
0000
0001
0000
0000
0000
0010
0M00
0000
,
0001
1000
0010
0100
0001
M000
0010
0001
,
0100
0000
0010
0000
1000
0001
1000
0000
0100
0000
0000
0000
M0M1
0000
0000
0000
,
0100
0000
0010
0000
0000
0001
0000
0000
0M10
0001
0000
0000
1000
0000
0000
0000
,
0010
0000
0100
0000
001M
0000
0000
0000
1000
0000
0000
0001
0M00
0000
0010
0000
,
0001
0000
M000
0100
0010
0000
1000
0000
0100
1000
01M0
0000
0001
0000
0100
0000
,
0000
0000
0010
0000
0001
0000
1000
0000
0010
0100
0010
0000
M100
0001
0100
0000
,
0010
1000
010M
0010
0001
0000
0100
0000
0010
0000
0000
1000
0M00
0000
0001
0000
,
0010
0000
0100
0000
1000
0000
0000
0001
00M0
0100
0000
0000
0000
0010
0000
0000
,
1000
0M10
1000
0010
0100
0000
0001
0000
,
0010
M100
0010
0100
1000
0000
0001
0000
,
0010
0000
0001
0000
0000
1000
0000
0000
0100
0010
0000
0000
0001
0000
1000
0000
,
M11M
0000
M00M
0000
MMMM
0000
0000
0000
1000
0000
0000
0001
0000
0000
0100
0000
,
001M
1000
0100
10M0
0001
0100
M010
0000
,
1000
0100
001M
0100
1000
0010
M001
0000
,
0010
0100
M001
0010
0100
100M
0010
0000
,
0100
0000
0001
0000
M010
0000
0001
0000
1000
0010
1000
0M00
0001
0010
0001
0000
,
0100
0010
100M
0010
0100
0001
M010
0000
,
0100
0000
1000
0000
001M
0000
0100
0000
1000
00M0
0100
0000
0001
0000
M000
0000
,
0010
0100
0001
01M0
1000
0010
010M
0000
,
0001
0000
0010
0000
1000
0000
001M
0000
0100
0010
0100
0000
1000
0001
1M00
0000
,
0010
0100
M001
0100
0010
1000
0100
000M
,
0010
0001
1000
001M
0100
0001
0010
M000
,
0100
0010
M001
0100
0010
M001
0010
0M00
,
1000
0000
0100
0000
001M
0000
0100
0000
1000
0010
1000
000M
0010
0100
0010
000M
,
1000
0M01
0010
100M
0010
0M01
1000
0000
,
0010
0100
0001
10M0
0100
0010
100M
0000
,
0010
0000
0M01
0000
1000
0000
0010
0000
0100
0000
0001
0000
0010
0000
0100
10M0
,
00M1
0100
0010
100M
00M1
0M10
M100
1000
,
0001
0100
0010
0100
1000
0010
0001
1000
,
M11M
M00M
MMMM
0000
0000
0000
0000
0000
;

//---------------dance-single - ----------------
#NOTES:
     dance-single:
     :
     Beginner:
     3:
     0.122,0.158,0.026,0.000,0.004: // measure 1
0000
0000
0000
0000
,  // measure 2
0000
0000
0000
0000
,  // measure 3
0000
0000
0000
0000
,  // measure 4
0000
0000
0000
0000
,  // measure 5
1000
0000
0000
0000
,  // measure 6
0001
0000
0100
0000
,  // measure 7
M001
0000
0000
0000
,  // measure 8
1000
0000
0010
0000
,  // measure 9
100M
0000
0000
0000
,  // measure 10
0100
0000
0010
0000
,  // measure 11
M100
0000
0000
0000
,  // measure 12
0110
0000
0000
0000
,  // measure 13
0M01
0000
0000
0000
,  // measure 14
1000
0000
0100
0000
,  // measure 15
100M
0000
0000
0000
,  // measure 16
0010
0000
0000
0000
,  // measure 17
0100
0000
M000
0000
,  // measure 18
0001
0000
0000
0000
,  // measure 19
0010
0000
0M01
0000
,  // measure 20
0010
0000
0001
0000
,  // measure 21
1000
0000
0M00
0000
,  // measure 22
0010
0000
0000
0000
,  // measure 23
0100
0000
M001
0000
,  // measure 24
0100
0000
M000
0000
,  // measure 25
0010
0000
0000
0000
,  // measure 26
100M
0000
0000
0000
,  // measure 27
0100
0000
0010
0000
,  // measure 28
M100
0000
0000
0000
,  // measure 29
0010
0000
0001
0000
,  // measure 30
M010
0000
0000
0000
,  // measure 31
0001
0000
0000
0000
,  // measure 32
1000
0000
0M10
0000
,  // measure 33
1000
0000
0000
0000
,  // measure 34
0100
0000
0000
0000
,  // measure 35
0010
0010
M001
0000
,  // measure 36
0100
0000
0000
0000
,  // measure 37
0010
0000
000M
0000
,  // measure 38
1000
0000
0000
0000
,  // measure 39
0001
0000
1M00
0000
,  // measure 40
0001
0000
0000
0000
,  // measure 41
0010
0000
0100
0000
,  // measure 42
M010
0000
0000
0000
,  // measure 43
0001
0000
0100
0000
,  // measure 44
00M1
0000
0000
0000
,  // measure 45
1000
0000
0000
0000
,  // measure 46
0100
0000
0000
0000
,  // measure 47
0010
0000
0000
0000
,  // measure 48
0001
0000
1000
0000
,  // measure 49
0M01
0000
0000
0000
,  // measure 50
0100
0000
0000
0000
,  // measure 51
0010
0010
100M
0000
,  // measure 52
0100
0000
0000
0000
,  // measure 53
0010
0000
M000
0000
,  // measure 54
0001
0000
0000
0000
,  // measure 55
1000
0000
0000
0000
,  // measure 56
1001
0000
0000
0000
0000
0000
0000
0000
0M00
0000
0000
00M0
0000
0000
0M00
0000
,  // measure 57
0001
0000
0M00
0000
,  // measure 58
1000
0000
00M0
0000
,  // measure 59
0100
0000
000M
0000
,  // measure 60
0010
0000
M001
0000
,  // measure 61
0010
0000
0M00
0000
,  // measure 62
0001
0000
M000
0000
,  // measure 63
0100
0000
M000
0000
,  // measure 64
0010
0000
100M
0000
,  // measure 65
0010
0000
000M
0000
,  // measure 66
1000
0000
0M01
0000
,  // measure 67
1000
0000
00M0
0000
,  // measure 68
0100
0000
001M
0000
,  // measure 69
0100
0000
M000
0000
,  // measure 70
0010
0000
M001
0000
,  // measure 71
0010
0000
0M01
0000
,  // measure 72
1000
0000
00M1
0000
,  // measure 73
1000
0000
0001
0000
,  // measure 74
1MM1
0000
0000
0000
;
