#TITLE:Vajuranda;
#SUBTITLE:;
#ARTIST:Lightning;
#TITLETRANSLIT:;
#SUBTITLETRANSLIT:;
#ARTISTTRANSLIT:;
#CREDIT:;
#BANNER:banner.png;
#BACKGROUND:;
#LYRICSPATH:;
#CDTITLE:;
#MUSIC:Vajuranda.mp3;
#OFFSET:-10.200;
#SAMPLESTART:52.840;
#SAMPLELENGTH:12.000;
#SELECTABLE:YES;
#BPMS:0.000=95.000,16.000=190.000,112.000=95.000,116.000=190.000,180.000=95.000,182.000=190.000,186.000=95.000;
#STOPS:;
#BGCHANGES:;

//---------------dance-single - ----------------
#NOTES:
     dance-single:
     :
     Beginner:
     2:
     0.130,0.139,0.012,0.000,0.000:
1000
0000
0000
0000
,
0010
0000
0000
0000
,
0100
0000
0000
0000
,
0001
0000
0000
0000
,
0010
0000
0010
0000
,
0010
0000
0010
0000
,
0100
0000
0100
0000
,
0100
0000
0100
0000
,
1000
0000
1000
0000
,
1000
0000
1000
0000
,
0001
0000
0001
0000
,
0001
0000
0001
0000
,
0100
0000
0010
0000
,
0100
0000
0000
0000
,
0001
0000
1000
0000
,
0001
0000
0000
0000
,
1000
0000
0100
0000
,
1000
0000
0000
0000
,
0001
0000
0010
0000
,
0001
0000
0000
0000
,
0100
0000
0100
0000
,
0100
0000
0100
0000
,
0010
0000
0010
0000
,
0010
0000
0010
0000
,
1000
0000
1000
0000
,
1000
0000
1000
0000
,
0001
0000
0001
0000
,
0001
0000
0001
0000
,
0001
0000
0000
0000
,
0010
0000
0010
0000
,
0010
0000
0000
0000
,
0100
0000
0100
0000
,
0100
0000
0000
0000
,
0001
0000
0001
0000
,
0001
0000
0000
0000
,
1000
0000
1000
0000
,
1000
0000
0000
0000
,
0010
0000
0100
0000
,
0010
0000
0000
0000
,
1000
0000
0001
0000
,
1000
0000
0000
0000
,
0001
0000
0010
0000
,
0001
0000
0000
0000
,
1000
0000
0100
0000
,
1000
0000
0000
0000
,
0010
0000
0000
0000
,
0000
0000
1001
0000
;

//---------------dance-single - ----------------
#NOTES:
     dance-single:
     :
     Easy:
     4:
     0.310,0.253,0.036,0.072,0.000:
1000
0100
0010
0001
,
1000
0100
0010
0001
,
1000
0010
0100
0001
,
1000
0010
0100
0001
,
0010
1000
0100
0000
,
0100
1000
0010
0100
,
0001
0010
0001
0000
,
1000
0010
0100
0001
,
0010
0100
1000
0000
,
1000
0100
0010
0001
,
1000
0010
0100
0000
,
0100
0010
1000
0001
,
0010
0001
0100
0000
,
0010
1000
0100
1000
,
0010
0100
0001
0000
,
0001
0100
0010
1000
,
0001
0010
0100
0000
,
0100
0010
0001
0100
,
0010
1000
0001
0010
,
0220
0000
0330
0000
,
0010
1000
0010
1000
,
0001
0100
0001
0100
,
0010
1000
0100
0001
,
0010
0001
0100
1000
,
0010
0100
0001
0010
,
0100
1000
0100
0010
,
0001
1000
0010
0100
,
0001
0010
0100
1000
,
0020
0000
0000
0000
0000
0000
0030
0010
,
0100
0001
0100
0010
,
1000
0100
1000
0010
,
0100
0001
0010
0001
,
0100
1000
0010
1000
,
0100
0010
0001
1000
,
0010
0100
0001
0010
,
0001
0100
0010
1000
,
0001
0010
0100
1000
,
0100
0010
0100
1000
,
0001
0100
0010
0100
,
0001
0010
0100
1000
,
0010
0100
0001
0010
,
0100
1000
0100
1000
,
0001
0010
0001
0010
,
0001
0100
0010
1000
,
0001
0010
0100
1000
,
0020
0000
0130
0000
,
0110
0000
2002
0000
,
3003
0000
0000
0000
;

//---------------dance-single - ----------------
#NOTES:
     dance-single:
     :
     Medium:
     7:
     0.426,0.394,0.036,0.072,0.000:
0010
0000
1000
0000
0100
0000
1000
0010
,
0100
0000
0001
0000
0010
0000
0100
0010
,
0001
0000
1000
0000
0010
0000
0100
0001
,
0100
0000
0010
0000
1001
0000
1000
0010
,
1000
0000
0100
0000
0010
0001
0010
0000
,
0001
0000
0100
0000
0010
1000
0001
0000
,
0010
0000
0100
0000
1000
0100
0010
0000
,
0001
0000
1000
0000
0010
0100
0010
0000
,
1000
0000
0001
0000
0010
0100
0010
0000
,
0001
0000
0100
0000
0010
1000
0001
0000
,
0010
0000
0100
0000
1000
0100
0010
0000
,
0001
0000
1000
0000
0010
0100
0001
0100
,
0010
0000
1000
0000
0100
1000
0001
0000
,
0100
0000
0010
0000
1000
0100
1000
0000
,
0010
0000
0100
0000
0001
0010
0001
0000
,
0100
0000
0010
0000
1000
0001
0010
0100
,
1000
0000
0100
0000
0010
0001
1000
0000
,
0010
0000
0100
0000
0001
0010
0100
0000
,
1000
0000
0100
0000
0010
0001
1000
0000
,
0220
0000
0000
0330
,
0010
1000
0100
0000
1000
0010
0100
0000
,
0001
0010
0100
0000
0010
0001
1000
0010
,
0100
0000
0001
0000
0010
0100
0010
0000
,
0001
0000
0100
0000
0010
1000
0001
0000
,
0010
0001
0100
0000
0010
1000
0100
0000
,
1000
0001
0100
0000
0010
1000
0001
0010
,
0100
0000
1000
0000
0100
0010
0001
0000
,
1000
0000
0010
0000
0100
0001
0100
0010
,
2000
0000
0000
0000
0001
0000
0000
0001
,
3001
0000
0100
0000
0010
1000
0100
0000
,
1000
0000
0010
0000
0100
0001
0100
0000
,
0010
0000
1000
0000
0001
0010
0001
0000
,
0100
0000
0010
0000
1000
0100
1000
0010
,
0100
0000
0001
0000
0010
0100
0010
0000
,
0001
0000
1000
0000
0010
0100
0010
0000
,
1000
0000
0001
0000
0010
0100
1000
0000
,
0100
0000
0010
0000
0001
1000
0010
0100
,
0001
0000
0010
0000
0001
0100
0010
0000
,
1000
0000
0100
0000
0010
0100
1000
0000
,
0001
0000
0100
0000
0010
1000
0001
0000
,
0010
0000
0100
1000
0001
0100
0010
0000
,
1000
0000
0001
0000
0010
0100
1000
0000
,
0100
0000
0010
0000
0001
1000
0010
0000
,
0100
0000
0001
0000
0100
0010
1000
0000
,
0001
0000
0010
0100
1000
0100
0010
0001
,
2000
0000
3010
0100
,
0001
1000
0100
0000
2002
0000
0000
0000
,
3003
0000
0000
0000
;

//---------------dance-single - ----------------
#NOTES:
     dance-single:
     :
     Hard:
     8:
     0.573,0.506,0.072,0.072,0.084:
1000
0000
1100
0000
0100
0000
0001
0010
,
0001
0000
0101
0000
0100
0000
0010
1000
,
0100
0000
0110
0000
0010
0000
0001
1000
,
0010
0000
1010
0000
2100
0000
3001
0010
,
0001
0100
0010
1000
0001
0010
0100
1000
,
0100
0010
0001
1000
0010
0000
0100
0000
,
0001
0010
0001
0100
0010
1000
0001
0010
,
0100
0000
1000
0000
0100
0000
0010
0000
0001
1000
0001
0000
0100
0000
0010
0000
,
1000
0001
0010
1000
0010
0001
0100
1000
,
0100
0001
0010
0100
1000
0000
0010
0000
,
0100
0001
0010
0100
1000
0100
0010
0001
,
1000
0000
0010
0000
0100
0000
0001
0000
0010
0100
0010
0000
0001
0000
0100
0000
,
0001
0100
0010
1000
0001
0010
0100
1000
,
0100
0010
0001
1000
0010
0000
0100
0000
,
0001
0010
0100
1000
0010
0001
0010
1000
,
0100
0001
0100
1000
0010
0010
1000
0100
,
0010
0001
0100
0010
1000
0100
0001
0100
,
1000
0010
0001
0010
1000
0000
0010
0000
,
0100
0001
0010
0100
1000
0100
0010
0001
,
2000
0000
0000
3000
,
0001
1000
0100
1000
0001
0100
0001
1000
,
0100
1000
0001
0100
0001
1000
0100
0000
,
0010
0001
1000
0010
1000
0001
0010
0001
,
1000
0010
1000
0001
0010
0001
1000
0000
,
0010
1000
0100
0010
0001
0100
0010
1000
,
0100
0010
0001
1000
0010
0100
0001
0000
,
0010
0001
0100
0010
1000
0001
0010
0100
,
1000
0100
0010
0001
1000
0010
0100
0001
,
0020
0000
0000
0000
0000
0000
0000
1000
,
1030
0100
0010
0000
0010
0100
1000
0000
,
1000
0000
0001
0000
0100
0000
0000
0100
0000
0100
0001
0000
0010
0000
0000
0000
,
0100
1000
0010
0000
0100
0001
0010
0000
,
0010
0000
0100
0000
0010
0000
0000
0000
0001
0100
0001
0000
0010
0000
0000
0000
,
0100
1000
0010
0000
0100
0001
0100
0000
,
0010
0000
1000
0000
0100
0000
0000
0010
0000
0010
0100
0000
1000
0000
0000
0000
,
0001
0100
0010
0000
1000
0100
0010
0000
,
0010
0000
0100
0000
1000
0000
0000
0000
1000
0001
0100
0000
0010
0000
0000
0000
,
1000
0010
0100
0001
0010
0100
1000
0100
,
0010
0000
0001
0000
1000
0000
0000
1000
0000
1000
0001
0000
0100
0000
0000
0000
,
0010
1000
0001
0010
0100
1000
0100
0010
,
0001
0000
1000
0000
0010
0000
0100
0000
0001
0010
0001
0000
0100
0000
0010
0000
,
1000
0001
0010
0100
1000
0100
0010
0001
,
1000
0000
0010
0000
0100
0000
0000
0100
0000
0100
0010
0000
1000
0000
0001
0000
,
0010
0100
1000
0100
0010
0001
1000
0010
,
0100
0001
0100
0010
1000
0001
0010
0100
,
2000
0000
0000
0000
0000
0000
0000
0000
3001
0000
0000
0000
1000
0010
1000
0000
,
0010
0100
0001
0000
0022
0000
0000
0000
,
0033
0000
0000
0000
;

//---------------dance-single - ----------------
#NOTES:
     dance-single:
     :
     Challenge:
     9:
     0.703,0.824,0.048,0.096,0.293: // measure 1
0010
0000
1000
0100
1000
0010
0100
0001
0010
0000
0100
1000
0100
0010
0001
1000
,  // measure 2
0010
0000
0100
0001
0010
0100
1000
0100
0010
0000
0001
1000
0010
0100
0001
0100
,  // measure 3
0010
0000
1000
0001
0010
0100
1000
0100
0010
0000
0001
0100
0010
1000
0001
0010
,  // measure 4
0100
0000
1000
0010
0100
0001
0010
0001
0200
0000
0320
0000
1030
0100
1000
0000
,  // measure 5
0010
1000
0100
0010
0001
1000
0010
0100
,  // measure 6
0001
0000
0100
0000
0010
0000
1000
0100
0000
0100
1000
0000
0010
0000
0100
0000
,  // measure 7
0001
0010
0100
1000
0001
0010
1000
0010
,  // measure 8
0001
0000
0100
0000
1000
0000
0100
0000
0010
0001
0010
0000
0100
0000
1000
0000
,  // measure 9
0010
0100
0001
0010
0100
1000
0010
0100
,  // measure 10
0001
0000
0010
0000
0100
0000
1000
0001
0000
0001
1000
0000
0010
0000
0100
0000
,  // measure 11
0001
0010
0100
0010
0001
1000
0010
0100
,  // measure 12
0010
0000
1000
0000
0100
0000
0010
0000
0001
1000
0001
0000
0100
0000
0010
0000
,  // measure 13
1000
0010
0100
0001
0010
0100
1000
0100
,  // measure 14
0010
0000
0001
0000
1000
0000
0010
0100
0000
0100
0010
0000
1000
0000
0100
0000
,  // measure 15
0001
0010
0100
1000
0100
0010
0001
1000
,  // measure 16
0010
0000
0100
0000
0001
0000
1000
0100
1000
0000
0010
0000
0001
0000
0010
0000
,  // measure 17
1000
0010
0100
0010
1000
0001
0010
0100
,  // measure 18
1000
0000
0001
0000
0100
0000
0010
1000
0000
1000
0010
0000
0100
0000
0001
0000
,  // measure 19
0010
0100
1000
0010
0001
0010
0100
1000
,  // measure 20
0002
0000
0000
0013
,  // measure 21
0001
0100
0010
1000
0001
0010
0100
1000
,  // measure 22
0100
0010
0001
1000
0010
0100
0010
1000
,  // measure 23
0010
0001
0100
1000
0100
0010
0001
1000
,  // measure 24
0010
0100
0001
0010
0100
1000
0010
0001
,  // measure 25
0100
1000
0100
0001
0010
0100
1000
0010
,  // measure 26
0001
0010
1000
0100
0001
0100
1000
0010
,  // measure 27
0100
0001
0010
1000
0010
0001
0100
1000
,  // measure 28
0100
0001
0010
0100
1000
0010
0100
0001
,  // measure 29
0020
0000
0000
0000
0000
0000
0030
1001
,  // measure 30
1000
0100
0010
0001
1000
0010
0001
0010
,  // measure 31
1000
0000
0100
0000
0001
0000
0100
0001
0000
0001
0100
0000
0010
0000
1000
0000
,  // measure 32
0100
0010
0100
1000
0010
0100
0001
0010
,  // measure 33
0001
0000
0100
0000
0010
0000
1000
0000
0001
0010
0001
0000
0100
0000
0010
0000
,  // measure 34
1000
0100
0010
0001
1000
0100
0001
0100
,  // measure 35
1000
0000
0010
0000
0001
0000
0010
0100
0000
0100
0010
0000
0001
0000
0100
0000
,  // measure 36
0010
1000
0100
0001
0010
0001
0100
1000
,  // measure 37
0010
0000
0100
0000
0001
0000
0010
0000
0100
1000
0100
0000
0010
0000
0001
0100
,  // measure 38
0001
0100
0010
1000
0001
0010
0100
1000
,  // measure 39
0100
0000
0010
0000
0001
0000
1000
0100
1000
0100
1000
0000
0010
0000
0100
0000
,  // measure 40
0001
0010
0100
1000
0100
0010
0001
1000
,  // measure 41
0010
0000
0001
0000
0100
0000
0010
0000
1000
0100
1000
0000
0001
0000
0010
0000
,  // measure 42
0100
1000
0100
0010
0001
1000
0010
0100
,  // measure 43
0001
0000
0010
0000
0100
0000
0010
0001
0010
0001
0010
0000
0001
0000
0100
0000
,  // measure 44
0010
1000
0001
0010
1000
0100
0001
0100
,  // measure 45
1000
0010
1000
0000
0010
0000
0100
0001
0100
0000
0100
0000
0110
0000
0000
0000
,  // measure 46
2002
0000
0000
0000
0003
0000
0000
0000
3001
0000
0010
0000
0100
1000
0100
0000
,  // measure 47
0010
0001
1000
0000
0010
0000
0000
0000
2020
0000
0000
0000
0000
0000
0000
0000
,  // measure 48
0000
0000
3030
0000
;
