#TITLE:The Missing;
#SUBTITLE:;
#ARTIST:Speedcore Front Ost Berlin;
#TITLETRANSLIT:;
#SUBTITLETRANSLIT:;
#ARTISTTRANSLIT:;
#CREDIT:;
#BANNER:;
#BACKGROUND:;
#LYRICSPATH:;
#CDTITLE:;
#MUSIC:the missing.ogg;
#OFFSET:-0.308;
#SAMPLESTART:47.139;
#SAMPLELENGTH:12.000;
#SELECTABLE:YES;
#DISPLAYBPM:200.000;
#BPMS:0.000=180.000,19.000=183.000,21.000=185.000,28.000=186.000,32.000=190.000,127.000=380.000,287.000=95.000,322.000=380.000,482.000=190.000;
#STOPS:321.000=0.632
;
#BGCHANGES:;

//---------------dance-single - ----------------
#NOTES:
     dance-single:
     :
     Challenge:
     13:
     1.000,1.000,0.518,0.220,0.616:
0000
0000
0000
0000
,
0000
0000
1001
0000
1000
0000
0001
0100
,
0001
0100
0010
1000
0010
1000
0001
0010
,
0100
1000
0001
0100
0010
1000
0001
0010
,
0001
0000
0100
0000
0010
0000
1000
0000
0010
0000
1000
0001
1000
0000
0100
0000
,
1000
0100
0010
0100
0010
0001
1000
0100
,
0010
0100
1000
0001
0010
0100
1000
1100
,
0000
0110
0000
0011
0000
0000
1010
0000
,
1010
0000
1001
0100
0010
0100
1001
0000
,
1010
0101
0011
0011
,
1001
0000
1001
0100
0010
0100
1001
0000
,
0101
0000
0000
0000
1000
0000
0000
1000
0010
0000
0000
0000
1000
0000
0100
0000
,
0010
0100
1000
0001
0010
0001
1000
0100
,
0010
0000
0100
0000
1000
0000
0001
0000
0010
0000
0001
1000
0001
0000
0010
0000
,
0100
1000
0100
0001
0100
1000
0100
0010
,
0001
0000
0100
0000
1000
0000
0100
0000
0001
0100
0001
0100
0001
0000
0010
0000
,
0100
0110
0100
1000
1001
1000
0100
1100
,
0100
0000
0010
0000
0001
0100
0010
1000
0001
0000
0100
0000
0101
0000
0001
0000
,
0010
0011
0001
1000
1001
1000
0100
1100
,
0100
0000
0010
0000
0001
0000
0000
0001
1000
0000
0010
0000
1010
0000
1000
0000
,
0100
1001
0001
1000
0100
0100
0100
0010
,
0001
0000
1000
0000
0010
0000
0000
0010
1000
0000
0001
0000
1001
0000
1000
0000
,
0100
1100
0011
0000
0011
0000
1100
0110
,
0011
0000
1100
0000
1001
0000
0002
0013
,
0100
2000
3001
0100
0002
1003
0100
0020
,
0031
0100
0010
0010
1000
0100
0002
0103
,
1000
0200
0310
0001
0020
0130
2000
3100
,
0010
0000
0002
0000
0003
0000
0001
0010
0001
0010
0001
0000
0002
0000
0013
0000
,
0010
0200
1300
1000
0020
0130
0100
0002
,
0013
0000
0200
0000
1300
0000
0020
0000
0230
0000
0301
0000
1000
0010
0100
0001
,
0100
0000
0000
0010
0000
0000
1000
0000
0000
0100
0000
0000
0010
0000
0000
0001
0000
0000
0010
0000
0000
0100
0000
0000
1000
0000
0000
0100
0000
0000
0010
0000
0000
0001
0000
0000
1000
0000
0100
0000
1000
0000
0100
0000
1000
0000
0100
0000
,
1000
0100
1000
0100
1000
0100
1000
0100
1000
0100
1000
0100
1000
0100
1000
0100
1000
0100
1000
0000
0000
0100
0000
0000
,
1000
0100
0010
0001
0010
0001
1000
0010
,
1000
0000
0000
0010
0000
0000
1000
0000
0000
0100
0000
0000
0010
0000
0000
0001
0000
0000
1000
0000
0001
0000
1000
0000
,
0001
0010
0100
1000
0100
0010
0001
0010
,
0100
0000
0100
0000
0010
0000
0001
0100
,
0001
0000
1000
0000
0001
1000
0001
0000
,
0010
0000
0100
0000
1000
0000
1000
0100
,
1000
0100
1000
0100
0010
0001
0010
0001
,
0010
0001
1000
0010
1000
0010
1000
0100
,
1000
0100
0010
0001
0010
0001
1000
0010
,
1000
0010
0100
0001
0100
0001
1000
0100
,
0010
0001
0010
0100
0010
0001
1000
0100
,
0010
0100
1000
0000
0001
0000
1000
0100
,
0010
0100
1000
0001
0010
0100
1000
0001
,
0100
0010
0100
0001
0100
0010
1000
0010
,
0100
0000
0000
0010
0000
0000
1000
0000
0000
0001
0000
0000
1000
0000
0000
0100
0000
0000
0010
0000
0001
0000
0010
0000
,
0001
0000
0010
0000
0001
0000
0010
0000
0001
0000
0010
0000
0001
0000
0010
0000
0001
0000
0010
0000
0000
0100
0000
0000
,
1000
0100
0010
0001
0010
0001
1000
0010
,
0100
0000
0000
0001
0000
0000
1000
0000
0000
0010
0000
0000
1000
0000
0100
0000
1000
0000
0100
0000
1000
0000
0100
0000
,
1000
0001
0010
0100
1000
0100
1000
0100
,
1000
0000
0000
0100
0000
0000
0010
0000
0000
0001
0000
0000
0010
0000
0000
0001
0000
0000
1000
0000
0010
0000
1000
0000
,
0010
1000
0010
1000
0010
0100
0001
1000
,
0100
0000
0000
0010
0000
0000
0001
0000
0000
0100
0000
0000
0010
0000
0000
1000
0000
0000
0001
0000
0100
0000
0001
0000
,
0100
0010
1000
0100
0010
0001
1000
0100
,
1000
0001
0010
0001
0010
0001
1000
0100
,
0010
0001
0010
0100
1000
0001
0010
0001
,
1000
0100
0010
0001
1000
0100
1000
0001
,
0010
0100
1000
0001
0100
0010
0100
0001
,
1000
0010
0100
0010
1000
0001
0100
0010
,
0100
0001
0100
0010
1000
0010
0100
0010
,
1000
0010
0100
0010
1000
0001
0100
0010
,
0100
0001
0100
0010
0100
0001
1000
0100
,
0010
0000
0000
0001
0000
0000
1000
0000
0001
0000
1000
0000
0001
0000
1000
0000
0001
0000
1000
0000
0000
0010
0000
0000
,
1000
0100
0010
0001
0010
0100
1000
0010
,
1000
0000
0000
0100
0000
0000
0010
0000
0000
0001
0000
0000
1000
0000
0001
0000
1000
0000
0001
0000
1000
0000
0001
0000
,
1000
0100
0010
0001
0010
0100
1000
0010
,
0100
0000
0000
0001
0000
0000
1000
0000
0000
0100
0000
0000
1000
0000
0100
0000
1000
0000
0100
0000
1000
0000
0100
0000
,
1000
0100
0010
0001
0100
0010
1000
0001
,
0010
0000
0000
0001
0000
0000
1000
0000
0000
0010
0000
0000
0100
0000
0000
0001
0000
0000
1000
0000
0001
0000
1000
0000
,
0001
1000
0001
1000
0000
0000
0110
0000
0000
0011
0000
0000
,
0101
0000
0000
0000
1010
0000
0000
0000
1001
0000
0000
0000
1001
0000
1000
0100
,
0000
0100
1000
0000
0001
0100
0010
1000
0000
0001
0010
0000
0100
1000
0100
1000
,
0000
0001
0100
0000
0100
0010
0000
0010
1000
0000
1000
0001
1000
0100
0001
0100
,
0000
0000
1000
0000
0100
0000
0000
0000
0010
0000
0001
0010
0001
0000
1000
0000
0100
0000
0010
0000
0001
0000
0100
0000
0001
0000
0100
0000
0010
0000
1000
0000
,
1010
0000
0000
0101
0000
0000
0000
0001
0000
1000
0000
0001
0000
0000
1000
1100
,
0000
0100
0000
0010
0000
0000
0001
0101
0000
0100
0000
0010
0000
0000
1000
0010
,
0000
0100
0000
0001
0000
0000
1000
0010
0000
0000
1000
0010
0000
0000
1000
0001
,
1000
0100
0010
0000
0001
0100
0010
1000
0000
1010
0000
0000
0101
0000
0010
1000
,
1010
0000
0010
0100
0220
0000
0000
0000
0000
0000
0000
0000
0000
0000
0000
0000
,
0000
0000
0330
0000
0001
0010
0100
1000
,
0100
0010
0001
0100
0010
1000
0010
0100
,
0001
0010
0100
1000
0001
0100
0001
1000
,
0010
1000
0100
0010
0001
0100
0010
1000
,
0001
0000
1000
0000
0001
0000
1000
0000
0001
0000
1000
0000
0001
0000
0000
0010
0000
0000
0100
0000
0000
1000
0000
0000
,
0100
0000
0000
0010
0000
0000
0002
0000
0000
0103
0000
0000
0010
0000
0000
1000
0000
0000
0100
0000
0010
0000
0100
0000
,
0010
0000
0000
0001
0000
0000
0010
0000
0000
0100
0000
0000
1000
0000
0000
0100
0000
0000
0010
0000
0001
0000
0010
0000
,
0001
0000
0000
0010
0000
0000
0001
0000
0010
0000
0001
0000
0010
0000
0000
0100
0000
0000
1000
0000
0000
0000
0000
0000
,
0100
0000
0010
0001
1000
0100
0010
0001
,
0010
0000
0000
0100
0000
0000
1000
0000
0000
0100
0000
0000
0010
0000
0001
0000
0010
0000
0001
0000
0010
0000
0001
0000
,
0010
0100
1000
0100
0010
0001
0100
0010
,
1000
0100
0010
0001
0010
0100
1000
0001
,
1000
0000
0001
0000
1000
0000
0001
0000
1000
0000
0001
0000
1000
0000
0000
0100
0000
0000
0010
0000
0000
0001
0000
0000
,
0010
0000
0000
0100
0000
0000
1000
0000
0100
0000
1000
0000
0100
0000
1000
0000
0100
0000
1000
0000
0000
0100
0000
0000
,
0010
0001
0100
0010
1000
0010
0100
0001
,
0100
0000
0000
0010
0000
0000
1000
0000
0000
0001
0000
0000
1000
0000
0010
0000
1000
0000
0010
0000
0000
0000
1000
0000
,
0010
0000
1000
0001
0000
0000
0001
0000
0000
0101
0000
0000
,
0101
0000
0001
0100
0010
1000
0010
0000
,
1001
0000
0000
0000
0000
0000
1000
0000
0001
0000
1000
0000
0001
0000
0000
0000
0000
0000
1000
0000
0000
0010
0000
0000
,
0100
0001
0100
0001
1000
0100
0010
0001
,
1000
0010
1000
0001
0100
0010
1000
0100
,
0010
0001
0101
0000
0101
0000
1010
0000
,
1010
0000
1001
0000
1000
0100
0010
0001
,
0100
0010
1000
0010
0100
0001
0010
0100
,
1000
0000
0001
0000
1000
0000
0001
0000
1000
0000
0001
0000
1000
0000
0000
0100
0000
0000
1000
0000
0000
0100
0000
0000
,
1000
0100
0010
0001
0010
0001
0010
0001
,
1000
0010
1000
0010
0100
0001
0100
0001
,
0100
0001
1000
0001
1000
0001
1000
0001
,
1000
0100
1000
0100
0010
0000
0001
0000
,
0100
0000
0000
0101
0000
0000
0001
0000
0000
0001
0100
0010
,
1000
1000
1000
0102
,
0100
0103
1010
0010
,
1000
0001
1000
0001
1000
0001
1000
0000
0000
0100
0000
0000
,
0010
0000
0000
0001
0010
0001
0020
0000
0000
0130
0000
0000
,
1000
0200
0310
0002
,
0103
0000
0000
0010
0000
0000
1000
0001
1000
0001
0000
0000
,
1001
1010
2000
3010
,
0100
0002
1003
0100
,
0020
0000
0000
0000
0000
0000
0031
0000
0100
0000
0001
0000
0100
0000
0000
0010
0000
0000
1000
0000
0000
0100
0000
0000
,
0010
0001
0010
0100
1000
0010
0100
0001
,
1000
0100
0010
0001
1000
0100
0010
0001
,
0011
0001
0100
0100
0010
1000
1000
0001
,
0100
0001
0100
0010
1010
0000
1000
0000
,
0001
0000
0000
0100
0000
0000
0001
0000
0000
0000
0000
0000
1001
0000
1000
0000
,
0000
0001
0100
0010
1000
0100
0010
0001
,
2002
0000
0003
0001
0000
0000
3010
0000
,
0000
0100
0000
0000
1001
0000
0000
0000
;

//---------------dance-single - Copied from----------------
#NOTES:
     dance-single:
     Copied from:
     Hard:
     13:
     0.950,1.000,0.471,0.408,0.283:
0000
0000
0000
0000
,
0000
0000
1001
0000
1000
0000
0001
0100
,
0001
0100
0010
1000
0010
1000
0001
0010
,
0100
1000
0001
0100
0010
1000
0001
0010
,
0001
0000
0100
0000
0010
0000
1000
0000
0010
0000
1000
0001
1000
0000
0100
0000
,
1000
0100
0010
0100
0010
0001
1000
0100
,
0010
0100
1000
0001
0010
0100
1000
0001
,
0000
0001
0000
0001
0000
0000
2000
0000
,
0010
0000
0001
0001
0000
3001
0000
0000
,
2001
0001
3002
0203
,
0320
0000
1000
1030
0000
1000
0000
0000
,
0001
0000
0000
0000
1000
0000
0000
1000
0010
0000
0000
0000
1000
0000
0100
0000
,
0010
0100
1000
0001
0010
0001
1000
0100
,
0010
0100
1000
0001
0010
0001
0001
0010
,
0100
1000
0100
0001
0100
1000
0100
0010
,
0001
0100
1000
0100
0001
0000
0101
0000
,
0000
1010
0000
0000
1001
0000
0000
1100
,
0000
0000
0001
1000
0001
0000
0101
0000
,
0000
0011
0000
0000
1001
0000
0000
1100
,
0000
0000
0000
0000
0001
0000
0000
0001
1000
0000
0010
0000
1010
0000
0000
0000
,
0000
1001
0000
0000
1000
0100
0010
0001
,
0000
0000
0000
0000
0010
0000
1000
0010
1000
0000
0001
0000
1001
0000
0000
0000
,
0000
1100
0000
0000
0011
0000
0000
1001
,
0000
1100
1001
0002
,
0000
2003
0000
0000
3002
0000
0000
0203
,
0000
0000
0310
1000
0000
0000
0002
0000
,
0000
0203
0000
0000
0320
0000
0000
1030
,
0100
0000
1000
0000
0000
0000
0001
0000
0010
0001
0010
0000
0002
0000
0000
0000
,
0000
2003
0000
0000
3020
0000
0000
1030
,
0000
0000
0001
0000
0000
0000
0010
0000
0100
0000
0000
0000
1000
0001
1000
0001
,
1000
0001
1000
0001
1000
0001
1000
0001
1000
0001
1000
0002
2000
0000
0000
0000
,
0000
0000
0000
0000
3003
0000
1000
0100
,
1000
0100
0010
0001
0010
0001
1000
0010
,
1000
0010
1000
0100
0010
0001
2000
3001
,
1000
0100
0010
0001
0010
0100
1000
0001
,
1000
0000
0100
0000
0010
0000
0001
0100
,
0001
0000
1000
0000
0001
1000
0001
0000
,
0010
0100
1000
2002
,
0000
0003
0002
0000
,
3000
0000
2000
0000
3003
0000
1000
0100
,
1000
0100
0010
0001
0010
0001
1000
0010
,
1000
0010
0100
0001
0100
0001
1000
0100
,
0010
0001
0010
0100
0010
0001
1000
0100
,
0010
0100
1000
0000
0001
0000
1000
0100
,
0010
0100
1000
0001
0010
0100
1000
0001
,
0100
0010
0100
0001
0100
0010
1000
0010
,
0100
0010
1000
0001
1000
0100
0010
0000
,
0001
0000
0010
0000
0100
0000
1000
0100
,
1000
0100
0010
0001
0010
0001
1000
0010
,
0100
0001
1000
0010
2000
0000
0000
0000
,
3001
0010
0001
0010
0100
1000
0100
1000
,
0100
1000
0001
0100
0001
0100
0010
1000
,
0010
1000
0010
1000
0020
0000
0000
0000
,
0030
1000
0000
1002
,
2000
3003
0000
0001
,
1000
0000
0002
0000
0000
0000
1003
0100
,
0010
0001
0010
0100
1000
0001
0010
0001
,
1000
0100
0010
0001
1000
0100
1000
0001
,
0010
0100
1000
0001
0100
0010
0100
0001
,
1000
0010
0100
0010
1000
0001
0100
0010
,
0100
0001
0100
0010
1000
0010
0100
0010
,
1000
0010
0100
0010
1000
0001
0100
0010
,
0100
0001
0100
0010
0100
0001
1000
0000
,
0001
0000
2000
0000
0000
0000
3001
0010
,
0001
1000
0100
0010
0001
0010
0100
1000
,
0010
0100
0001
0100
0010
1000
0001
0100
,
0001
0100
0001
1000
0100
0010
0001
0100
,
0010
1000
0100
1000
0001
0100
0001
0010
,
0001
0010
0001
1000
0100
0010
0001
0100
,
0010
1000
0001
0100
0001
0010
0100
1000
,
0100
1100
0110
0011
,
0101
0000
0000
0000
1010
0000
0000
0000
1001
0000
0000
0000
0001
0000
1000
0100
,
0000
0100
1000
0000
0001
0100
0010
1000
0000
0001
0010
0000
0100
1000
0100
1000
,
0000
0001
0100
0000
0100
0010
0000
0010
1000
0000
1000
0001
1000
0100
0001
0100
,
0000
0000
1000
0000
0100
0000
0000
0000
0010
0000
0001
0010
0001
0000
1000
0000
0100
0000
0010
0000
0001
0000
0100
0000
0001
0000
0100
0000
0010
0000
1000
0000
,
1010
0000
0000
0101
0000
0000
0000
0001
0000
1000
0000
0001
0000
0000
1000
1100
,
0000
0100
0000
0010
0000
0000
0001
0101
0000
0100
0000
0010
0000
0000
1000
0010
,
0000
0100
0000
0001
0000
0000
1000
0010
0000
0000
1000
0010
0000
0000
1000
0001
,
1000
0100
0010
0000
0001
0100
0010
1000
0000
1010
0000
0000
0101
0000
0010
1000
,
1010
0010
0220
0000
0000
0000
0000
0000
,
0000
0330
0001
0100
,
0001
0100
0010
1000
,
0100
0010
0001
0010
,
0100
1000
0010
0100
,
0002
0000
1003
0010
,
1000
1010
0100
0001
,
0101
0001
1001
1000
,
0010
1010
1000
0010
,
1000
0000
0001
0010
0100
1000
0001
0100
,
0010
1000
0100
0010
0001
0010
0100
1000
,
0001
0100
0001
1000
0100
0010
0001
0100
,
0001
1000
0100
0010
0001
0010
0100
1000
,
0002
0000
0000
0000
1003
0100
0010
0001
,
0010
0100
2000
0000
0000
0000
3001
0100
,
0010
1000
0100
0010
0001
0010
0100
1000
,
0100
0010
0001
0100
0020
0000
1000
0000
,
1030
1001
0001
0100
,
0101
0101
1010
1010
,
1001
0000
0000
1000
0001
1000
0001
0000
0000
1000
0000
0000
,
0010
0100
0101
0101
,
1001
1000
1000
0001
,
0001
0101
0101
0010
,
0010
1000
0100
0001
,
0100
0010
1000
0010
,
1000
0001
1000
0001
1000
0001
2000
0000
0000
0000
0000
0000
,
0000
3020
0000
0000
,
0230
0000
0302
0000
,
0000
2003
0000
0000
,
3002
0003
2001
0001
,
3001
0102
0100
0103
,
1002
1000
1003
0102
,
0100
0103
1010
0010
,
1000
0001
1000
0001
1000
0001
1000
0000
0000
0100
0000
0000
,
0010
0000
0000
0001
0010
0001
0020
0000
0000
0130
0000
0000
,
1000
0200
0310
0002
,
0103
0000
0000
0010
0000
0000
1000
0001
1000
0001
0000
0000
,
1001
1010
2000
3010
,
0100
0002
1003
0100
,
0020
0000
0000
0000
0000
0000
0031
0000
0100
0000
0001
0000
0100
0000
0000
0010
0000
0000
1000
0000
0000
0100
0000
0000
,
0010
0001
0010
0100
1000
0010
0100
0001
,
1000
0100
0010
0001
1000
0100
0010
0001
,
0011
0001
0100
0100
0010
1000
1000
0001
,
0100
0001
0100
0010
1010
0000
1000
0000
,
0001
0000
0000
0100
0000
0000
0001
0000
0000
0000
0000
0000
1001
0000
1000
0000
,
0000
0001
0100
0010
1000
0100
0010
0001
,
2002
0000
0003
0001
0000
0000
0010
0000
,
0000
0100
0000
0000
3001
0000
0000
0000
;

//---------------dance-single - ----------------
#NOTES:
     dance-single:
     :
     Beginner:
     5:
     0.276,0.433,0.173,0.024,0.051:
0000
0000
0000
0000
,
0000
1001
0000
1000
,
0000
0010
0000
1000
,
0000
0001
0000
0100
,
0000
0010
0000
1000
,
0000
0001
0000
0100
,
0000
0000
0010
0000
0000
0000
0000
1000
,
0000
1000
0000
1000
0000
0000
0000
0000
,
0000
0000
0000
1000
,
0000
0000
0000
0010
,
0000
0000
0000
1000
,
0000
0000
0000
1000
,
1000
1000
1000
1000
,
1000
1000
0000
0010
,
0010
0010
0010
0010
,
0010
0010
0000
1001
,
0000
0110
0000
0000
1001
0000
0000
0110
,
0000
0001
0001
0001
,
0000
1001
0000
0000
0100
0000
0000
0110
,
0000
0010
0010
0010
,
0000
1001
0000
0000
0010
0000
0000
0110
,
0000
1000
1000
1000
,
0000
1001
0000
0000
0010
0000
0000
0110
,
0000
0100
0100
0100
,
0000
0010
0000
0000
1000
0000
0000
0000
,
0000
0000
0000
0001
,
0000
1000
0000
0000
0010
0000
0000
0000
,
0000
0000
0000
1000
,
0000
0001
0000
0000
0100
0000
0000
0000
,
0000
0000
0000
0002
,
0000
0000
0000
2000
,
0000
0000
3003
1000
,
0000
0000
0001
0000
,
0000
0100
0000
0010
,
0000
0000
1000
0000
,
0000
0001
0000
0100
,
0000
0000
0001
0000
,
0000
1000
0000
0010
,
0000
0000
1000
0000
,
0000
0001
0000
1001
,
0000
0000
0010
0000
,
0000
0010
0000
0100
,
0000
0000
0100
0000
,
0000
0001
1000
0001
,
0000
0000
1001
0000
,
0000
0010
0000
0010
,
0000
0000
0110
0000
,
0000
0001
0000
1000
,
0000
0000
0001
0000
,
0000
0100
0000
0010
,
0000
0000
1000
0000
,
0000
0001
0000
1001
,
0000
0000
0010
0000
,
0000
0100
0000
0000
,
0010
0000
0000
1000
,
0000
0001
0000
1001
,
0000
0000
0010
0000
,
0000
0010
0000
0100
,
0000
0000
0100
0000
,
0000
1000
0001
1000
,
0000
0000
0010
0000
,
0000
1000
0000
0001
,
0000
0000
0100
0000
,
0000
0010
0000
1000
,
0000
0000
0001
0000
,
0000
0100
0000
0100
,
0000
0000
0010
0000
,
0000
1000
0000
0001
,
0000
0000
1000
0000
,
0000
0100
0000
0010
,
0000
0000
0001
0000
,
0000
0000
0000
0000
1000
0000
0000
0000
0000
0000
0000
0000
1001
0000
0000
1000
,
0000
0000
0000
0000
0001
0000
0000
0001
0000
0000
0000
0000
0100
0000
0000
0100
,
0000
0000
0010
1000
,
0000
0001
0100
0010
,
0000
0000
0000
0000
0000
0000
0000
1000
0000
0000
0000
0001
0000
0000
0000
0100
,
0000
0000
0000
0010
0000
0000
0000
1000
0000
0000
0000
0001
0000
0000
0000
1000
,
0000
0000
0000
0100
0000
0000
0000
0010
0000
0000
0000
0001
0000
0000
0000
0000
,
1000
0001
0000
0100
,
0010
2000
0000
0000
,
0000
3000
1000
0000
,
0000
0001
0000
0000
,
0100
0000
0100
0000
,
0000
0010
0000
0000
,
1000
0000
1000
0000
,
0000
0001
0000
0000
,
0100
0000
0100
0000
,
0000
0010
0000
0000
,
1000
0001
1000
0000
,
0000
0010
0000
0000
,
0010
0000
0100
0000
,
0000
0100
0000
0000
,
1001
0000
0010
0000
,
0000
0010
0000
0000
,
1001
0000
0000
0100
,
0000
0000
0100
0000
,
0100
0010
0100
0000
,
0000
0100
0000
0000
,
0100
0000
0100
0000
,
0000
0001
0000
0000
,
1000
0001
1000
0000
,
0000
0010
0000
0000
,
0010
0000
0100
0000
,
0000
0100
0000
0000
,
1000
0000
1001
0000
,
0000
0010
0000
0000
,
0010
0000
1001
0000
,
0000
1001
0000
0000
,
1000
0000
1000
0000
,
0000
0001
0000
0000
,
0100
0000
0000
0010
,
0000
0000
1000
0000
,
0001
1000
0001
0000
,
0000
1000
0000
0000
,
0100
0000
0001
0000
,
0000
0001
0000
0000
,
1000
0000
0010
0000
,
0000
1000
0000
0000
,
1000
0000
1000
0000
,
0000
0001
0000
0000
,
0001
0000
1000
0000
,
0000
0000
0010
0000
,
0000
0000
1000
0000
;

//---------------dance-single - ----------------
#NOTES:
     dance-single:
     :
     Medium:
     10:
     0.734,1.000,0.267,0.432,0.169:
0000
0000
0000
0000
,
0000
0000
1001
0000
0010
0000
1000
0001
,
1000
0000
0010
0100
0010
0000
1000
0001
,
1000
0000
0001
0010
0001
0000
1000
0001
,
1000
0000
0000
0000
0001
0000
0100
0000
0001
0000
1000
0001
1000
0000
0001
0000
,
1000
0000
0001
0100
0001
0000
1000
0010
,
1000
0000
0001
1000
0001
1000
0010
1000
,
0000
0001
0000
0100
0000
0000
2000
0000
,
0010
0000
0001
0001
0000
3001
0000
0000
,
2001
0001
3002
0203
,
0320
0000
1000
1030
0000
1000
0000
0000
,
0001
0000
1000
0000
0010
0000
1000
0100
,
0010
0100
1000
0001
0010
0001
1000
0100
,
0010
0100
1000
0001
0010
0000
0100
1000
,
0001
0100
0010
1000
0010
0100
0001
0010
,
0000
1001
0001
0100
0001
0000
0101
0000
,
0000
1010
0000
0000
1001
0000
0000
1100
,
0000
0000
0001
1000
0001
0000
0101
0000
,
0000
0011
0000
0000
1001
0000
0000
1100
,
0000
0000
0001
0000
1000
0010
1010
0000
,
0000
1001
0000
0000
1000
0100
0010
0001
,
0000
0000
0010
1000
0001
0100
1001
0000
,
0000
1100
0000
0000
0011
0000
0000
1001
,
0000
1100
1001
0002
,
0000
2003
0000
0000
3002
0000
0000
0203
,
0000
0000
0310
1000
0000
0000
0002
0000
,
0000
0203
0000
0000
0320
0000
0000
1030
,
0100
1000
0000
0001
0010
0001
0020
0000
,
0000
0230
0000
0000
2300
0000
0000
3001
,
0000
0100
0000
0010
1000
0000
0002
0000
,
0000
0203
0000
0000
0020
0000
0000
0000
,
0000
0000
0330
0001
,
0100
0001
0100
0010
,
1000
0010
1000
0001
,
0100
0010
1000
0001
,
1000
0000
0100
0000
0010
0000
0001
0100
,
0001
0000
1000
0000
0001
1000
0001
0000
,
0010
0100
1000
2002
,
0000
0003
0002
0000
,
3000
2000
3003
0001
,
0100
0010
1000
0100
,
0010
0100
1000
0001
,
0100
0010
1000
0100
,
0010
0002
2003
3002
,
0103
0010
2000
3001
,
0100
0020
1030
0020
,
0130
0001
2000
3001
,
0010
0100
1000
0001
,
0100
0010
1000
0100
,
0010
0001
0100
0020
,
0130
0001
1000
0100
,
0010
0100
1000
0001
,
0100
0010
2000
0000
,
3000
1000
0000
2002
,
0000
3003
0000
0001
,
1000
0002
0000
0003
,
1000
0100
1000
0100
,
0010
0001
0010
0001
,
1000
0010
1000
0010
,
0100
0001
0100
0001
,
1000
0100
0001
0100
,
1000
0010
0001
0010
,
1000
0100
0010
0001
,
1000
0000
0002
0000
0000
0000
1003
0100
,
1000
0000
0001
0000
0100
0010
0100
0000
,
0001
0000
1000
0100
1000
0000
0001
0010
,
0001
0000
1000
0000
0001
0010
0001
0000
,
1000
0000
0001
0010
0001
0000
1000
0001
,
1000
0000
0001
0000
0100
0010
0100
0000
,
0001
0000
1000
0100
1000
0000
0001
0010
,
0001
1000
1000
0010
,
0010
0000
0000
0000
0100
0000
0000
0000
0100
0000
0000
0000
0001
0000
1000
0100
,
0000
0100
1000
0000
0001
0100
0010
1000
0000
0001
0010
0000
0100
1000
0100
1000
,
0000
0001
0100
0000
0100
0010
0000
0010
1000
0000
1000
0001
1000
0100
1000
0100
,
0000
1000
0100
0000
0010
0001
0010
0100
1000
0010
0100
0001
0100
0010
1000
0010
,
1000
0000
0000
0101
0000
0000
0000
0001
0000
1000
0000
0001
0000
0000
1000
0100
,
0000
0100
0000
0010
0000
0000
0001
0100
0000
0100
0000
0010
0000
0000
1000
0010
,
0000
0100
0000
0001
0000
0000
1000
0010
0000
0000
1000
0010
0000
0000
1000
0001
,
1000
0100
0010
0000
0001
0100
0010
1000
0000
1010
0000
0000
0101
0000
0010
1000
,
0010
0220
0000
0000
,
0000
0330
0001
0100
,
0001
0100
0010
1000
,
0100
0010
0001
0010
,
0100
1000
0010
0100
,
0002
0000
1003
0010
,
1000
0010
0100
0001
,
0200
0001
0301
1000
,
0010
1000
1000
0010
,
1000
0000
0001
0000
1000
0010
1000
0000
,
0001
0000
1000
0010
1000
0000
0001
0000
,
1000
0010
1000
0000
0001
0100
0001
0000
,
1000
0000
0001
0100
0001
0000
1000
0000
,
0002
0000
1003
0010
,
0100
0002
0000
0003
,
2000
0000
0000
3002
,
0000
0000
2003
0010
,
3010
1000
0100
0001
,
0100
0010
1000
0100
,
0001
0100
0010
0001
,
0100
0001
0010
0001
,
0100
0010
1000
0100
,
0010
0100
0010
0001
,
0100
0010
0100
0010
,
1000
0010
0100
0001
,
1000
0001
1000
0001
2000
0000
0000
0000
,
0000
3020
0000
0000
,
0230
0000
0302
0000
,
0000
2003
0000
0000
,
3002
0003
2001
0000
,
3000
0102
0000
0003
,
1002
0000
0003
0102
,
0000
0003
1010
0010
,
1000
0001
1000
0001
1000
0000
0100
0000
,
0010
0000
0001
0010
0001
0000
1000
0000
,
0010
0000
1000
0010
1000
0000
0001
0100
,
0001
0000
1000
0000
0001
1000
0001
0000
,
0100
0000
0001
0000
1000
0010
1000
0000
,
0100
0000
0001
0100
0001
0000
0010
0000
,
0100
0000
1000
0100
1000
0000
1000
0000
,
0010
0001
0010
0001
1000
0100
1000
0100
,
0010
0001
0010
0001
1000
0010
0100
0001
,
0010
0001
0100
0100
0010
1000
1000
0001
,
0100
0001
0100
0010
1010
0000
1000
0000
,
0001
0000
0000
0100
0000
0000
0001
0000
0000
0000
0000
0000
1001
0000
1000
0000
,
0000
0001
0100
0010
1000
0100
0010
0001
,
2001
0000
0000
3001
0000
0000
0010
0000
,
0000
0100
0000
0000
1001
0000
0000
0000
;

//---------------dance-single - ----------------
#NOTES:
     dance-single:
     :
     Easy:
     6:
     0.378,0.596,0.196,0.031,0.079: // measure 1
0000
0000
0000
0000
,  // measure 2
0000
1001
0000
1000
,  // measure 3
0000
0010
0100
0001
,  // measure 4
0010
0100
1000
0010
,  // measure 5
0100
0001
0010
0100
,  // measure 6
1000
0010
0100
0001
,  // measure 7
0010
0000
0100
0000
0100
0000
0000
1000
,  // measure 8
0000
0001
0000
1000
0000
0000
1001
0000
,  // measure 9
0000
0000
0010
0000
0000
1000
0000
0000
,  // measure 10
0010
1000
0001
0100
,  // measure 11
0000
0000
0010
0000
0000
1000
0000
0000
,  // measure 12
0001
1000
0010
1000
,  // measure 13
0010
1000
0010
0100
,  // measure 14
0001
0100
0001
0010
,  // measure 15
0000
0000
0001
0000
0000
1000
0000
0000
,  // measure 16
0010
1000
0000
1001
,  // measure 17
0000
1001
0000
0000
1001
0000
0000
0000
,  // measure 18
0000
1010
1010
1010
,  // measure 19
0000
0000
1001
0000
,  // measure 20
0000
0110
0110
0110
,  // measure 21
0000
0000
1001
0000
,  // measure 22
0000
0001
1000
1001
,  // measure 23
0000
0000
1010
0000
,  // measure 24
0000
0001
0100
0101
,  // measure 25
0000
0001
0000
0000
1000
0000
0000
0000
,  // measure 26
0000
0000
0000
1000
,  // measure 27
0000
0001
0000
0000
0100
0000
0000
0000
,  // measure 28
0000
0000
0000
1000
,  // measure 29
0000
0001
0000
0000
0100
0000
0000
0000
,  // measure 30
0000
0000
0000
0010
,  // measure 31
1000
0001
0100
0010
,  // measure 32
1000
0001
1000
0001
,  // measure 33
0000
0000
1001
0000
,  // measure 34
0000
0010
0000
1000
,  // measure 35
0000
0000
0010
0000
,  // measure 36
0000
0100
0000
0001
,  // measure 37
0000
0000
0010
0000
,  // measure 38
0000
0100
0000
1000
,  // measure 39
0000
0000
0001
0000
,  // measure 40
0000
1000
0000
0010
,  // measure 41
0000
0000
1000
0000
,  // measure 42
0000
0001
0000
0100
,  // measure 43
0000
0000
0010
0000
,  // measure 44
0000
1000
0100
1000
,  // measure 45
0000
0000
0001
0000
,  // measure 46
0000
1000
0000
0010
,  // measure 47
0000
0000
0100
0000
,  // measure 48
0000
0001
1000
0001
,  // measure 49
0000
0000
1000
0000
,  // measure 50
0000
0010
0000
0100
,  // measure 51
0000
0000
0001
0000
,  // measure 52
0000
0010
0000
0100
,  // measure 53
0000
0000
1000
0000
,  // measure 54
0000
0001
0000
0000
,  // measure 55
1000
0000
0000
0010
,  // measure 56
0000
0000
1000
0000
,  // measure 57
0001
1000
0001
0000
,  // measure 58
0000
1000
0000
0000
,  // measure 59
0010
0000
0100
0000
,  // measure 60
0000
0001
0000
0010
,  // measure 61
0000
0000
1000
0000
,  // measure 62
0000
0001
0000
1000
,  // measure 63
0000
0000
0010
0000
,  // measure 64
0000
0000
1000
0000
,  // measure 65
0000
0000
0001
0000
,  // measure 66
0000
1000
0000
0010
,  // measure 67
0000
0000
0100
0000
,  // measure 68
0000
0001
0000
1000
,  // measure 69
0000
0000
0010
0000
,  // measure 70
0000
1000
0000
0010
,  // measure 71
0000
0000
1000
0000
,  // measure 72
0000
0000
0000
0000
0001
0000
0000
0000
0000
0000
0000
0000
1001
0000
0000
1000
,  // measure 73
0000
0000
0010
0000
1000
0000
0000
0001
0000
0000
0100
0000
0010
0000
0000
1000
,  // measure 74
0000
0000
0100
0000
0000
0010
0000
0000
0001
0000
1000
0000
0010
0000
0000
0100
,  // measure 75
0000
0001
1000
0000
0010
0000
1000
0000
,  // measure 76
0001
0000
0000
1000
0000
0000
0000
0010
0000
1000
0000
0010
0000
0000
0000
1000
,  // measure 77
0000
0001
0000
1000
0000
0000
0000
0001
0000
0100
0000
0001
0000
0000
0000
0010
,  // measure 78
0000
0000
0000
1000
0000
0000
0000
0001
0000
0000
0000
0100
0000
0000
0001
0000
,  // measure 79
1000
0010
1000
0000
0000
0000
1000
0000
,  // measure 80
0010
0220
0000
0000
,  // measure 81
0000
0330
1001
0000
,  // measure 82
0000
1000
0000
0000
,  // measure 83
0010
0000
0100
0000
,  // measure 84
0000
0001
0000
0000
,  // measure 85
0010
1000
0100
0000
,  // measure 86
0000
0010
0000
0000
,  // measure 87
0001
0000
1001
0000
,  // measure 88
0000
0010
0000
0000
,  // measure 89
1000
0001
1000
0000
,  // measure 90
0000
1001
0000
0000
,  // measure 91
0010
0000
1000
0000
,  // measure 92
0000
1001
0000
0000
,  // measure 93
0010
0000
1000
0000
,  // measure 94
0000
0001
0000
0000
,  // measure 95
1000
0000
0010
0000
,  // measure 96
1000
0000
0010
0000
,  // measure 97
0100
0001
0100
0000
,  // measure 98
0010
0000
1000
0000
,  // measure 99
0100
0000
0010
0001
,  // measure 100
0010
0000
0001
0000
,  // measure 101
1000
0000
0010
0100
,  // measure 102
0010
0000
1000
0000
,  // measure 103
0001
0000
0010
0001
,  // measure 104
0010
0000
0001
0000
,  // measure 105
1000
0000
0010
1000
,  // measure 106
0010
0000
0100
0001
,  // measure 107
0100
0000
0010
1000
,  // measure 108
0010
0000
1000
0100
,  // measure 109
1000
0000
0001
0010
,  // measure 110
0001
0000
0100
0010
,  // measure 111
0100
0000
0001
1000
,  // measure 112
0001
0000
1000
0000
,  // measure 113
0001
0000
0100
0010
,  // measure 114
0100
0010
1000
0001
,  // measure 115
1000
0001
0010
0001
,  // measure 116
0010
0001
0100
1000
,  // measure 117
0100
1000
0001
0010
,  // measure 118
0001
0010
0100
1000
,  // measure 119
0010
0100
0001
0010
,  // measure 120
0100
1000
0001
1000
,  // measure 121
0010
0000
2002
0000
,  // measure 122
0000
3003
0000
0000
1000
0000
0010
0000
,  // measure 123
0100
0001
0010
0100
,  // measure 124
1000
0000
0000
0010
0000
0000
0100
0000
0000
0000
0001
0000
1000
0000
0001
0000
,  // measure 125
0000
1000
0010
1000
0000
0000
0000
0000
,  // measure 126
0010
1000
0010
0100
,  // measure 127
0010
0001
1001
0000
;
