#TITLE:白鳥の湖;
#SUBTITLE:;
#ARTIST:Swan Lake Orchestra;
#TITLETRANSLIT:Swan Lake;
#SUBTITLETRANSLIT:;
#ARTISTTRANSLIT:;
#CREDIT:;
#BANNER:bn.png;
#BACKGROUND:bg.png;
#LYRICSPATH:;
#CDTITLE:cdtitle.png;
#MUSIC:Swan Lake Orchestra.ogg;
#OFFSET:-0.129;
#SAMPLESTART:46.684;
#SAMPLELENGTH:12.000;
#SELECTABLE:YES;
#BPMS:0.000=180.000,81.000=220.000,181.000=110.000,195.000=220.000,266.500=300.002,299.000=150.001,307.000=187.982,313.000=250.002,328.500=90.002;
#STOPS:80.000=1.000
,266.500=0.841
;
#BGCHANGES:;

//---------------dance-single - ----------------
#NOTES:
     dance-single:
     :
     Hard:
     9:
     0.606,0.956,0.189,0.529,0.255:
0000
0000
0000
0000
,
0000
0000
0000
0000
,
0010
0000
0000
0000
0001
1000
0001
0010
,
0100
0000
0000
0100
1000
0000
0000
0100
,
1000
0000
0000
1000
0001
0100
1000
0100
,
0001
0000
0000
0000
0000
0001
0010
0100
,
1000
0000
0000
1000
0010
0100
0001
0010
,
0001
0000
0000
0001
0100
0000
0000
0100
,
0010
0000
0000
0100
0010
0010
1000
0001
,
1000
0000
0000
0100
,
0020
0000
0032
0000
0103
0000
0100
0010
,
2000
0000
0000
0010
3010
0000
0010
0100
,
0002
0000
0000
0010
0013
0000
0001
0010
,
0200
0000
0000
0310
0001
0100
1000
0100
,
0020
0000
2030
0000
3010
0000
0010
1000
,
0002
0000
0000
0010
0013
0000
0001
0100
,
2000
0000
0000
0100
3100
0000
0100
0010
,
2000
0000
0000
0010
3010
0000
0100
0001
,
2000
0000
3002
0000
,
0203
0320
2000
0000
,
3030
0000
0101
0000
0000
0000
0001
0100
,
0010
1000
0100
0000
0000
0100
0010
0000
,
0000
0010
0001
0000
0000
0001
1000
0100
,
0001
0100
0010
0000
0000
0000
0000
0010
,
0100
1000
0001
0000
0000
0000
0001
0100
,
0001
0010
0100
0000
0000
0100
1000
0000
,
0000
1000
0010
0000
0000
0010
0100
0001
,
0100
1000
0100
0000
0000
0000
0000
0000
,
0100
0010
1000
0001
,
1000
0100
0020
0000
0100
0000
0130
0000
,
0100
0010
0002
0000
0100
0000
0103
0000
,
0001
0100
0010
0000
0100
0010
1000
0001
,
0010
0100
1000
0000
0100
0000
0010
0000
,
0001
0100
0020
0000
1000
0000
1030
0000
,
1000
0010
0200
0000
0010
0000
0310
0000
,
0010
1000
0002
0000
0010
0000
0013
0000
,
0001
0100
0020
0000
1030
0001
0020
0000
,
0130
1000
2002
0000
0000
3003
0001
0100
,
0001
0010
0200
0000
0000
1300
0200
0000
,
0000
1300
0200
0000
0000
0310
0001
1000
,
0010
1000
0002
0000
0000
0000
0000
0103
,
0010
1000
2002
0000
0000
3003
0001
1000
,
1000
0100
2000
0000
0000
3010
0200
0000
,
0000
0310
2000
0000
0000
3010
1000
0001
,
0010
0100
2000
0000
0000
0000
0000
0000
,
3000
0000
0000
0000
0001
0000
0100
0000
0010
0000
1000
0010
0200
0000
0000
0010
,
0310
0000
0010
1000
0002
0000
0000
1000
1003
0000
1000
0100
0010
0000
0000
0010
,
1000
0010
0001
0010
1000
0000
0010
0000
0001
0000
1000
0010
0200
0000
0000
0001
,
0301
0000
0000
0000
0000
0000
0001
0000
0000
0100
0000
0000
0020
0000
0000
0000
0000
0000
0000
0000
0000
1000
0000
0000
1030
0000
0000
0000
0000
0000
1000
0000
0000
0001
0000
0000
1000
0000
0000
0000
0000
0000
0000
0000
0001
0000
0000
0000
,
0000
0100
0000
1000
0000
0100
0000
0010
0000
1000
0000
0001
,
0000
1000
0000
0001
0000
0010
0000
0100
0000
1000
0000
0100
,
0000
0010
0000
1000
0000
0010
0000
0100
0000
0010
0000
0001
,
0000
1000
0000
0001
0000
0100
0000
0010
0000
1000
0000
1000
,
0000
0010
0000
0010
0000
0100
0000
0100
0000
0010
0000
0000
,
0000
0000
0000
0110
0000
0000
0000
0000
0000
0010
0000
0010
,
0000
1000
0000
1000
0000
0001
0000
0001
0000
1001
0000
0000
,
0000
0000
0000
0101
0000
0000
0000
0000
0000
0001
0000
0100
,
0000
0001
0000
0100
0000
0010
0000
0100
0000
0002
0000
0000
,
0000
0000
0000
0000
0000
0000
0000
0013
0000
0010
0000
0100
,
0000
0010
0000
0001
0000
0010
0000
0100
0000
2000
0000
0000
,
0000
0000
0000
0000
0000
0000
0000
3100
0000
1000
0000
0000
,
0000
0100
0000
0010
0000
0000
0000
0010
0000
0001
0000
0000
,
0000
0001
0000
0010
0000
0000
0000
0001
0000
2000
0000
0000
,
3200
0320
0230
2300
,
3200
0302
0203
2300
,
3020
0230
0302
2000
,
0000
0000
3003
0001
,
0000
0000
0000
1000
,
0001
0100
0001
0100
,
0000
0000
0001
0100
,
0000
0000
0100
0010
,
1010
0000
0110
0000
,
1001
0000
1100
0000
,
0011
0000
0110
0000
,
1001
0000
0001
1000
,
0000
0000
1000
0100
1000
0010
0100
0000
,
0000
0010
1000
0000
0002
0000
0103
0000
,
0000
1010
0000
0000
0110
0000
0000
1001
,
0000
1000
0100
1000
,
0010
0100
0001
1000
,
0000
0000
0001
0100
0010
1000
0001
0010
,
0100
0010
0001
0010
0100
1000
0001
0100
,
0001
0000
0010
0000
0000
0000
0000
0000
0000
0000
0000
0000
0000
1001
0000
0000
,
0000
0000
0000
0000
0000
0000
0000
0000
0000
0000
0000
0000
0000
0000
0000
0000
0000
0000
0000
0000
0000
0000
0000
0000
0000
0000
0000
0000
0000
0000
0000
0000
0000
0000
0000
0000
0000
0000
0000
0000
1010
0000
0000
0000
0000
0000
0000
0000
0000
0000
0000
0000
0000
0000
0000
0000
0000
0000
0000
0000
0000
0000
0000
0000
0000
0000
0000
0000
0000
0000
0000
0000
0000
0000
0000
0000
0000
0000
0011
0000
0000
0000
0000
0000
0000
0000
0000
0000
0000
0000
0000
0000
0000
0000
0000
0000
0000
0000
0000
0000
0000
0000
0000
0000
0000
0000
0000
0000
0000
0000
0000
0000
0000
0000
0000
0000
0000
0000
0000
0000
2002
0000
0000
0000
0000
0000
0000
0000
0000
0000
0000
0000
0000
0000
0000
0000
0000
0000
0000
0000
0000
0000
0000
0000
0000
0000
0000
0000
0000
0000
0000
0000
0000
0000
0000
0000
0000
0000
0000
0000
0000
0000
0000
0000
0000
0000
0000
0000
0000
0000
0000
0000
0000
0000
0000
0000
0000
0000
0000
0000
0000
0000
0000
0000
0000
0000
0000
0000
0000
0000
0000
0000
,
0000
0000
0000
3003
0000
0000
0000
0000
;

//---------------dance-single - ----------------
#NOTES:
     dance-single:
     :
     Medium:
     7:
     0.440,0.478,0.387,0.123,0.014:
0000
0000
0000
0000
,
0000
0000
0000
0000
,
0001
0000
0000
0000
0001
0100
0010
0100
,
0001
0000
0000
0001
1000
0000
0000
0001
,
1000
0000
0000
1000
0100
0000
0010
0001
,
0010
0000
0000
0000
0000
0001
0010
0000
,
0001
0000
0001
0100
,
0010
0000
0000
0010
1000
0000
0000
0010
,
1000
0000
0000
1000
0010
0000
1000
0000
,
0001
0000
0000
0100
,
0010
0000
1000
0000
0001
0000
0010
0100
,
2000
0000
0000
0100
3100
0000
1000
0001
,
0200
0000
0000
0001
0301
0000
0001
0100
,
0020
0000
0000
0100
0130
0000
0010
0000
,
1000
0000
0001
0000
0010
0000
0100
1000
,
0020
0000
0000
0100
0130
0000
0010
1000
,
0002
0000
0000
0010
0013
0000
0001
1000
,
0010
0000
0000
1000
0010
0000
0100
0001
,
0010
0000
0200
0000
,
1300
0000
1001
0000
,
0000
1000
0000
0001
,
0100
0000
0010
0000
0000
0100
0010
0000
,
0000
0100
0010
0000
0000
0100
0010
0000
,
1000
0010
1000
0000
0000
0000
0000
0010
,
1000
0010
0000
1000
,
0001
0000
0010
0000
0000
0010
0100
0000
,
0000
0100
1000
0000
0000
0100
1000
0000
,
0010
0100
0010
0000
0000
0000
0000
0000
,
0010
1000
0001
0010
,
0100
1000
0100
0000
0000
1000
0100
0000
,
1000
0100
0010
0000
0000
0010
0001
0000
,
0001
0010
0100
0000
0000
0001
0100
0010
,
1000
0001
0100
0000
0010
0000
0100
0000
,
0010
1000
0010
0000
0000
0010
0100
0000
,
0010
1000
0001
0000
0000
0001
0010
0000
,
0001
0010
0100
0000
0000
0010
0100
0000
,
0100
1000
0010
0000
0000
0010
0100
0000
,
0000
0010
0100
0000
0000
0000
0010
0000
,
1000
0000
0001
0000
0000
0001
1000
0000
,
0000
0001
1000
0000
0000
0001
0100
0001
,
0100
0001
0100
0000
0000
0000
0000
0001
,
0100
0010
1000
0000
0000
0000
0010
0000
,
1000
1010
0000
0110
,
0000
0000
1001
0000
0000
0000
0001
0100
,
0010
1000
0020
0000
0000
0000
0000
0000
,
0030
1000
0100
1000
,
0010
0001
0010
0100
,
0001
1000
0100
1000
,
0010
0100
0001
1000
,
0000
1001
0000
0110
,
0000
0101
0000
1010
,
0000
1100
0000
0011
,
0000
0110
0000
1001
,
0000
0110
0000
1001
,
0010
1001
0000
0101
,
0000
1010
0000
1100
,
0100
0110
0000
0011
,
0000
1100
0000
0202
,
0000
0303
0000
0101
,
0000
1010
0000
0220
,
0000
0330
0000
0110
,
0000
1001
0000
0110
,
0000
1001
0000
0001
,
0100
1000
0100
0001
,
0010
1000
0010
0100
,
1000
0010
0001
0010
,
0000
0000
0000
0100
,
0000
0000
0000
0010
,
0000
1000
0000
0001
,
0000
0000
0001
1000
,
0000
0000
0001
1000
,
0000
0001
0000
0010
,
0000
0000
0000
0001
,
0000
0010
0000
0100
,
0000
1000
0000
0001
,
0000
0000
1000
0010
0100
0010
1000
0000
,
0000
1000
0001
0000
0000
0000
1001
0000
,
0000
0101
0000
0000
1010
0000
0000
0110
,
0000
1001
0000
1100
,
0000
0011
0000
0110
,
0000
0010
0001
0100
,
1000
0100
0010
1000
,
0001
0000
0000
0000
0000
0000
0000
0000
0000
0000
0000
0000
0000
1001
0000
0000
,
0000
0000
0000
0000
0000
0000
0000
0000
0000
0000
0000
0000
0000
0000
0000
0000
0000
0000
0000
0000
0000
0000
0000
0000
0000
0000
0000
0000
0000
0000
0000
0000
0000
0000
0000
0000
0000
0000
0000
0000
1010
0000
0000
0000
0000
0000
0000
0000
0000
0000
0000
0000
0000
0000
0000
0000
0000
0000
0000
0000
0000
0000
0000
0000
0000
0000
0000
0000
0000
0000
0000
0000
0000
0000
0000
0000
0000
0000
0011
0000
0000
0000
0000
0000
0000
0000
0000
0000
0000
0000
0000
0000
0000
0000
0000
0000
0000
0000
0000
0000
0000
0000
0000
0000
0000
0000
0000
0000
0000
0000
0000
0000
0000
0000
0000
0000
0000
0000
0000
0000
2002
0000
0000
0000
0000
0000
0000
0000
0000
0000
0000
0000
0000
0000
0000
0000
0000
0000
0000
0000
0000
0000
0000
0000
0000
0000
0000
0000
0000
0000
0000
0000
0000
0000
0000
0000
0000
0000
0000
0000
0000
0000
0000
0000
0000
0000
0000
0000
0000
0000
0000
0000
0000
0000
0000
0000
0000
0000
0000
0000
0000
0000
0000
0000
0000
0000
0000
0000
0000
0000
0000
0000
,
0000
0000
0000
3003
0000
0000
0000
0000
;

//---------------dance-single - ----------------
#NOTES:
     dance-single:
     :
     Easy:
     5:
     0.286,0.359,0.094,0.113,0.014:
0000
0000
0000
0000
,
0000
0000
0000
0000
,
0001
0000
1000
0000
,
0100
0000
1000
0000
,
0010
0000
0100
0100
,
0001
0000
0000
0000
,
0001
0000
1000
0000
,
0100
0000
1000
0000
,
0010
0000
0100
0100
,
0010
0000
0000
0100
,
0010
1000
0001
0010
,
0200
0000
0310
0100
,
2000
0000
3100
1000
,
0020
0000
0130
0010
,
1000
0001
0010
0001
,
0200
0000
0301
1000
,
0020
0000
0130
0010
,
2000
0000
3001
1000
,
0100
0000
1000
0000
,
0010
0000
0100
0000
,
0000
0010
0000
1000
,
0010
0100
0000
0100
,
0000
0100
0000
0100
,
0010
1000
0000
0000
,
0001
1000
0000
0001
,
1000
0010
0000
0010
,
0000
0010
0000
0100
,
0100
0001
0000
0000
,
1000
0100
0010
0100
,
1000
0010
0000
0100
,
0010
1000
0000
0010
,
0100
0001
0000
1000
,
0100
0010
0010
0100
,
1000
0001
0000
1000
,
0001
0100
0000
0001
,
0100
0010
0000
0100
,
0000
0010
0000
1000
,
0000
1001
0000
0001
,
1000
0100
0000
0100
,
0000
1000
0000
0010
,
0001
0100
0000
0000
,
0001
0100
0000
1000
,
0100
0010
0000
0010
,
0000
1000
0000
0001
,
0010
0200
0000
0000
,
0300
1000
0001
0100
,
0000
0001
0000
1000
,
0100
1000
0010
0010
,
0000
0100
0001
1000
,
0000
1000
0000
0001
,
0000
0001
0000
0101
,
0000
0101
0000
1100
,
0000
1100
0000
1000
,
0000
0010
0000
0110
,
0000
0110
0000
0010
,
0000
1000
0000
1100
,
0000
1100
0000
1000
,
0000
0010
0000
0200
,
0000
0300
0000
0010
,
0000
1000
0000
0002
,
0000
0003
0000
0001
,
0000
0001
0000
0001
,
0000
0001
0000
0001
,
0010
0100
1000
0001
,
0010
0100
1000
0001
,
0010
0100
1000
0100
,
0000
0000
0000
1000
,
0000
0000
0000
1000
,
0000
0001
0000
0100
,
0000
0000
0000
0100
,
0000
0000
0000
0001
,
0000
0010
0000
0100
,
0000
1000
0000
0100
,
0000
0010
0000
0001
,
0000
1000
0000
0001
,
0000
0000
0000
0000
,
0000
0000
0000
0001
,
0000
1000
0000
0000
0010
0000
0000
1000
,
0000
0100
0000
1000
,
0000
0010
0000
0100
,
0000
0002
0000
0000
,
0000
0000
0000
0000
,
0000
0000
0003
0000
0000
0000
0000
0000
0000
0000
0000
0000
0000
0000
0000
0001
,
0000
0000
0000
0000
0000
0000
0000
0000
0000
0000
0000
0000
0000
0000
0000
0000
0000
0000
0000
0000
0000
0000
0000
0000
0000
0000
0000
0000
0000
0000
0000
0000
0000
0000
0000
0000
0000
0000
0000
0000
0000
0000
0000
0000
0000
0000
0000
0000
0000
0000
0000
0000
0000
0000
0000
0000
0000
0000
0000
0000
0000
0000
0000
0000
1000
0000
0000
0000
0000
0000
0000
0000
0000
0000
0000
0000
0000
0000
0000
0000
0000
0000
0000
0000
0000
0000
0000
0000
0000
0000
0000
0000
0000
0000
0000
0000
0000
0000
0000
0000
0000
0000
0001
0000
0000
0000
0000
0000
0000
0000
0000
0000
0000
0000
0000
0000
0000
0000
0000
0000
0000
0000
0000
0000
0000
0000
0000
0000
0000
0000
0000
0000
0000
0000
0000
0000
0000
0000
0000
0000
0000
0000
0000
0000
2002
0000
0000
0000
0000
0000
0000
0000
0000
0000
0000
0000
0000
0000
0000
0000
0000
0000
0000
0000
0000
0000
0000
0000
0000
0000
0000
0000
0000
0000
0000
0000
0000
0000
0000
0000
0000
0000
0000
0000
0000
0000
0000
0000
0000
0000
0000
0000
,
0000
0000
3003
0000
;

//---------------dance-single - ----------------
#NOTES:
     dance-single:
     :
     Beginner:
     2:
     0.143,0.193,0.019,0.009,0.000:
0000
0000
0000
0000
,
0000
0000
0000
0000
,
0010
0000
0000
0000
,
1000
0000
1000
0000
,
1000
0000
0001
0000
,
0001
0000
0000
0000
,
1000
0000
0000
0000
,
0100
0000
0100
0000
,
0100
0000
0010
0000
,
0010
0000
0000
0000
,
0001
0000
0000
0000
,
1000
0000
0000
0000
,
0001
0000
0000
0000
,
0100
0000
0100
0000
,
0001
0000
0000
0000
,
1000
0000
0000
0000
,
0001
0000
0000
0000
,
0100
0000
0000
0000
,
0001
0000
1000
0000
,
0100
0000
0010
0000
,
0000
1000
0000
0000
,
0000
0001
0000
0001
,
0000
0001
0000
0000
,
0000
0100
0000
0000
,
0000
0010
0000
0000
,
0000
1000
0000
0001
,
0000
0100
0000
0010
,
0010
0010
0000
0000
,
0000
0100
0000
0000
,
0000
0010
0000
0000
,
0000
1000
0000
0000
,
0000
0001
0000
1000
,
0000
0010
0000
0000
,
0000
0100
0000
0000
,
0000
0010
0000
0000
,
0000
1000
0000
0000
,
0000
0001
0000
1000
,
0000
1001
0000
0000
,
0000
0010
0000
0010
,
0000
0100
0000
0010
,
0000
0100
0000
0000
,
0000
1001
0000
0000
,
0000
0001
0000
1000
,
0000
0001
0000
1000
,
1000
1000
0000
0000
,
0000
0001
0000
0000
,
0000
1000
0000
0010
,
0000
0100
0000
0000
,
0000
0100
0000
0010
,
0000
0000
0000
1000
,
0000
0000
0000
0001
,
0000
0000
0000
1000
,
0000
0000
0000
0100
,
0000
0000
0000
0010
,
0000
0010
0000
0100
,
0000
0000
0000
0100
,
0000
0100
0000
1000
,
0000
1000
0000
1000
,
0000
0000
0000
0001
,
0000
0001
0000
0001
,
0000
0000
0000
0100
,
0000
0001
0000
1000
,
0000
0010
0000
0200
,
0000
0000
0000
0000
,
0000
0000
0000
0000
,
0000
0000
0000
0000
,
0300
0000
0000
0010
,
0000
0000
0000
0000
,
0000
0000
0000
0100
,
0000
0000
0000
0100
,
0000
0000
0000
0100
,
0000
0100
0000
0100
,
0000
0000
0000
0010
,
0000
0010
0000
0010
,
0000
0000
0000
1000
,
0000
0000
0000
0000
,
0000
0000
0000
0001
,
0000
0000
0000
0000
,
0000
1000
0000
0000
,
0000
0000
0000
0000
,
0000
0010
0000
0100
,
0000
0001
0000
1000
;
