#TITLE:Song of Iriomote Island, Ryukyu;
#SUBTITLE:;
#ARTIST:Various;
#TITLETRANSLIT:;
#SUBTITLETRANSLIT:;
#ARTISTTRANSLIT:;
#CREDIT:;
#BANNER:bn.png;
#BACKGROUND:bg.png;
#LYRICSPATH:;
#CDTITLE:;
#MUSIC:RyukyuMusic.ogg;
#OFFSET:-0.009;
#SAMPLESTART:14.593;
#SAMPLELENGTH:12.000;
#SELECTABLE:YES;
#DISPLAYBPM:148.000:180.000;
#BPMS:0.000=148.000,0.000=111.000,0.500=222.000,1.000=111.000,1.500=222.000,2.000=111.000,2.500=222.000,3.000=111.000,3.500=222.000,4.000=111.000,4.500=222.000,5.000=111.000,5.500=222.000,6.000=111.000,6.500=222.000,7.000=111.000,7.500=222.000,8.000=111.000,8.500=222.000,9.000=111.000,9.500=222.000,10.000=111.000,10.500=222.000,11.000=111.000,11.500=222.000,12.000=111.000,12.500=222.000,13.000=111.000,13.500=222.000,14.000=111.000,14.500=222.000,15.000=111.000,15.500=222.000,16.000=111.000,16.500=222.000,17.000=111.000,17.500=222.000,18.000=111.000,18.500=222.000,19.000=111.000,19.500=222.000,20.000=111.000,20.500=222.000,21.000=111.000,21.500=222.000,22.000=111.000,22.500=222.000,23.000=111.000,23.500=222.000,24.000=111.000,24.500=222.000,25.000=111.000,25.500=222.000,26.000=111.000,26.500=222.000,27.000=111.000,27.500=222.000,28.000=111.000,28.500=222.000,29.000=111.000,29.500=222.000,30.000=111.000,30.500=222.000,31.000=111.000,31.500=222.000,32.000=111.000,32.500=222.000,33.000=111.000,33.500=222.000,34.000=111.000,34.500=222.000,35.000=111.000,35.500=222.000,36.000=111.000,36.500=222.000,37.000=111.000,37.500=222.000,38.000=111.000,38.500=222.000,39.000=111.000,39.500=222.000,40.000=111.000,40.500=222.000,41.000=111.000,41.500=222.000,42.000=111.000,42.500=222.000,43.000=111.000,43.500=222.000,44.000=111.000,44.500=222.000,45.000=111.000,45.500=222.000,46.000=111.000,46.500=222.000,47.000=111.000,47.500=222.000,48.000=111.000,48.500=222.000,49.000=111.000,49.500=222.000,50.000=111.000,50.500=222.000,51.000=111.000,51.500=222.000,52.000=111.000,52.500=222.000,53.000=111.000,53.500=222.000,54.000=111.000,54.500=222.000,55.000=111.000,55.500=222.000,56.000=111.000,56.500=222.000,57.000=111.000,57.500=222.000,58.000=111.000,58.500=222.000,59.000=111.000,59.500=222.000,60.000=111.000,60.500=222.000,61.000=111.000,61.500=222.000,62.000=111.000,62.500=222.000,63.000=111.000,63.500=222.000,64.000=111.000,64.500=222.000,65.000=111.000,65.500=222.000,66.000=111.000,66.500=222.000,67.000=111.000,67.500=222.000,68.000=111.000,68.500=222.000,69.000=111.000,69.500=222.000,70.000=111.000,70.500=222.000,71.000=111.000,71.500=222.000,72.000=111.000,72.500=222.000,73.000=111.000,73.500=222.000,74.000=111.000,74.500=222.000,75.000=111.000,75.500=222.000,76.000=111.000,76.500=222.000,77.000=111.000,77.500=222.000,78.000=111.000,78.500=222.000,79.000=111.000,79.500=222.000,80.000=111.000,80.500=222.000,81.000=111.000,81.500=222.000,82.000=111.000,82.500=222.000,83.000=111.000,83.500=222.000,84.000=111.000,84.500=222.000,85.000=111.000,85.500=222.000,86.000=111.000,86.500=222.000,87.000=111.000,87.500=222.000,88.000=111.000,88.500=222.000,89.000=111.000,89.500=222.000,90.000=111.000,90.500=222.000,91.000=111.000,91.500=222.000,92.000=111.000,92.500=222.000,93.000=111.000,93.500=222.000,94.000=111.000,94.500=222.000,95.000=111.000,95.500=222.000,96.000=111.000,96.500=222.000,97.000=111.000,97.500=222.000,98.000=111.000,98.500=222.000,99.000=111.000,99.500=222.000,100.000=111.000,100.500=222.000,101.000=111.000,101.500=222.000,102.000=111.000,102.500=222.000,103.000=111.000,103.500=222.000,104.000=111.000,104.500=222.000,105.000=111.000,105.500=222.000,106.000=111.000,106.500=222.000,107.000=111.000,107.500=222.000,108.000=111.000,108.500=222.000,109.000=111.000,109.500=222.000,110.000=111.000,110.500=222.000,111.000=111.000,111.500=222.000,112.000=111.000,112.500=222.000,113.000=111.000,113.500=222.000,114.000=111.000,114.500=222.000,115.000=111.000,115.500=222.000,116.000=111.000,116.500=222.000,117.000=111.000,117.500=222.000,118.000=111.000,118.500=222.000,119.000=111.000,119.500=222.000,120.000=111.000,120.500=222.000,121.000=111.000,121.500=222.000,122.000=111.000,122.500=222.000,123.000=111.000,123.500=222.000,124.000=111.000,124.500=222.000,125.000=111.000,125.500=222.000,126.000=111.000,126.500=222.000,127.000=111.000,127.500=222.000,128.000=111.000,128.500=222.000,129.000=111.000,129.500=222.000,130.000=111.000,130.500=222.000,131.000=111.000,131.500=222.000,132.000=111.000,132.500=222.000,133.000=111.000,133.500=222.000,134.000=111.000,134.500=222.000,135.000=111.000,135.500=222.000,136.000=111.000,136.500=222.000,137.000=111.000,137.500=222.000,138.000=111.000,138.500=222.000,139.000=111.000,139.500=222.000,140.000=111.000,140.500=222.000,141.000=111.000,141.500=222.000,142.000=111.000,142.500=222.000,143.000=111.000,143.500=222.000,144.000=111.000,144.500=222.000,145.000=111.000,145.500=222.000,146.000=111.000,146.500=222.000,147.000=111.000,147.500=222.000,148.000=111.000,148.500=222.000,149.000=111.000,149.500=222.000,150.000=111.000,150.500=222.000,151.000=111.000,151.500=222.000,152.000=111.000,152.500=222.000,153.000=111.000,153.500=222.000,154.000=111.000,154.500=222.000,155.000=111.000,155.500=222.000,156.000=111.000,156.500=222.000,157.000=111.000,157.500=222.000,158.000=111.000,158.500=222.000,159.000=111.000,159.500=222.000,160.000=111.000,160.500=222.000,161.000=111.000,161.500=222.000,162.000=111.000,162.500=222.000,163.000=111.000,163.500=222.000,164.000=111.000,164.500=222.000,165.000=111.000,165.500=222.000,166.000=111.000,166.500=222.000,167.000=111.000,167.500=222.000,168.000=123.000,168.500=246.000,169.000=123.000,169.500=246.000,170.000=123.000,170.500=246.000,171.000=123.000,171.500=246.000,172.000=123.000,172.500=246.000,173.000=123.000,173.500=246.000,174.000=135.000,174.500=270.000,175.000=135.000,175.500=270.000,176.000=135.000,176.500=270.000,177.000=135.000,177.500=270.000,178.000=135.000,178.500=270.000,179.000=135.000,179.500=270.000,180.000=135.000,180.500=270.000,181.000=135.000,181.500=270.000,182.000=135.000,182.500=270.000,183.000=135.000,183.500=270.000,184.000=135.000,184.500=270.000,185.000=135.000,185.500=270.000,186.000=135.000,186.500=270.000,187.000=135.000,187.500=270.000,188.000=135.000,188.500=270.000,189.000=135.000,189.500=270.000,190.000=135.000,190.500=270.000,191.000=135.000,191.500=270.000,192.000=135.000,192.500=270.000,193.000=135.000,193.500=270.000,194.000=135.000,194.500=270.000,195.000=135.000,195.500=270.000,196.000=135.000,196.500=270.000,197.000=135.000,197.500=270.000,198.000=135.000,198.500=270.000,199.000=135.000,199.500=270.000,200.000=135.000,200.500=270.000,201.000=135.000,201.500=270.000,202.000=135.000,202.500=270.000,203.000=135.000,203.500=270.000,204.000=135.000,204.500=270.000,205.000=135.000,205.500=270.000,206.000=135.000,206.500=270.000,207.000=135.000,207.500=270.000,208.000=135.000,208.500=270.000,209.000=135.000,209.500=270.000,210.000=180.000,212.000=135.000,212.500=270.000,213.000=135.000,213.500=270.000,214.000=135.000,214.500=270.000,215.000=135.000,215.500=270.000,216.000=180.000,218.000=135.000,218.500=270.000,219.000=135.000,219.500=270.000,220.000=135.000,220.500=270.000,221.000=135.000,221.500=270.000,222.000=180.000,224.000=135.000,224.500=270.000,225.000=135.000,225.500=270.000,226.000=135.000,226.500=270.000,227.000=135.000,227.500=270.000,228.000=180.000,230.000=135.000,230.500=270.000,231.000=135.000,231.500=270.000,232.000=135.000,232.500=270.000,233.000=135.000,233.500=270.000,234.000=135.000,234.500=270.000,235.000=135.000,235.500=270.000,236.000=135.000,236.500=270.000,237.000=135.000,237.500=270.000,238.000=135.000,238.500=270.000,239.000=135.000,239.500=270.000,240.000=135.000,240.500=270.000,241.000=135.000,241.500=270.000,242.000=135.000,242.500=270.000,243.000=135.000,243.500=270.000,244.000=135.000,244.500=270.000,245.000=90.000;
#STOPS:168.000=0.366
,169.000=0.366
;
#BGCHANGES:;

//---------------dance-single - Ama-tan----------------
#NOTES:
     dance-single:
     Ama-tan:
     Hard:
     10:
     0.645,0.772,0.343,0.564,0.045:
0000
0000
0000
0000
,
0000
0000
0000
0000
,
0000
0000
0000
0000
,
0000
0000
0000
0000
,
2200
3300
0000
0000
,
0202
0303
0000
0000
,
1100
0000
0101
0000
,
0001
0100
1000
0100
,
0001
0010
1000
0010
,
0001
0001
1000
1000
0020
0230
2300
3200
,
0310
0010
1000
1000
0002
0023
0032
0003
,
1000
1000
0001
0001
0010
0010
0100
0100
,
0020
0032
2003
3020
0230
0300
1001
0000
,
1000
1000
0001
0001
0020
0230
0302
0203
,
0310
0010
0001
0001
2000
3020
2030
3000
,
0001
0001
1000
1000
0010
0010
0100
0100
,
0002
0203
2300
3200
0320
0030
1001
0000
,
1000
0100
0010
0001
0100
0000
1001
0000
,
0001
0010
0100
1000
0001
0100
0010
0000
,
1000
0100
0010
0001
1000
0010
0100
0001
,
0010
0010
0010
1001
,
1100
0000
0101
0000
1100
1000
0001
0001
,
0100
0100
0010
0010
1000
0000
1000
0000
,
0011
0000
1010
0000
0011
0001
1000
1000
,
0100
0000
0100
0000
0010
0000
0010
0000
0001
0010
0100
0000
1000
0000
0000
0000
,
1100
0000
0101
0000
1100
1000
0010
0010
,
0100
0100
0001
0001
1000
0000
1000
0000
,
0011
0000
1010
0000
0011
0001
0100
0100
,
0002
0100
0100
1003
,
1000
0100
0001
0100
1000
0000
1001
0000
,
0001
0100
1000
0100
0001
0000
1001
1000
,
0010
0010
0000
0100
0010
0010
0000
1000
,
0010
0100
0010
1000
0010
0000
1001
0000
,
1000
0010
0001
0010
1000
0000
1001
1000
,
0001
0010
1000
0010
0001
0000
1001
0001
,
0010
0010
0000
0100
0010
0010
0000
0001
,
2001
0100
0100
3001
,
1000
0100
0010
0000
0001
0000
1000
0000
0010
0000
0010
0000
1000
0000
0000
0000
,
0001
0100
0010
0000
1000
0000
0001
0000
0100
0000
0100
0000
0001
0000
0000
0000
,
1000
0010
0100
0000
0001
0000
0100
0000
0001
0010
0100
0000
1000
0000
0010
0000
,
0200
0001
1000
0001
,
0310
0010
0010
MMMM
,
1001
0110
2001
0100
,
0100
0000
3001
0000
1000
1000
0001
0001
,
2000
3200
0302
0203
1300
1000
0001
0001
,
2000
3020
2030
3000
0001
0001
1000
1000
,
0100
0100
0010
0010
0200
2300
3002
0203
,
0320
0030
1001
0000
0001
0001
1000
1000
,
0002
0203
2300
3200
0301
0001
1000
1000
,
0002
0203
0302
0003
1000
1000
0001
0001
,
0100
0100
0010
0010
2000
3020
0032
0023
,
0230
0300
1001
0000
1000
1000
0010
0010
,
0100
0100
0001
0001
0100
0000
0100
0000
,
0001
0001
0010
0010
0100
0100
1000
1000
,
0001
0000
0100
0000
0010
0000
1000
0000
0000
0000
0000
0000
0001
0000
0000
0001
0000
0000
0100
0000
0000
0100
0000
0000
,
0010
0010
1000
1000
0100
0000
0100
0000
,
1000
1000
0100
0100
0010
0010
0001
0001
,
1000
0000
0010
0000
0100
0000
0001
0000
0000
0000
0000
0000
1000
0000
0000
0100
0000
0000
0010
0000
0000
0001
0000
0000
,
0100
0000
1001
0000
0001
0010
0100
1000
,
0001
1000
0100
0010
0001
0100
0010
1000
,
0001
0010
0100
1000
0010
0000
0110
0000
,
1001
MMMM
0000
0000
;

//---------------dance-single - Amararar----------------
#NOTES:
     dance-single:
     Amararar:
     Beginner:
     2:
     0.128,0.215,0.030,0.071,0.000:
0000
0000
0000
0000
,
0000
0000
0000
0000
,
0000
0000
0000
0000
,
0000
0000
0000
0000
,
1000
0000
0000
0000
,
0001
0000
0000
0000
,
1000
0000
0000
0000
,
2000
0000
0000
3000
,
0002
0000
0000
0003
,
1000
0000
0000
0000
,
0100
0000
0000
0000
,
0010
0000
0000
0000
,
0001
0000
0000
0000
,
1000
0000
0000
0000
,
0010
0000
0000
0000
,
0100
0000
0000
0000
,
0001
0000
0000
0000
,
1000
0000
1000
0000
,
0001
0000
0001
0000
,
1000
0000
0001
0000
,
0100
0000
0000
0000
,
0001
0000
0000
0000
,
0000
0000
1001
0000
,
0100
0000
0000
0000
,
0000
0000
0110
0000
,
1000
0000
0000
0000
,
0000
0000
1001
0000
,
0010
0000
0000
0000
,
0100
0100
0100
0000
,
0001
0000
0000
0000
,
1000
0000
0000
0000
,
0001
0000
0001
0000
,
0001
0001
0001
0000
,
0010
0000
0000
0000
,
0100
0000
0000
0000
,
0010
0000
0010
0000
,
0010
0010
0010
0000
,
1000
0000
0000
0000
,
0100
0000
0000
0000
,
0001
0000
0000
0000
,
0010
0000
0000
0000
,
1000
1000
1000
0000
,
0002
0000
0000
0000
,
0003
0000
1000
0000
,
0000
0000
0100
0000
,
0000
0000
0010
0000
,
0000
0000
0001
0000
,
0000
0000
1000
0000
,
0000
0000
0010
0000
,
0000
0000
0100
0000
,
0000
0000
0001
0000
,
0000
0000
1000
0000
,
1000
0000
2000
0000
,
3001
0000
0001
0000
,
0002
0000
0103
0000
,
0100
0000
0200
0000
,
0310
0000
0010
0000
,
0020
0000
1030
0000
,
0000
0000
0001
0000
,
0000
0000
0100
0000
,
0100
0000
0010
0010
,
0010
0000
0000
0000
;

//---------------dance-single - Ama----------------
#NOTES:
     dance-single:
     Ama:
     Medium:
     8:
     0.432,0.525,0.282,0.121,0.005:
0000
0000
0000
0000
,
0000
0000
0000
0000
,
0000
0000
0000
0000
,
0000
0000
0000
0000
,
0002
0003
0200
0300
,
0020
0030
0200
0300
,
0020
0230
0320
0230
,
0301
0010
0100
1000
,
0001
0100
0010
1000
,
0001
0100
1000
0100
,
0001
0100
1000
0100
,
0010
1000
0100
1000
,
0010
1000
0100
1001
,
1000
0100
0001
0100
,
1000
0100
0001
0100
,
0010
0001
0100
0001
,
0010
0001
0100
1001
,
1000
1000
0010
0010
0100
0000
1001
0000
,
0001
0001
0100
0100
0010
0010
0100
0100
,
0001
0010
0100
1000
0001
0010
0100
1000
,
0010
0010
0010
0000
,
1000
0100
0010
0001
,
0100
0010
1000
1000
,
0001
0010
0100
1000
,
0001
0001
0100
0100
0020
0000
1030
0000
,
0001
0100
0010
1000
,
0100
0010
0001
0001
,
1000
0010
0100
0001
,
1000
1000
0010
0010
0200
0000
0301
0000
,
1100
0101
1100
0010
,
0011
1010
0011
0001
,
1000
1000
0100
0100
,
1000
0001
0100
0100
,
0011
1010
0011
0100
,
1100
0101
1100
1000
,
0001
0001
0100
0100
,
1001
0110
1001
0110
,
1000
1000
0100
0100
0010
0001
0100
0010
,
1000
1000
0010
0010
0100
0001
0010
0000
,
0001
0001
0100
0100
0010
1000
0100
0010
,
0001
0001
1000
1000
0010
0010
0100
0100
,
0010
0010
0010
0000
,
0000
0000
0000
0000
0000
0000
0000
0000
0000
0000
0000
0000
0000
0000
0000
0000
0000
0000
0000
0000
0000
0000
0000
0000
0000
0000
0000
0000
0000
0000
0000
0000
0000
0000
0000
0000
0000
0000
0000
0000
0000
0000
0000
0000
0000
0000
0000
1001
0000
0000
0000
0000
0000
0000
0000
0000
0000
0000
0000
0000
0000
0000
0000
0000
0000
0000
0000
0000
0000
0000
0000
0000
0000
0000
0000
0000
0000
0000
0000
0000
0000
0000
0000
0000
0000
0000
0000
0000
0000
0000
0000
0000
0000
0000
0000
0000
1001
0000
0000
0000
0000
0000
0000
0000
0000
0000
0000
0000
0000
0000
0000
0000
0000
0000
0000
0000
0000
0000
0000
0000
0000
0000
0000
0000
0000
0000
0000
0000
0000
0000
0000
0000
0000
0000
0000
0000
0000
0000
0000
0000
0000
0000
0000
0000
0110
0000
0000
0000
0000
0000
0000
0000
0000
0000
0000
0000
0000
0000
0000
0000
0000
0000
0000
0000
0000
0000
0000
0000
0000
0000
0000
0000
0000
0000
0000
0000
0000
0000
0000
0000
0000
0000
0000
0000
0000
0000
0000
0000
0000
0000
0000
0000
,
1001
0110
1000
0100
,
0001
0100
1000
0100
,
0001
0100
0010
0001
,
0100
0001
0010
0001
,
0100
1001
0001
0100
,
1000
0100
0001
0100
,
1000
0100
0010
1000
,
0100
1000
0010
1000
,
0100
1001
0001
0100
,
1000
0100
0001
0001
,
1000
0100
0001
0100
,
2000
0000
3001
0010
,
1000
0100
0001
0001
,
1000
0010
0001
0100
,
2000
0000
0000
0000
3001
0001
0010
0010
,
0100
0000
1001
0000
1000
1000
0100
0100
,
0010
0010
0100
0100
1000
0010
0100
0001
,
1000
0010
0100
0001
0010
0000
0010
0000
,
0010
0110
0000
0000
;

//---------------dance-single - needs work----------------
#NOTES:
     dance-single:
     needs work:
     Easy:
     5:
     0.304,0.370,0.030,0.101,0.000:
0000
0000
0000
0000
,
0000
0000
0000
0000
,
0000
0000
0000
0000
,
0000
0000
0000
0000
,
1000
1000
1000
0000
,
0001
0001
0001
0000
,
0100
0100
0100
0100
,
0010
0010
0010
0010
,
1000
1000
0001
0001
,
1000
0100
1000
0000
,
0001
0100
0001
0000
,
0100
0010
0100
0010
,
1000
0010
1000
0000
,
0001
0010
0001
0000
,
1000
0010
1000
0000
,
0100
0010
0100
0010
,
0001
0010
0001
0000
,
1000
1000
1000
0000
,
0001
0001
0010
0010
,
0001
1000
0001
1000
,
0010
0010
0010
1001
,
1000
0100
0010
0001
,
0100
0010
0001
0000
,
0010
0100
0010
0100
,
0001
1000
0001
0000
,
1000
0010
0100
0001
,
0010
0100
0001
0000
,
0100
0010
0100
0010
,
0002
2003
3002
1003
,
1000
0100
1000
0010
,
1000
0100
0100
0000
,
0010
0000
0010
0000
,
0100
0100
0010
0000
,
0001
0100
0001
0010
,
0001
0010
0100
0100
,
0010
0100
0010
0100
,
2000
3002
2003
3001
,
1000
1000
1000
1000
,
0001
0001
0001
0001
,
1000
1000
0001
0001
,
0010
0100
0010
0100
,
0010
0010
0010
0000
,
2002
0000
0000
0000
,
3003
0000
0001
0100
,
0001
0000
1000
0100
,
1000
0000
0100
0010
,
0100
0010
0001
0010
,
0001
0000
1000
0010
,
1000
0000
0001
0010
,
0001
0000
0100
0010
,
0100
0010
1000
0010
,
1000
0000
0001
0010
,
0001
0000
1000
1000
,
0001
0100
0001
0000
,
1000
1000
1000
0010
,
1000
0000
0001
0001
,
1000
0100
1000
0000
,
0001
0001
1000
0100
,
0010
0002
1003
0010
,
0100
0002
1003
0100
,
1000
0100
0010
0010
,
0010
1001
0000
0000
;
