#TITLE:SPEED-HERO-RUN;
#SUBTITLE:;
#ARTIST:あまね+ビートまりお;
#TITLETRANSLIT:;
#SUBTITLETRANSLIT:;
#ARTISTTRANSLIT:AMANE + BEAT MARIO;
#GENRE:SPEED;
#CREDIT:Frozen_Heat/Azn_Punk_07/GuardianFrozen;
#MENUCOLOR:#02abf9;
#METERTYPE:DDR;
#BANNER:SPEED-HERO-RUN-bn big.png;
#BACKGROUND:SPEED-HERO-RUN-bg.png;
#LYRICSPATH:SPEED-HERO-RUN.lrc;
#CDTITLE:!cdtitle.png;
#MUSIC:SPEED-HERO-RUN.mp3;
#OFFSET:-0.105;
#SAMPLESTART:47.980;
#SAMPLELENGTH:21.333;
#SELECTABLE:YES;
#LISTSORT:;
#BPMS:0.000=180.000,224.000=45.000,232.000=90.000,256.000=180.000;
#STOPS:;
#BGCHANGES:;
#ATTACKS:;

//---------------dance-single - ----------------
#NOTES:
     dance-single:
     :
     Challenge:
     9:
     0.693,1.000,0.490,0.111,0.253: // measure 1
0000
0000
0000
0000
,  // measure 2
0000
0000
0000
0000
,  // measure 3
0000
0000
0000
0000
,  // measure 4
0000
0000
0000
0000
,  // measure 5
1000
0000
0010
0000
,  // measure 6
0100
0000
0000
0000
0001
0000
0000
0010
,  // measure 7
0100
0000
0000
0000
1000
0000
0000
1100
,  // measure 8
0000
0000
1010
0000
0000
0000
1001
0000
0000
0000
0001
1000
0001
0000
1000
0000
,  // measure 9
0100
0000
0010
0000
0001
1000
0000
0001
,  // measure 10
0100
0000
0010
0000
0000
0000
0100
0000
0000
0000
0010
1000
0010
0000
0100
0000
,  // measure 11
0001
0000
0010
0000
0001
0100
0000
0010
,  // measure 12
0000
1000
0100
0010
0001
1000
0010
1000
,  // measure 13
0100
0000
0000
0000
0010
0000
0000
0000
0001
0000
0100
0000
0000
0000
0001
0010
,  // measure 14
0001
0000
1000
0000
0000
0000
0010
0000
0000
0000
0100
0001
0100
0000
0001
0000
,  // measure 15
0010
0000
1100
0000
0010
0001
0000
0011
,  // measure 16
0000
0000
1000
0100
1000
0000
0000
0000
0001
0000
1000
0001
1000
0000
0001
1000
,  // measure 17
0001
0000
1000
0010
0100
0001
0000
1000
,  // measure 18
0100
0000
0010
0000
0100
0000
1000
0000
0000
0000
0010
0100
0010
0000
1000
0000
,  // measure 19
0001
0000
0010
0000
0001
1000
0000
0010
,  // measure 20
0000
0010
0100
0001
0100
0010
1000
0001
,  // measure 21
0010
0000
0100
1000
0100
0010
0100
0000
,  // measure 22
1000
0000
0001
0000
1000
0000
0010
0000
0000
0000
0100
0010
0100
0000
0001
0000
,  // measure 23
1001
0000
0010
0000
0100
0100
0000
0011
,  // measure 24
0000
1000
0010
0000
1010
0000
1100
0000
,  // measure 25
0001
0010
0100
1000
0001
0100
0010
1000
,  // measure 26
0000
0001
0100
0010
1000
0100
0010
0001
,  // measure 27
0000
1000
0100
0010
0001
1000
0010
0100
,  // measure 28
0001
0101
1000
1010
,  // measure 29
1001
0000
0100
0000
0010
1000
0100
1000
,  // measure 30
0000
0010
1000
0010
0100
0001
0010
0000
,  // measure 31
0001
0010
0001
0000
1000
0010
1000
0000
,  // measure 32
0001
0010
1000
0010
0001
0000
1001
0000
,  // measure 33
1000
0000
0100
0010
0100
1000
0100
0000
,  // measure 34
0010
0000
0001
0100
0010
0100
0001
0000
,  // measure 35
1000
0000
0001
0100
0010
1000
0001
1000
,  // measure 36
0000
0001
1000
1000
0001
0000
1001
0000
,  // measure 37
1020
0000
0030
0000
1000
0100
0000
0000
,  // measure 38
0021
0000
0030
0000
0001
0100
0000
0000
,  // measure 39
0102
0013
2100
3010
,  // measure 40
1001
0000
0110
0000
2002
0000
0000
3003
,  // measure 41
1000
0100
0010
0100
1000
0001
0100
0001
,  // measure 42
1000
0000
0010
0000
0001
0000
0010
0000
1000
0000
0100
1000
0100
0000
0010
0001
,  // measure 43
0010
0100
1000
0001
0100
0001
1000
0010
,  // measure 44
1000
0000
0001
0000
0100
0000
0010
0000
1000
0000
0001
0100
0001
0000
1000
0010
,  // measure 45
1000
0001
1000
0000
0001
0100
0001
0000
,  // measure 46
0011
0001
0010
0000
1100
1000
0100
0010
,  // measure 47
0001
0100
0101
0010
1000
0100
1100
0010
,  // measure 48
0011
0101
1010
1100
,  // measure 49
1001
0000
0001
0010
0100
0010
0001
1000
,  // measure 50
0010
0100
0010
1000
0100
1000
0001
0100
,  // measure 51
0001
0000
0101
1000
0010
0000
1010
0001
,  // measure 52
0010
0000
0110
0000
1001
0001
1000
0000
,  // measure 53
0010
0000
0010
1000
0000
1000
0001
0100
,  // measure 54
0000
0000
0100
0000
0010
0000
1000
0000
0001
1000
0001
1000
0001
1000
0001
0000
,  // measure 55
1000
0000
0001
0010
0000
0100
1000
0001
,  // measure 56
0000
0100
0010
1000
0001
0010
0100
0000
,  // measure 57
1000
0000
1000
0000
0010
0100
0000
0100
0000
0001
1000
0000
1000
0000
0001
0000
0100
0000
0001
0000
0010
0001
0000
0001
0000
1000
0010
0000
0010
0000
1000
0000
,  // measure 58
0100
0000
0010
0000
0001
0100
0000
0100
0000
0010
1000
0100
1000
0000
0100
0010
0001
0000
0100
0000
0001
0010
0000
0010
0000
0001
0100
0010
1000
0001
1000
0100
,  // measure 59
0010
0000
0001
1000
0001
0000
0100
0001
0100
0000
0010
1000
0010
1000
0100
0010
,  // measure 60
0001
0000
0010
0001
1000
0000
0010
1000
0001
0000
1000
0010
1000
0001
0100
0001
,  // measure 61
1000
1100
0001
0011
0100
0101
0010
1010
,  // measure 62
1002
0000
0013
0000
1000
0100
0010
0000
2001
0000
3010
0000
0001
0100
0010
0000
,  // measure 63
0102
0013
0101
0010
2100
3010
1100
0010
,  // measure 64
1002
0000
0000
0000
0103
0000
0000
0000
1001
0000
0000
0000
0100
0000
0000
0000
2001
0000
0000
0000
3100
0000
0010
0000
0001
0000
0000
0000
0010
0100
0010
0000
,  // measure 65
0001
1000
0100
1000
0001
0100
0010
0100
,  // measure 66
0001
0000
1000
0000
0010
0000
1000
0000
0001
0000
0010
0100
1000
0000
0001
0010
,  // measure 67
0100
1000
0010
1000
0001
0100
1000
0100
,  // measure 68
0010
0000
1000
0000
0100
0000
0010
0000
0001
0000
0100
0010
1000
0000
0001
0100
,  // measure 69
0010
1000
0100
0100
1000
0001
0100
0010
,  // measure 70
1010
0100
0001
0010
0011
0100
1000
0010
,  // measure 71
0100
0001
0101
0010
1000
0100
1100
0010
,  // measure 72
0011
1100
1001
0101
,  // measure 73
1010
0000
0001
0010
1000
0010
0100
0010
,  // measure 74
0001
1000
0010
1000
0001
0100
1000
0100
,  // measure 75
0010
1000
1001
0100
0010
0001
1001
0010
,  // measure 76
0110
0000
1010
0000
0101
1000
0001
0010
,  // measure 77
0100
1000
0100
0010
0000
0010
0001
1000
,  // measure 78
0000
1000
0001
0100
0010
1000
0001
0100
,  // measure 79
0010
1000
0100
0010
0000
0010
0100
1000
,  // measure 80
0000
0001
0100
0010
,  // measure 81
2002
0000
0000
0000
,  // measure 82
0000
0000
0000
0000
,  // measure 83
3003
0000
0000
0000
;

//---------------dance-single - ----------------
#NOTES:
     dance-single:
     :
     Hard:
     8:
     0.553,0.874,0.316,0.063,0.126: // measure 1
0000
0000
0000
0000
,  // measure 2
0000
0000
0000
0000
,  // measure 3
0000
0000
0000
0000
,  // measure 4
0000
0000
0000
0000
,  // measure 5
0001
0000
0000
0000
,  // measure 6
0000
0000
0000
0000
0000
0000
0000
0001
,  // measure 7
1000
0000
0000
0000
0000
0000
0000
1000
,  // measure 8
0000
1000
0000
0001
0000
0001
0010
0100
,  // measure 9
1000
0000
1100
0000
0010
0100
0000
1000
,  // measure 10
0100
1000
0000
0001
0000
0100
0010
0100
,  // measure 11
0001
0000
1000
0000
0001
0010
0000
0100
,  // measure 12
0000
0100
0010
0001
0100
0010
1000
0100
,  // measure 13
0010
0000
0001
0100
0001
1000
0000
0001
,  // measure 14
1000
0001
0000
0010
0000
0100
1000
0100
,  // measure 15
0010
0000
0001
0000
1000
0010
0000
0100
,  // measure 16
0000
1000
0100
0001
0100
0000
0110
0000
,  // measure 17
1001
0000
0001
0010
0100
0010
0000
0001
,  // measure 18
1000
0001
0000
0100
0000
0010
1000
0010
,  // measure 19
0100
0000
0001
0000
1000
0100
0000
0010
,  // measure 20
0000
0001
0100
0010
1000
0001
1000
0001
,  // measure 21
0100
0000
0001
0100
0010
0100
0000
0010
,  // measure 22
1000
0010
0000
0100
0000
0001
1000
0100
,  // measure 23
0010
0000
0110
0000
0001
1000
0000
1001
,  // measure 24
0000
0001
1000
0000
0101
0000
1100
0000
,  // measure 25
0000
0001
0100
0001
0100
0010
1000
0100
,  // measure 26
0000
1000
0100
1000
0100
0010
0001
1000
,  // measure 27
0000
0001
1000
0001
1000
0010
0100
0001
,  // measure 28
1000
1100
0001
0101
,  // measure 29
0010
0000
0100
0000
1000
0001
0000
1001
,  // measure 30
0000
0001
1000
0000
0010
0000
0100
0000
,  // measure 31
0001
0011
1000
1010
,  // measure 32
0101
1100
1001
0110
,  // measure 33
0100
0000
0001
0100
0001
0000
1000
0001
,  // measure 34
0000
0000
1000
0100
1000
0000
0001
1000
,  // measure 35
0000
0000
0001
0010
0100
0000
1000
0001
,  // measure 36
0000
0001
1000
0001
1000
0000
0010
0000
,  // measure 37
0110
0000
0000
0000
0001
0100
0000
0000
,  // measure 38
0110
0000
0000
0000
1000
0100
0000
0000
,  // measure 39
0001
0011
1000
1010
,  // measure 40
1001
0110
2002
3003
,  // measure 41
0001
0000
0101
0000
0010
0100
0001
0000
,  // measure 42
1000
0100
0010
0100
1000
0001
1000
0000
,  // measure 43
0010
1000
0010
0000
0100
0001
0100
0000
,  // measure 44
0001
0010
0100
0010
0001
1000
0001
0000
,  // measure 45
0100
0000
0010
1000
0100
1000
0000
0010
,  // measure 46
0000
0110
0000
0100
0001
0100
0000
0001
,  // measure 47
1000
1000
0000
0001
0010
0010
0000
0001
,  // measure 48
0100
0110
0001
1001
,  // measure 49
0010
0000
0100
1000
0100
0010
0100
0000
,  // measure 50
1000
0001
0100
0000
0010
0000
1000
0100
,  // measure 51
0010
0000
0001
0100
0010
0000
1000
0100
,  // measure 52
0010
0011
0110
0010
,  // measure 53
0001
0000
0001
0100
0000
0100
0010
0100
,  // measure 54
0000
0010
1000
0000
1000
0100
0010
0001
,  // measure 55
1000
0001
0100
0010
,  // measure 56
1000
0001
1000
0000
0010
0000
0000
0000
,  // measure 57
1000
0100
0010
0000
0010
0100
1000
0000
0001
0100
0010
0000
0010
0100
0001
0000
,  // measure 58
1000
0001
0100
0000
0100
0001
1000
0000
0001
0010
1000
0000
1000
0010
0001
0000
,  // measure 59
1000
0000
0010
0000
1000
0010
0000
0100
0000
0100
0001
1000
0001
0000
0010
0000
,  // measure 60
0001
0000
1000
0000
0001
0100
0000
0010
0000
0010
1000
0100
0010
0000
0001
0000
,  // measure 61
1000
0000
1100
0000
0010
0100
0000
0010
0000
0010
0001
1000
0001
0000
0100
0000
,  // measure 62
0002
0000
0010
0000
1003
0020
0000
0030
2000
0000
0010
0000
3001
0200
0000
0300
,  // measure 63
0001
0010
0001
0000
1000
0100
1000
0000
0010
1000
0010
0000
0100
0001
0100
0000
,  // measure 64
0001
0010
0100
1000
0001
0100
0010
1000
0001
1000
0001
1000
0001
0000
1000
0000
,  // measure 65
0001
0000
0011
0000
0100
0010
0000
0001
,  // measure 66
0000
1000
0010
0000
0100
0010
1000
0000
,  // measure 67
0100
0010
0100
0000
1000
0001
0000
0100
,  // measure 68
0000
0010
1000
0010
0100
0000
0001
0000
,  // measure 69
1000
0000
0100
0010
0001
0010
0100
0000
,  // measure 70
1000
0001
0000
1000
0010
1000
0000
0001
,  // measure 71
0100
0100
0000
0010
1000
1000
0000
0001
,  // measure 72
0010
0011
0100
1100
,  // measure 73
1001
0000
0001
0100
0010
0100
0001
1000
,  // measure 74
0000
1000
0100
0010
0001
0000
1000
0010
,  // measure 75
1010
0000
0001
0010
0011
0000
1000
0100
,  // measure 76
1100
0101
1001
0100
,  // measure 77
0001
0100
0010
1000
0000
1000
0100
1000
,  // measure 78
0000
0100
0010
0001
0010
0100
1000
0000
,  // measure 79
0001
0100
0010
1000
0000
0010
0100
0001
,  // measure 80
0000
1000
0001
0000
0010
0000
0100
0000
,  // measure 81
2002
0000
0000
0000
,  // measure 82
0000
0000
0000
0000
,  // measure 83
3003
0000
0000
0000
;

//---------------dance-single - ----------------
#NOTES:
     dance-single:
     :
     Medium:
     6:
     0.450,0.680,0.229,0.174,0.016: // measure 1
0000
0000
0000
0000
,  // measure 2
0000
0000
0000
0000
,  // measure 3
0000
0000
0000
0000
,  // measure 4
0000
0000
0000
0000
,  // measure 5
1000
0000
0000
0000
,  // measure 6
0000
0000
0000
0000
,  // measure 7
0001
0000
0000
0000
0000
0000
0000
0100
,  // measure 8
0000
0100
0000
0100
0000
0000
0000
0000
,  // measure 9
0010
1000
0100
0010
,  // measure 10
0001
1000
0000
1000
0000
0000
0000
0000
,  // measure 11
0010
0000
0100
0000
0001
0100
0000
0100
,  // measure 12
0000
0010
1000
0100
,  // measure 13
0010
0001
1000
0010
,  // measure 14
0100
0001
0000
0001
0000
0000
0000
0000
,  // measure 15
1000
0000
0001
0000
0100
0010
0000
0010
,  // measure 16
0000
1000
0100
0010
,  // measure 17
0001
1000
0010
0100
,  // measure 18
0001
1000
0000
1000
0000
0000
0000
0000
,  // measure 19
0100
0000
0010
0000
0001
0100
0000
0100
,  // measure 20
0000
0010
0100
0001
,  // measure 21
1000
0100
0010
0001
,  // measure 22
1000
0001
0000
0001
0000
0000
0100
0000
,  // measure 23
0001
0000
1000
0000
0010
0000
0010
0100
,  // measure 24
0000
0100
0010
0000
1000
0000
1000
0000
,  // measure 25
0001
0000
0100
0001
0100
0000
0001
0100
,  // measure 26
0001
0000
1000
0100
1000
0000
0100
1000
,  // measure 27
0100
0000
0010
0000
0001
1000
0001
0000
,  // measure 28
1000
1000
0001
0001
,  // measure 29
0100
0000
0010
0000
1000
0100
0000
0100
,  // measure 30
0000
0100
1000
0000
0001
0010
0100
0000
,  // measure 31
1000
1000
0001
0001
,  // measure 32
0100
0110
0010
0110
,  // measure 33
0000
0000
0001
0000
1000
0000
0001
0100
,  // measure 34
0000
0100
0010
0000
1000
0000
0100
0010
,  // measure 35
0000
0010
0001
0000
0100
0000
0001
1000
,  // measure 36
0000
1000
0001
1000
0001
0000
0100
0000
,  // measure 37
0010
0000
0000
0000
1000
1000
0000
0000
,  // measure 38
0110
0000
0000
0000
0001
0001
0000
0000
,  // measure 39
0100
0100
0010
0010
,  // measure 40
1000
0001
1001
0000
,  // measure 41
0001
0011
0100
0101
,  // measure 42
0010
1000
0010
0000
1010
0000
0000
0000
,  // measure 43
0001
1000
0001
0000
1000
0100
1000
0000
,  // measure 44
0010
1000
0100
1000
0010
0000
0010
0000
,  // measure 45
0200
0001
0010
1300
,  // measure 46
0002
0010
2003
0100
,  // measure 47
3010
0200
0301
0020
,  // measure 48
0230
2300
3002
0203
,  // measure 49
0320
0000
1030
0100
1000
0100
0010
0000
,  // measure 50
0001
0010
0001
0000
1000
0000
0001
0000
,  // measure 51
0100
0110
1000
0110
,  // measure 52
0001
1001
0110
1001
,  // measure 53
0100
0000
0100
0001
0000
0001
0000
1000
,  // measure 54
0000
1000
0000
0000
0001
1000
0001
0000
,  // measure 55
1000
0100
0010
0001
,  // measure 56
0100
0110
0010
0110
,  // measure 57
1000
0000
0100
0000
1000
0100
0010
0000
0001
0000
0100
0000
0001
0010
0100
0000
,  // measure 58
1000
0000
0001
0000
1000
0001
0100
0000
0001
0000
1000
0000
0001
1000
0010
0000
,  // measure 59
1000
0100
0010
0001
1000
0001
0100
0010
,  // measure 60
1000
0100
0001
0100
0010
0100
1000
0001
,  // measure 61
0100
0110
0000
1001
0000
0110
0000
1001
,  // measure 62
0010
0100
0000
1001
0100
0010
0000
1001
,  // measure 63
0010
0010
0010
0010
0100
0100
0100
0100
,  // measure 64
1000
1000
1000
1000
0001
0001
0001
0000
,  // measure 65
1000
1100
0010
1010
,  // measure 66
0100
0001
0100
0000
0101
0000
0000
0000
,  // measure 67
1000
0001
1000
0000
0001
0010
0001
0000
,  // measure 68
0100
0001
0010
0001
0100
0000
0100
0000
,  // measure 69
0020
1000
0100
0031
,  // measure 70
2000
0100
3002
0010
,  // measure 71
0103
0020
1030
0200
,  // measure 72
0320
0032
2003
3020
,  // measure 73
0230
0000
0301
0010
0001
0010
0100
0000
,  // measure 74
1000
0100
1000
0000
0001
0000
1000
0000
,  // measure 75
0010
0110
0001
0110
,  // measure 76
1000
1001
0110
1001
,  // measure 77
0010
0000
0010
1000
0000
1000
0000
0001
,  // measure 78
0000
0001
0100
0000
0100
0010
1000
0000
,  // measure 79
1000
0100
0000
0100
0000
0100
0010
0001
,  // measure 80
0000
0001
1000
0000
0010
0000
0100
0000
,  // measure 81
2002
0000
0000
0000
,  // measure 82
0000
0000
0000
0000
,  // measure 83
3003
0000
0000
0000
;

//---------------dance-single - ----------------
#NOTES:
     dance-single:
     :
     Beginner:
     2:
     0.106,0.158,0.008,0.000,0.000: // measure 1
0000
0000
0000
0000
,  // measure 2
0000
0000
0000
0000
,  // measure 3
0000
0000
0000
0000
,  // measure 4
0000
0000
0000
0000
,  // measure 5
0000
0000
0000
0000
,  // measure 6
0000
0000
0000
0000
,  // measure 7
0000
0000
0000
0000
,  // measure 8
0000
0000
0000
0000
,  // measure 9
1000
0000
0000
0000
,  // measure 10
0000
0000
0000
0000
,  // measure 11
0001
0000
0000
0000
,  // measure 12
0100
0000
0000
0000
,  // measure 13
0010
0000
0000
0000
,  // measure 14
0000
0000
0000
0000
,  // measure 15
1000
0000
0000
0000
,  // measure 16
0001
0000
0000
0000
,  // measure 17
0010
0000
0000
0000
,  // measure 18
0000
0000
0000
0000
,  // measure 19
0100
0000
0000
0000
,  // measure 20
1000
0000
0000
0000
,  // measure 21
0001
0000
0000
0000
,  // measure 22
0000
0000
0000
0000
,  // measure 23
0100
0000
0000
0000
,  // measure 24
0010
0000
0000
0000
,  // measure 25
1000
0000
1000
0000
,  // measure 26
1000
0000
0000
0000
,  // measure 27
0001
0000
0001
0000
,  // measure 28
0001
0000
0000
0000
,  // measure 29
0010
0000
0000
0000
,  // measure 30
0100
0000
0000
0000
,  // measure 31
0010
0000
0010
0000
,  // measure 32
0010
0000
0000
0000
,  // measure 33
0100
0000
0000
0000
,  // measure 34
1000
0000
0000
0000
,  // measure 35
0001
0000
0000
0000
,  // measure 36
0100
0000
0001
0000
,  // measure 37
0001
0000
0000
0000
,  // measure 38
1000
0000
0000
0000
,  // measure 39
0001
0000
1000
0000
,  // measure 40
0001
0000
1000
0000
,  // measure 41
0100
0000
0000
0000
,  // measure 42
0010
0000
0000
0000
,  // measure 43
0001
0000
0000
0000
,  // measure 44
1000
0000
0001
0000
,  // measure 45
1000
0000
0000
0000
,  // measure 46
0010
0000
0000
0000
,  // measure 47
0100
0000
0010
0000
,  // measure 48
0100
0000
0010
0000
,  // measure 49
0100
0000
0000
0000
,  // measure 50
0001
0000
0000
0000
,  // measure 51
1000
0000
0001
0000
,  // measure 52
1000
0000
0001
0000
,  // measure 53
0010
0000
0000
0000
,  // measure 54
0100
0000
0000
0000
,  // measure 55
0010
0000
0000
0000
,  // measure 56
0000
0000
0000
0000
,  // measure 57
0100
0000
0100
0000
,  // measure 58
0010
0000
0010
0000
,  // measure 59
0001
0000
0001
0000
,  // measure 60
1000
0000
1000
0000
,  // measure 61
0010
0000
0010
0000
,  // measure 62
0100
0000
0100
0000
,  // measure 63
0001
0000
1000
0000
,  // measure 64
0001
0000
1000
0000
,  // measure 65
0001
0000
0001
0000
,  // measure 66
0001
0000
0000
0000
,  // measure 67
1000
0000
1000
0000
,  // measure 68
1000
0000
0000
0000
,  // measure 69
0010
0000
0000
0000
,  // measure 70
0100
0000
0000
0000
,  // measure 71
0010
0000
0010
0000
,  // measure 72
0100
0000
0100
0000
,  // measure 73
0001
0000
0000
0000
,  // measure 74
1000
0000
0000
0000
,  // measure 75
0100
0000
0100
0000
,  // measure 76
0010
0000
0010
0000
,  // measure 77
0001
0000
0000
0000
,  // measure 78
1000
0000
0000
0000
,  // measure 79
0010
0000
0000
0000
,  // measure 80
0100
0000
0000
0000
,  // measure 81
1001
0000
0000
0000
;

//---------------dance-single - ----------------
#NOTES:
     dance-single:
     :
     Easy:
     4:
     0.297,0.411,0.182,0.000,0.000: // measure 1
0000
0000
0000
0000
,  // measure 2
0000
0000
0000
0000
,  // measure 3
0000
0000
0000
0000
,  // measure 4
0000
0000
0000
0000
,  // measure 5
0000
0000
0000
0000
,  // measure 6
0000
0000
0000
0000
,  // measure 7
0000
0000
0000
0000
,  // measure 8
0000
0000
0000
0000
,  // measure 9
1000
0100
0010
0000
,  // measure 10
0001
0000
1000
0000
,  // measure 11
0001
0100
0010
0000
,  // measure 12
1000
0000
0001
1000
,  // measure 13
0001
0010
0100
0000
,  // measure 14
0010
0000
0001
0000
,  // measure 15
1000
0010
0100
0000
,  // measure 16
0010
0010
0100
0100
,  // measure 17
0001
1000
0100
0000
,  // measure 18
0010
0001
0010
0000
,  // measure 19
0100
1000
0001
0000
,  // measure 20
0100
0010
0100
0010
,  // measure 21
1000
0100
0010
0000
,  // measure 22
0001
1000
0100
0000
,  // measure 23
1000
0010
0100
0001
,  // measure 24
1000
0001
1001
1001
,  // measure 25
0000
0001
0100
1000
,  // measure 26
0100
0001
0010
1000
,  // measure 27
0010
0001
0100
1000
,  // measure 28
0100
0100
0010
0010
,  // measure 29
1000
0000
0001
1000
,  // measure 30
0100
0010
0001
1000
,  // measure 31
0010
0110
0100
0110
,  // measure 32
0001
0001
1000
1000
,  // measure 33
0000
0001
0010
1000
,  // measure 34
0010
0001
0100
1000
,  // measure 35
0100
0001
0010
1000
,  // measure 36
0010
0100
0110
0000
,  // measure 37
1000
0000
0100
0000
,  // measure 38
0001
0000
0100
0000
,  // measure 39
1000
0010
0001
0010
,  // measure 40
1000
0010
0001
0000
,  // measure 41
1000
0000
0100
0000
,  // measure 42
0001
0100
1000
0000
,  // measure 43
0001
0010
1000
0000
,  // measure 44
1000
0010
0001
0100
,  // measure 45
0010
0000
0110
0000
,  // measure 46
1000
0000
1001
0000
,  // measure 47
0001
0001
1000
1000
,  // measure 48
0010
0100
0001
1000
,  // measure 49
0100
0000
0010
0000
,  // measure 50
0001
0000
0100
0000
,  // measure 51
0010
0010
0100
0100
,  // measure 52
0001
1001
1000
1001
,  // measure 53
0001
1000
0001
0000
,  // measure 54
0100
0010
0100
0000
,  // measure 55
0001
0010
0100
1000
,  // measure 56
0001
1000
0010
0000
,  // measure 57
0100
0001
1000
0100
,  // measure 58
0010
0001
1000
0010
,  // measure 59
0100
0001
1000
0001
,  // measure 60
0010
0100
0010
0001
,  // measure 61
1000
1010
0001
0011
,  // measure 62
1000
1000
0001
0001
,  // measure 63
0100
0110
0010
0110
,  // measure 64
0001
1001
1000
1001
,  // measure 65
0001
0001
1000
0000
,  // measure 66
0010
0010
0100
0000
,  // measure 67
0001
1000
0100
1000
,  // measure 68
0001
0100
0010
0010
,  // measure 69
0000
1000
0001
0000
,  // measure 70
0100
0000
0010
1000
,  // measure 71
0001
0011
0000
1010
,  // measure 72
0001
0101
1000
1100
,  // measure 73
0000
1000
0100
0010
,  // measure 74
0100
1000
0001
0100
,  // measure 75
0010
0100
0001
0100
,  // measure 76
0110
0110
0110
0000
,  // measure 77
0001
0000
1000
0000
,  // measure 78
0001
0010
1000
0010
,  // measure 79
0001
0000
1000
0010
,  // measure 80
0001
0010
1000
0100
,  // measure 81
1001
0000
0000
0000
;
