#TITLE:SOME NIGHTS;
#SUBTITLE:;
#ARTIST:fun.;
#TITLETRANSLIT:;
#SUBTITLETRANSLIT:;
#ARTISTTRANSLIT:;
#GENRE:;
#CREDIT:;
#BANNER:SomeNights-banner.png;
#BACKGROUND:SomeNights-bg.png;
#LYRICSPATH:Some Nights.lrc;
#CDTITLE:;
#MUSIC:Some Nights.mp3;
#OFFSET:-0.040;
#SAMPLESTART:91.540;
#SAMPLELENGTH:12.000;
#SELECTABLE:YES;
#BPMS:0.000=54.000
,28.500=27.000
,29.500=108.000
,98.000=54.000
,112.000=108.000
,180.000=54.000
;
#STOPS:29.500=1.944
;
#BGCHANGES:;
#KEYSOUNDS:;
#ATTACKS:;

//---------------dance-single - Rygon----------------
#NOTES:
     dance-single:
     :
     Hard:
     7:
     0.347,0.339,0.280,0.310,0.199,249.000,38.000,42.000,0.000,0.000,0.000,0.347,0.339,0.280,0.310,0.199,249.000,38.000,42.000,0.000,0.000,0.000:
0000
0000
0000
0000
,
0000
0000
0000
0000
,
0000
0000
0000
0000
,
0000
0000
0000
0000
,
0000
0000
0020
0000
0000
2030
0000
0000
0100
0000
3200
0000
0000
0320
0000
0000
,
0001
0000
0032
0000
0000
2000
0000
0000
3003
0000
1001
0000
0000
0110
0000
0000
,
0020
0000
2030
0000
0000
3002
0000
0000
0010
0000
0023
0000
0000
0230
0000
0000
,
0000
0000
0000
0000
2300
0000
0000
0000
0000
0000
0000
0000
0002
3003
0000
0000
1001
0000
0000
0000
0000
0000
1000
0000
0100
0000
0000
0000
0010
0000
0000
0000
,
0001
0000
1000
0000
0010
0000
0000
0000
0110
0000
0000
0010
0100
0000
0001
0000
,
1000
0000
0100
0000
1000
0000
0000
0000
1001
0000
0000
0001
0100
0000
0010
0000
,
1000
0000
0001
0000
0010
0000
0000
0000
0110
0000
0000
0100
2000
0000
0000
0000
,
3002
0000
0000
0000
1003
0000
0000
0000
1010
0000
0000
0010
0100
0000
0001
0000
,
0010
0000
1000
0000
0010
0000
0000
0000
0011
0000
0000
0001
0100
0000
0010
0000
,
0001
0000
0010
0000
1000
0000
0000
0000
1100
0000
0000
0100
0001
0000
0100
0000
,
1000
0001
0100
0000
0201
0000
0320
0000
,
2030
0000
0000
0000
3002
0000
0000
0000
1003
0000
0000
1000
0100
0000
0000
0000
,
0010
0000
0001
0000
1001
0000
0000
0000
1000
0000
0010
0100
0000
0001
0000
0000
,
0001
1000
0000
1000
0001
0000
0000
0000
1001
0000
0000
0001
0000
0010
0000
0100
,
1000
0000
0000
1000
0010
0000
0010
0000
0210
0000
0000
0000
0302
0000
0000
0000
,
0023
0000
0000
0000
0230
0000
0000
0000
1300
0000
0000
0100
0010
0000
0000
0001
,
0100
0000
0010
0000
1010
0000
0000
0000
0100
0000
0001
1000
0000
0001
0000
0000
,
1000
0000
0100
0000
0001
0000
0100
0000
1000
0000
0000
0010
0000
0010
0100
0000
,
0001
0000
1000
0000
0100
0000
0010
0000
0001
0010
0000
0010
0001
0000
0000
0001
,
1000
0010
0100
0000
0101
0000
0110
0000
,
1010
0000
0000
0000
1001
0000
0000
0000
0200
0000
0000
0310
0000
0000
1001
0000
,
0002
0000
0000
1003
0000
0000
1100
0000
0020
0000
0000
0032
0000
0000
0103
0000
,
0110
0000
0000
1001
0000
0000
0010
0100
0000
2000
0000
0000
3001
0000
0000
0000
,
0110
0000
0000
0000
0000
0000
1001
0000
0000
0000
0000
0000
1000
0000
0000
0000
0100
0000
0000
0010
0000
0000
0001
0000
0000
0000
0000
0000
0100
0000
0000
0000
,
0010
0010
0010
0010
,
0110
0000
0000
0010
0100
0000
0001
0000
1000
0000
0100
0000
0001
0000
0100
0000
,
1000
0000
0020
0100
0030
0100
0001
1000
,
0001
0010
0100
1000
0010
0000
1010
2000
,
0000
0002
3000
0000
1000
0000
1003
0000
,
1001
0000
0000
1000
0100
0000
0001
0000
0100
0000
0010
0000
0001
0000
0100
0000
,
0010
0000
0000
1010
0000
0000
2002
0000
0000
0003
0000
3000
0000
0001
1000
0000
,
0010
0100
1000
0100
0001
0000
0020
0000
,
0230
0000
0000
0000
2300
0000
0000
0000
3020
0000
0000
0000
0130
0010
0000
0000
,
1000
0000
0000
0100
0000
0000
0012
0000
0000
0000
0000
0000
0103
0000
0010
0000
,
1000
0000
0000
0001
0000
0000
0110
0000
0000
0000
1001
0000
1000
0000
0001
0000
,
0010
0000
0000
0100
0000
0000
2100
0000
0000
0000
0000
0000
3010
1000
0000
0000
,
1100
0000
0000
0010
0000
0000
0012
0000
0000
0000
0000
0000
1003
0000
0000
0000
,
0001
0100
0010
1000
0100
0000
0120
0000
,
0000
0031
0100
0010
1000
0000
1100
0000
,
1001
0001
0100
0010
,
1000
0000
0000
1000
0100
0000
0000
0100
0010
0000
0001
0000
0100
0010
0000
0010
,
0200
0000
0000
0000
,
0300
0000
0000
0000
;

//---------------dance-double - Rygon----------------
#NOTES:
     dance-double:
     Rygon:
     Hard:
     8:
     0.415,0.509,0.265,0.236,0.358,326.000,36.000,32.000,0.000,0.000,0.000,0.415,0.509,0.265,0.236,0.358,326.000,36.000,32.000,0.000,0.000,0.000:
00000000
00000000
00000000
00000000
,
00000000
00000000
00000000
00000000
,
00000000
00000000
00000000
00000000
,
00000000
00000000
00000000
00000000
,
00000000
00000000
00200000
00000000
00000000
02300000
00000000
00000000
03010000
00000000
00200000
00000000
00000000
00302000
00000000
00000000
,
00013000
00000000
00000000
00000000
00000200
00000000
00000000
00000000
00000000
00000000
00000320
00000000
00000000
00000000
00000000
00000000
00000031
00000000
00000000
00000000
00000101
00000000
00000000
00000010
00000000
00000000
00001001
00000000
00000000
00000000
00000000
00000000
,
00000001
00001000
00000200
00000000
00000000
00000310
00000000
00000000
00000100
00010000
00002000
00000000
00000000
00103000
00000000
00000000
,
01000000
00000000
00000000
00000000
20000000
00000000
00000000
00000000
00000000
00000000
00000000
00000000
02000000
33000000
00000000
00000000
11000000
00000000
00000000
00000000
00000000
00000000
00100000
00000000
00010000
00000000
00000000
00000000
01000000
00000000
00000000
00000000
,
00001000
00000000
00000010
00000000
00000001
00000000
00000000
00000000
00000101
00000000
00000000
00000010
00001000
00000000
00000100
00000000
,
00010000
00000000
00100000
00000000
10000000
00000000
00000000
00000000
10100000
00000000
00000000
01000000
00010000
00000000
00100000
00000000
,
00001000
00000000
00000100
00000000
00000001
00000000
00000000
00000000
00000011
00000000
00000000
00001000
00000001
00000000
00000000
00010000
,
00001000
00000000
00000000
10000000
00010000
00000000
10000000
00000000
11000000
00000000
00000000
00100000
00010000
00000000
01000000
00000000
,
00001000
00000000
00000100
00000000
00000001
00000000
00000000
00000000
00000101
00000000
00000000
00000010
00001000
00000000
00000100
00000000
,
00010000
00000000
01000000
00000000
10000000
00000000
00000000
00000000
10100000
00000000
00000000
01000000
00010000
00000000
00100000
00000000
,
00001000
00000000
00000100
00000000
00000001
00000000
00000000
00000000
00000110
00000000
00000000
00010000
00001000
00000000
00000000
00100000
,
01000000
00000000
00000000
10000000
00010000
00000000
01000000
00000000
00001000
00010000
00000000
00001000
00100000
00000000
00010000
00000000
,
00000010
00000000
00000100
00000000
00001200
00000000
00000000
00000000
00010300
00000000
00001000
01000000
00000000
00100000
00000000
00010000
,
00100000
00000000
00000000
10000000
01000000
00000000
00000000
00000000
00110000
00000000
00100000
00001000
00000000
00000010
00000000
00000100
,
00001000
00000000
00000000
00000010
00000001
00000000
00000010
00000000
00001010
00000000
00000000
00001000
00000100
00000000
00000000
00010000
,
01000000
00000000
00000000
10000000
00100000
00000000
00000000
00000000
01010000
00000000
00000000
01000000
00100000
00000000
00010000
00000000
,
10000000
00000000
01000000
00000000
00002000
00000000
00000000
00000000
00013000
00000000
00000100
00000010
00000000
00000001
00000000
00001000
,
00000010
00000000
00000000
00000001
00000010
00000000
00001000
00000000
00001100
00000000
00000100
00010000
00000000
01000000
00000000
00100000
,
00010000
00000000
00000000
00010000
01000000
00000000
00001000
00000000
00010000
00001000
00010000
00001000
00010000
00000000
00000000
00001000
,
00100000
00000000
00010000
00000000
01000000
00000000
10000000
00000000
01000000
00000000
00010000
00100000
00001000
00000000
00010000
00000100
,
00001000
00000000
00000000
00000000
00000100
00000000
00010000
00000000
00001000
00000000
00000000
00000000
00100000
00000000
00010000
00000000
02000000
00000000
00000000
00000000
00000000
00000000
03100000
00000000
00000000
00000000
00000000
00000000
10000000
00000000
00010000
10000000
,
00020000
00000000
00000000
00000000
00000000
00000000
00130000
00000000
00000000
00000000
00100000
00001000
00100000
00000000
00001000
00000000
00020000
00000000
00000000
00000000
00000000
00000000
00030010
00000000
00000000
00000000
00000000
00000000
00000100
00000000
00000010
00001000
,
00000002
00000000
00000000
00000000
00000000
00000000
00001003
00000000
00000000
00000000
00000100
00010000
00001000
00000000
01000000
00000000
20000000
00000000
00000000
00000000
31000000
00000000
00010000
00000000
00000000
00000000
00100000
00000000
00001000
00000000
00010000
00000010
,
00000200
00000000
00000000
00000000
00000301
00000000
00000010
00000000
00000000
00000000
00000100
00001000
00000100
00000000
00010000
00000000
00002000
00000000
00000000
00000000
00013000
00000000
00001000
00000000
00000000
00000000
00000000
00000000
01000000
00000000
00100000
01000000
,
00010000
00010000
00010000
00010000
,
11000000
00000000
00000000
00100000
00010000
00000000
00001000
00000000
00010000
00000000
00100000
00000000
01000000
00000000
00001000
00000000
,
00000100
00000000
00000010
00000000
00000001
00000000
00002001
00000000
00000000
00000000
00000001
00000000
00003001
00000000
00001000
00000001
,
00001000
00000000
00000100
00000000
00000010
00000000
00001000
00000000
00100000
00000000
00010000
00000000
01000000
00010000
00200000
00000000
,
00000000
00000000
01300000
00000000
10000000
00000000
00000000
10000000
00100000
00000000
00000000
00100000
00010000
00000000
00010000
00000100
,
00010000
00000000
00000000
00000100
00000010
00000000
00000001
00000000
00000100
00000000
00000010
00000000
00001000
00000000
00000100
00000000
,
00000001
00000000
00000100
00000000
00010000
00000000
00012000
00000000
00000000
00000000
00013000
00000000
00001000
00000000
01000000
00010000
,
00100000
01000000
10000000
00100000
00010000
10000000
01000000
00001000
,
00011000
00000000
00000000
00000000
00010010
00000000
00000000
00000000
00011000
00000000
00000000
00000000
00001000
00100000
00000000
00000000
,
00210000
00000000
00000000
01300000
00000000
00000000
21000000
00000000
00000000
00000000
30100000
00000000
00010000
00000000
00000010
00000000
,
00002010
00000000
00000000
00003100
00000000
00000000
00020100
00000000
00000000
00000000
00031000
00000000
00010000
00001000
00100000
00000000
,
01020000
00000000
00000000
00130000
00000000
00000000
00102000
00000000
00000000
00000000
00003000
00000000
00010000
00000100
00000000
00000000
,
00000011
00000000
00000000
00000101
00000000
00000000
00001020
00000000
00000000
00000000
00001030
00000000
00000100
00000000
00010000
00000000
,
00101000
00000000
00000000
01010000
00000000
00000000
20100000
00000000
00000000
00000000
31000000
00000000
00100000
00000000
00010000
00000000
,
00101000
00000000
00000000
00010100
00000000
00000000
00001020
00000000
00000000
00000000
00000130
00000000
00000001
00000000
00000010
00000000
,
00000100
00000100
00010000
00001000
01000000
01000000
00010000
10000000
,
01000000
00000000
10000000
01000000
00100000
00000000
01000000
00100000
00001000
00000000
00100000
00001000
00010000
00000100
00010000
00000100
,
00000020
00000000
00000000
00000000
,
00000030
00000000
00000000
00000000
;

//---------------dance-single - Rygon----------------
#NOTES:
     dance-single:
     :
     Medium:
     5:
     0.247,0.254,0.206,0.265,0.022,170.000,28.000,36.000,0.000,0.000,0.000,0.247,0.254,0.206,0.265,0.022,170.000,28.000,36.000,0.000,0.000,0.000:
0000
0000
0000
0000
,
0000
0000
0000
0000
,
0000
0000
0000
0000
,
0000
0000
0000
0000
,
0000
0000
0001
0000
0000
1000
0000
0000
0000
0000
0100
0000
0000
0010
0000
0000
,
0000
0000
0001
0000
0000
0100
0000
0000
0000
0000
0010
0000
0000
1000
0000
0000
,
0001
0000
1000
0000
0000
0100
0000
0000
0000
0000
0010
0000
0000
0001
0000
0000
,
0000
0100
0000
0010
1010
0000
1000
0001
,
0020
0000
0031
0000
0011
0000
0001
1000
,
0020
0000
1030
0000
1100
0000
1000
0001
,
0200
0301
0102
0003
,
0100
0000
0010
0000
1100
0000
1000
0001
,
0020
0000
0031
0000
0101
0000
0001
1000
,
0020
0000
1030
0000
1001
0000
1000
0100
,
0010
0100
2000
0000
,
3001
1001
2000
0000
,
3010
0100
0001
0000
0020
0000
0000
0000
,
0130
1000
0001
0000
1000
0000
0100
0000
,
0010
0001
1200
0320
,
0032
2003
3002
0000
,
0103
0010
1000
0000
0200
0000
0000
0000
,
0310
0001
0100
0000
0010
0000
1000
0000
,
0100
0010
0011
1100
,
1000
0001
1000
0000
0020
0000
0100
0000
,
0230
0000
0010
0000
0310
0000
0000
1000
,
1000
0000
0000
0100
0100
0000
0000
0010
,
0010
0000
0000
0001
0001
0000
0000
1000
,
1000
0000
0000
0001
0001
0000
1000
0000
,
0100
0100
0100
0100
,
0110
0000
0010
0001
2000
0000
3010
0000
,
0020
2030
0002
3003
,
1001
0000
1000
0001
0010
0000
0100
0000
,
2000
0010
3020
0030
,
0110
0000
0100
0001
2000
0000
3100
0000
,
0200
2300
0002
3003
,
1001
0000
1000
0001
0100
0000
0010
0000
,
2000
0100
3200
0300
,
0011
0001
0201
0310
,
1010
1000
1200
0310
,
0011
1100
1002
0103
,
0120
0000
1030
0000
,
1010
1000
1200
0310
,
0011
0001
0201
0310
,
1010
1000
0001
1000
,
0100
0000
0000
0000
0010
0100
1000
0100
,
0020
0000
0000
0000
,
0030
0000
0000
0000
;

//---------------dance-single - Rygon----------------
#NOTES:
     dance-single:
     :
     Easy:
     2:
     0.090,0.084,0.015,0.015,0.000,81.000,2.000,2.000,0.000,0.000,0.000,0.090,0.084,0.015,0.015,0.000,81.000,2.000,2.000,0.000,0.000,0.000:
0000
0000
0000
0000
,
0000
0000
0000
0000
,
0000
0000
0000
0000
,
0000
0000
0000
0000
,
0000
0010
0000
0000
0000
1000
0000
0000
,
0000
0001
0000
0000
0000
1000
0000
0000
,
0000
0100
0000
0000
0000
0010
0000
0000
,
0000
0002
0000
0003
0000
0000
1000
0000
,
1000
0000
0000
0001
,
0001
0000
0000
0100
,
0100
0000
0010
0000
,
0010
0000
0000
1000
,
1000
0000
0000
0001
,
0001
0000
0000
0010
,
0010
0000
0100
0000
,
0100
0000
1000
1000
,
0000
0000
0001
0001
,
0000
0000
0100
0100
,
0000
0000
0001
0000
,
1000
0000
0001
0001
,
0000
0000
1000
1000
,
0000
0000
0100
0100
,
0000
0000
1000
0000
,
0001
0000
0100
0100
,
0100
0000
0010
0000
,
0010
0000
1000
0000
,
1000
0000
0001
0000
,
0001
0000
1000
0000
,
1000
0000
0000
0000
,
1001
0000
0000
1000
,
0001
0000
0000
0001
,
1000
0000
0000
1000
,
0001
0000
0000
0000
,
0110
0000
0000
0100
,
0010
0000
0000
0010
,
0100
0000
0000
0100
,
0010
0000
0000
0000
,
1000
0000
0001
0000
,
0001
0000
1000
0000
,
0100
0000
0010
0000
,
0010
0000
0100
0000
,
1000
0000
0001
0000
,
0001
0000
1000
0000
,
0010
0000
0100
0000
,
0100
0000
0010
0000
,
0200
0000
0300
0000
;

//---------------dance-single - Rygon----------------
#NOTES:
     dance-single:
     :
     Beginner:
     1:
     0.062,0.067,0.015,0.007,0.000,56.000,2.000,1.000,0.000,0.000,0.000,0.062,0.067,0.015,0.007,0.000,56.000,2.000,1.000,0.000,0.000,0.000:
0000
0000
0000
0000
,
0000
0000
0000
0000
,
0000
0000
0000
0000
,
0000
0000
0000
0000
,
0000
1000
0000
0000
0000
0000
0000
0000
,
0000
0001
0000
0000
0000
0000
0000
0000
,
0000
0100
0000
0000
0000
0000
0000
0000
,
0000
0010
0000
0000
0000
0000
0000
0000
,
1000
0000
0001
0000
,
0000
0000
0100
0000
,
0000
0000
0010
0000
,
0000
0000
1000
0000
,
0000
0000
0001
0000
,
0000
0000
0010
0000
,
0000
0000
0100
0000
,
0000
0000
1000
0000
,
0000
0000
0001
0000
,
0000
0000
0001
0000
,
0000
0000
1000
0000
,
0000
0000
0010
0000
,
0000
0000
0100
0000
,
0000
0000
0100
0000
,
0000
0000
0010
0000
,
0000
0000
1000
0000
,
0000
0000
0001
0000
,
0000
0000
0100
0000
,
0000
0000
0010
0000
,
0000
0000
1000
0000
,
0000
0000
0000
0000
,
1001
0000
0000
1000
,
1000
0000
0000
0001
,
0001
0000
0000
1000
,
1000
0000
0000
0000
,
1001
0000
0000
0001
,
0001
0000
0000
1000
,
1000
0000
0000
0001
,
0001
0000
0000
0000
,
1000
0000
0100
0000
,
0010
0000
0001
0000
,
1000
0000
0100
0000
,
0010
0000
0001
0000
,
1000
0000
0010
0000
,
0100
0000
0001
0000
,
1000
0000
0010
0000
,
0100
0000
0001
0000
,
2000
3000
0000
0000
;

//---------------dance-double - Rygon----------------
#NOTES:
     dance-double:
     :
     Medium:
     5:
     0.202,0.235,0.044,0.162,0.066,164.000,6.000,22.000,0.000,0.000,0.000,0.202,0.235,0.044,0.162,0.066,164.000,6.000,22.000,0.000,0.000,0.000:
00000000
00000000
00000000
00000000
,
00000000
00000000
00000000
00000000
,
00000000
00000000
00000000
00000000
,
00000000
00000000
00000000
00000000
,
00000000
00000000
10000000
00000000
00000000
00100000
00000000
00000000
01000000
00000000
00001000
00000000
00000000
00010000
00000000
00000000
,
00000100
00000000
00000010
00000000
00000000
00000001
00000000
00000000
00000100
00000000
00000120
00000000
00000000
00001030
00000000
00000000
,
00000100
00000000
00020000
00000000
00000000
00031000
00000000
00000000
00001000
00000000
02000000
00000000
00000000
00010000
00000000
00000000
,
03010000
20000000
00000000
31000000
10000000
00000000
01000000
00000000
,
00100000
00010000
01000000
00001000
,
00010000
00001000
00010000
00000000
00000100
00000000
00000010
00000000
,
00000001
00000100
00000120
00000000
,
00001030
00000000
00000001
00000010
,
00000100
00001000
00000010
00010000
,
00001000
00010000
00001000
00000000
00100000
00000000
01000000
00000000
,
10000000
00100000
02100000
00000000
,
03010000
00000000
10000000
01000000
,
00200000
00302000
00013000
00010000
,
00000200
00000000
00000310
00000001
,
00000100
00000000
00000010
00000000
00001000
00000000
00000100
00010000
,
00002000
00003000
00100000
01000000
,
10000000
00100000
01000000
00001000
,
00020000
00000000
00030100
00000010
,
00000001
00000000
00000100
00000000
00000010
00001000
00000010
00000000
,
00002000
00000000
00003100
00010000
,
00001000
00000000
00000000
00000000
01000000
00000000
00000000
00000000
00100000
00000000
00000000
00100000
00000000
00000000
00000000
00000000
,
10000000
00000000
00000000
10000000
00000000
00000000
00000000
00000000
00010000
00000000
00000000
00010000
00000000
00000000
00000000
00000000
,
00100000
00000000
00000000
00100000
00000000
00000000
00000000
00000000
00001000
00000000
00000000
00001000
00000000
00000000
00000000
00000000
,
00010000
00000000
00000000
00010000
00000000
00000000
00000000
00000000
00000100
00000000
00000000
00000100
00000000
00000000
00000000
00000000
,
00000010
00000010
00000010
00000010
,
00000001
00000000
00001000
00000000
00001001
00000000
00001000
00000010
,
00010000
00001000
02000000
00000000
,
03100000
10000000
01000000
00100000
,
00102000
00000000
00013000
00000000
,
00001000
00000000
00100000
00000000
00110000
00000000
00010000
01000000
,
00100000
00100000
20000000
00000000
,
31000000
00100000
00010000
02000000
,
03002000
00023000
00031000
00000000
,
00010000
00000000
00000000
00010000
00000000
00000000
00000100
00000000
00000000
00000000
00000000
00000000
00000010
00000000
00000000
00000000
,
00000001
00000000
00000000
00000001
00000000
00000000
00000100
00000000
00000000
00000000
00000000
00000000
00000010
00000000
00000000
00000000
,
00001000
00000000
00000000
00000100
00000000
00000000
00010000
00000000
00000000
00000000
00000000
00000000
00001000
00000000
00000000
00000000
,
00200000
00320000
02030000
03000000
,
00100000
00000000
00000000
00100000
00000000
00000000
10000000
00000000
00000000
00000000
00000000
00000000
01000000
00000000
00000000
00000000
,
00100000
00000000
00000000
00100000
00000000
00000000
00010000
00000000
00000000
00000000
00000000
00000000
00100000
00000000
00000000
00000000
,
00001000
00010000
00001000
00010000
,
00000100
00000000
00000100
00000000
00000010
00000000
00000001
00001000
,
00000002
00000000
00000003
00000000
;

//---------------dance-double - Rygon----------------
#NOTES:
     dance-double:
     :
     Easy:
     3:
     0.124,0.133,0.059,0.007,0.000,109.000,8.000,1.000,0.000,0.000,0.000,0.124,0.133,0.059,0.007,0.000,109.000,8.000,1.000,0.000,0.000,0.000: // measure 0
00000000
00000000
00000000
00000000
,  // measure 1
00000000
00000000
00000000
00000000
,  // measure 2
00000000
00000000
00000000
00000000
,  // measure 3
00000000
00000000
00000000
00000000
,  // measure 4
00000000
00010000
00000000
00000000
00000000
00001000
00000000
00000000
,  // measure 5
00000000
00001000
00000000
00000000
00000000
00010000
00000000
00000000
,  // measure 6
00000000
00001000
00000000
00000000
00000000
00010000
00000000
00000000
,  // measure 7
00000000
00010000
00000000
00001000
00010000
00000000
00000000
00000000
,  // measure 8
00010000
00000000
00000100
00000000
,  // measure 9
00000100
00000000
00000010
00000000
,  // measure 10
00000010
00000000
00000001
00000000
,  // measure 11
00000001
00000000
00001000
00000000
,  // measure 12
00000100
00000000
00010000
00000000
,  // measure 13
00001000
00000000
01000000
00000000
,  // measure 14
00100000
00000000
10000000
00000000
,  // measure 15
00010000
00000000
10000000
10000000
,  // measure 16
01000000
00000000
00100000
00010000
,  // measure 17
00100000
00000000
00001000
00001000
,  // measure 18
00010000
00000000
00000100
00001000
,  // measure 19
00000100
00000000
00000010
00000010
,  // measure 20
00000001
00000000
00000100
00000010
,  // measure 21
00000100
00000000
00000010
00000010
,  // measure 22
00001000
00000000
00000100
00010000
,  // measure 23
00000100
00000000
00010000
00001000
,  // measure 24
00010000
00001000
00100000
00000000
,  // measure 25
01000000
00000000
10000000
00000000
,  // measure 26
00010000
00000000
00100000
00000000
,  // measure 27
00001000
00000000
00010000
00000000
,  // measure 28
00000100
00000100
00000100
00000100
,  // measure 29
00000110
00000000
00000010
00000001
,  // measure 30
00001000
00000000
00000100
00010000
,  // measure 31
00001000
00000000
01000000
00010000
,  // measure 32
00100000
00000000
00100000
00000000
,  // measure 33
01100000
00000000
01000000
10000000
,  // measure 34
00010000
00000000
01000000
00001000
,  // measure 35
00010000
00000000
00000100
00001000
,  // measure 36
00000010
00000000
00000010
00000000
,  // measure 37
00000110
00000000
00000101
00000000
,  // measure 38
00000001
00001000
00000100
00000000
,  // measure 39
00010100
00000000
00011000
00000000
,  // measure 40
00001000
00100000
00010000
00000000
,  // measure 41
01010000
00000000
10100000
00000000
,  // measure 42
00100000
01000000
00010000
00000000
,  // measure 43
10000000
10000000
00010000
00010000
,  // measure 44
00100000
00001000
00010000
00000100
,  // measure 45
00000020
00000030
00000000
00000000
;
