#TITLE:SHOOT MY BROKEN DISCO (sessouno nai edit);
#SUBTITLE:;
#ARTIST:cybermiso;
#TITLETRANSLIT:;
#SUBTITLETRANSLIT:;
#ARTISTTRANSLIT:;
#GENRE:;
#CREDIT:Telperion;
#BANNER:smbd-bn.png;
#BACKGROUND:smbd-bq.png;
#LYRICSPATH:;
#CDTITLE:;
#MUSIC:SMBD.ogg;
#OFFSET:0.000;
#SAMPLESTART:18.321;
#SAMPLELENGTH:14.657;
#SELECTABLE:YES;
#DISPLAYBPM:131.000;
#BPMS:0.000=131.000
,4.000=57300.000
,28.000=131.000
,29.000=262.000
,30.500=131.000
,31.000=262.000
,31.500=131.000
,31.750=262.000
,32.250=131.000
,32.500=262.000
,33.000=131.000
,37.000=262.000
,38.500=131.000
,39.000=262.000
,39.500=131.000
,39.750=262.000
,40.250=131.000
,40.500=262.000
,41.000=131.000
,45.000=262.000
,46.500=131.000
,53.000=34.933
,53.333=43.667
,53.667=58.222
,54.000=87.333
,54.333=174.667
,55.000=393.000
,59.000=131.000
,97.000=57300.000
,105.000=141.340
,105.250=131.000
,113.000=57300.000
,121.000=141.340
,121.250=131.000
,129.000=57300.000
,137.000=141.340
,137.250=131.000
,143.000=98.250
,143.250=196.500
,143.500=131.000
,144.000=98.250
,144.250=196.500
,144.500=131.000
,145.000=98.250
,145.250=196.500
,145.500=131.000
,146.000=98.250
,146.500=196.500
,147.000=131.000
,161.000=52.400
,161.250=262.000
,162.000=52.400
,162.250=262.000
,163.000=131.000
,177.000=52.400
,177.250=262.000
,178.000=52.400
,178.250=262.000
,179.375=52.400
,179.500=131.000
,181.000=262.000
,181.375=52.400
,181.500=131.000
,183.000=262.000
,183.375=52.400
,183.500=131.000
,187.000=262.000
,187.375=52.400
,187.500=131.000
,189.000=262.000
,189.375=52.400
,189.500=131.000
,191.000=262.000
,191.375=52.400
,191.500=131.000
,193.000=52.400
,193.250=262.000
,194.000=52.400
,194.250=262.000
,195.375=52.400
,195.500=131.000
,197.000=262.000
,197.375=52.400
,197.500=131.000
,199.000=262.000
,199.375=52.400
,199.500=131.000
,203.000=262.000
,203.375=52.400
,203.500=131.000
,205.000=262.000
,205.375=52.400
,205.500=131.000
,207.000=262.000
,207.375=52.400
,207.500=131.000
,208.000=262.000
,210.750=52.400
,211.000=131.000
,223.000=262.000
,227.000=131.000
,239.000=262.000
,243.000=131.000
,243.500=196.500
,243.750=98.250
,244.250=196.500
,244.750=98.250
,245.250=196.500
,245.750=98.250
,246.250=196.500
,246.500=131.000
,247.500=196.500
,247.750=98.250
,248.250=196.500
,248.750=98.250
,249.250=196.500
,249.750=98.250
,250.250=196.500
,250.500=131.000
,251.500=196.500
,251.750=98.250
,252.250=196.500
,252.750=98.250
,253.250=196.500
,253.750=98.250
,254.250=196.500
,254.500=131.000
,255.000=262.000
,259.000=131.000
,259.500=196.500
,259.750=98.250
,260.250=196.500
,260.750=98.250
,261.250=196.500
,261.750=98.250
,262.250=196.500
,262.500=131.000
,263.500=196.500
,263.750=98.250
,264.250=196.500
,264.750=98.250
,265.250=196.500
,265.750=98.250
,266.250=196.500
,266.500=131.000
,267.500=262.000
,268.000=131.000
,269.000=262.000
,270.000=131.000
,275.000=65.500
,276.000=196.500
,278.000=65.500
,279.000=196.500
,281.000=65.500
,282.000=196.500
,284.000=65.500
,285.000=196.500
,287.000=131.000
,303.000=1573.000
,306.000=32.750
;
#STOPS:4.000=0.450,
12.000=0.449,
20.000=0.421,
28.063=0.029,
29.000=0.115,
29.500=0.114,
30.000=0.115,
31.000=0.114,
31.750=0.115,
32.500=0.114,
37.000=0.115,
37.500=0.114,
38.000=0.115,
39.000=0.114,
39.750=0.115,
40.500=0.114,
45.000=0.115,
45.500=0.114,
46.000=0.115,
55.000=0.305,
56.000=0.306,
57.000=0.305,
58.000=0.305,
208.000=0.057,
208.250=0.058,
208.500=0.057,
208.750=0.057,
209.000=0.057,
209.250=0.058,
209.500=0.057,
209.750=0.057,
223.000=0.115,
223.500=0.057,
223.750=0.057,
224.000=0.115,
224.500=0.057,
224.750=0.057,
225.000=0.057,
225.250=0.058,
225.500=0.057,
225.750=0.057,
226.000=0.115,
226.500=0.114,
239.000=0.115,
239.500=0.057,
239.750=0.057,
240.000=0.115,
240.500=0.057,
240.750=0.057,
241.000=0.057,
241.250=0.058,
241.500=0.057,
241.750=0.057,
242.000=0.115,
242.500=0.114,
255.000=0.115,
255.500=0.057,
255.750=0.057,
256.000=0.115,
256.500=0.057,
256.750=0.057,
257.000=0.057,
257.250=0.058,
257.500=0.057,
257.750=0.057,
258.000=0.057,
258.250=0.058,
258.500=0.114,
267.500=0.057,
267.750=0.058,
269.000=0.057,
269.250=0.058,
269.500=0.057,
269.750=0.057,
276.000=0.115,
276.750=0.114,
277.500=0.076,
279.000=0.115,
279.750=0.114,
280.500=0.077,
282.000=0.115,
282.750=0.114,
283.500=0.076,
285.000=0.115,
285.750=0.114,
286.500=0.076
;
#BGCHANGES:;
#KEYSOUNDS:;
#ATTACKS:;

//---------------dance-single - Telperion----------------
#NOTES:
     dance-single:
     :
     Easy:
     4:
     0.304,0.375,0.149,0.124,0.000,225.000,18.000,15.000,4.000,0.000,0.000,0.304,0.375,0.149,0.124,0.000,225.000,18.000,15.000,4.000,0.000,0.000: // measure 0
0000
0000
0000
0000
,  // measure 1
M000
0000
0000
0000
,  // measure 2
0000
0000
0000
0000
,  // measure 3
0M00
0000
0000
0000
,  // measure 4
0000
0000
0000
0000
,  // measure 5
00M0
0000
0000
0000
,  // measure 6
0000
0000
0000
0000
,  // measure 7
000M
1000
1000
0001
,  // measure 8
0000
1000
0001
0100
,  // measure 9
0000
0001
0001
1000
,  // measure 10
0000
0001
1000
0100
,  // measure 11
0000
0010
0010
0010
,  // measure 12
0100
1000
0001
1000
,  // measure 13
0001
0200
0000
0010
,  // measure 14
0010
0010
0310
1001
,  // measure 15
0100
0001
1000
0100
,  // measure 16
0010
0001
0000
1000
,  // measure 17
0001
1000
0001
0100
,  // measure 18
0010
0100
0000
1001
,  // measure 19
0100
1000
0001
0100
,  // measure 20
0010
1000
0000
0001
,  // measure 21
1000
0001
1000
0100
,  // measure 22
0010
0100
0000
1001
,  // measure 23
0100
0001
1000
0100
,  // measure 24
0010
0001
0000
0000
,  // measure 25
0000
0000
0000
0000
,  // measure 26
0000
0000
0000
1000
,  // measure 27
0001
1000
0001
0100
,  // measure 28
0010
0100
0000
0000
,  // measure 29
0000
0000
0000
0000
,  // measure 30
0000
0000
0000
1001
,  // measure 31
0100
1000
0001
0100
,  // measure 32
0010
1000
0000
0000
,  // measure 33
0000
0000
0000
0000
,  // measure 34
0000
0000
0000
0001
,  // measure 35
1000
0001
1000
0100
,  // measure 36
0010
0100
0000
1000
,  // measure 37
0010
1000
0100
1000
,  // measure 38
0010
0001
0000
0001
,  // measure 39
0010
0001
0100
0001
,  // measure 40
0010
1000
1000
1000
,  // measure 41
0010
0001
0010
1000
,  // measure 42
0100
0001
0000
0001
,  // measure 43
0010
1000
0010
0001
,  // measure 44
0100
1000
1000
0010
,  // measure 45
0001
0010
1000
0010
,  // measure 46
0001
0100
0000
0010
,  // measure 47
1000
0010
0001
0010
,  // measure 48
1000
0100
0100
0010
,  // measure 49
0001
0010
1000
0010
,  // measure 50
0001
0100
0000
0010
,  // measure 51
1000
0010
0100
0001
,  // measure 52
2000
0002
3003
1001
,  // measure 53
0010
0001
0100
1001
,  // measure 54
0010
1000
0100
1001
,  // measure 55
0010
0001
0100
1001
,  // measure 56
2000
3002
1003
1001
,  // measure 57
0100
0001
0010
1001
,  // measure 58
0100
1000
0010
1001
,  // measure 59
0100
0001
0010
1001
,  // measure 60
0002
2003
3001
0010
,  // measure 61
0000
0001
0000
1000
0000
0001
0100
0000
,  // measure 62
0000
0001
0000
1000
0000
0001
0010
0000
,  // measure 63
0000
0001
0000
1000
0000
0001
0200
0000
,  // measure 64
0010
0301
0100
0010
,  // measure 65
0000
1000
0000
0001
0000
1000
0100
0000
,  // measure 66
0000
1000
0000
0001
0000
1000
0020
0000
,  // measure 67
0100
1030
0010
0200
,  // measure 68
0000
0000
0300
1001
,  // measure 69
0020
0000
0000
0030
0000
0000
0000
0000
1001
0000
0000
0000
0020
0000
0000
0030
,  // measure 70
0000
0000
0000
0000
1001
0000
0000
0000
0020
0000
0000
0030
0000
0000
0000
0000
,  // measure 71
1001
0000
0000
0000
0020
0000
0000
0030
0000
0000
0000
0000
1001
0000
0000
0000
,  // measure 72
1000
0010
0010
1001
,  // measure 73
0001
0010
0010
0100
,  // measure 74
1000
0100
0001
0010
,  // measure 75
1000
0100
0020
0030
;

//---------------dance-single - Telperion----------------
#NOTES:
     dance-single:
     :
     Hard:
     9:
     0.693,0.726,0.446,0.429,0.640,482.000,54.000,52.000,48.000,0.000,0.000,0.693,0.726,0.446,0.429,0.640,482.000,54.000,52.000,48.000,0.000,0.000:
0000
0000
0000
0000
,
M000
0000
0000
0000
,
0000
0000
0000
0000
,
MM00
0000
0000
0000
,
0000
0000
0000
0000
,
MMM0
0000
0000
0000
,
0000
0000
0000
0000
,
MMMM
0000
0000
0000
1000
0000
0010
0000
1001
0000
0000
1000
0100
0000
0000
1000
,
0000
0001
0100
0000
0100
0000
0100
0000
,
0100
0000
0000
0000
0001
0000
0010
0000
1001
0000
0000
0001
0100
0000
0100
0010
,
0000
1000
0100
0000
0100
0000
0100
0000
,
0100
0000
1000
0010
1001
1000
0100
0100
,
1000
0100
0010
0100
0010
0100
1000
0001
,
1000
0000
0000
0001
0000
0000
0200
0000
0000
0000
0000
0000
0000
0000
0000
0000
0300
0000
0101
0000
0000
0000
0000
0000
,
1100
0000
0000
0000
0011
0000
0000
0000
1010
0000
0000
0000
0101
0000
0000
0001
,
0000
1000
0001
0000
0100
0000
0000
0001
0000
1000
0001
0000
0100
0000
0000
0001
,
0000
1000
0001
0000
0200
0000
0010
0000
0302
0000
0010
0000
1003
0000
0000
0001
,
0000
1000
0100
0000
1000
0000
0000
0001
0000
1000
0100
0000
1000
0000
0000
0001
,
0000
1000
0100
0000
1000
0000
1010
0000
0010
0000
0110
0000
0001
0000
0000
1000
,
0000
0001
0100
0000
0001
0000
0000
1000
0000
0001
0100
0000
0001
0000
0000
1000
,
0000
0001
0100
0000
0020
0000
1030
0001
0000
1000
0001
1000
0100
0000
0000
1000
,
0000
0001
1000
0000
0100
0000
0000
1000
0000
0001
1000
0000
0100
0000
0000
1000
,
0000
0001
1000
0000
0100
0000
1100
0000
0001
0000
0101
0000
M100
0000
0000
0001
,
0000
1000
0001
0000
M100
0000
0000
0001
0000
1000
0001
0000
M100
0000
0000
0001
,
0000
1000
0001
0000
0200
0000
00M0
0000
000M
0000
00M0
0000
M000
0000
0000
000M
,
0000
M000
0000
0000
0000
0000
0000
0000
0000
0000
0000
0000
0000
0000
0000
0000
,
0000
0000
0000
0000
0000
0000
0010
0000
0302
0000
0010
0000
10M3
0000
0000
0001
,
0000
1000
0100
0000
10M0
0000
0000
0001
0000
1000
0100
0000
10M0
0000
0000
0001
,
0000
1000
0100
0000
2000
0000
00M0
0000
00M0
0000
0MM0
0000
000M
0000
0000
0000
,
0000
000M
0M00
0000
0000
0000
0000
0000
0000
0000
0000
0000
0000
0000
0000
0000
,
0000
0000
0000
0000
3000
0000
1010
0000
0010
0000
0110
0000
00M1
0000
0000
1000
,
0000
0001
0100
0000
00M1
0000
0000
1000
0000
0001
0100
0000
00M1
0000
0000
1000
,
0000
0001
0100
0000
0020
0000
M000
000M
0000
M000
000M
M000
0M00
0000
0000
M000
,
0000
000M
M000
0000
0000
0000
0000
0000
0000
0000
0000
0000
0000
0000
0000
0000
,
0000
0000
0000
0000
0000
0000
1030
0001
0000
1000
0001
1000
010M
0000
0000
1000
,
0000
0000
0000
0001
0000
0000
1000
0000
0000
0000
0000
0000
010M
0000
0000
0000
0000
0000
0000
0000
0000
1000
0000
0000
0000
0000
0000
0001
0000
0000
1000
0000
0000
0000
0000
0000
010M
0000
0000
0000
0000
0000
1000
0000
0000
0000
0001
0000
,
0100
0000
0000
0000
0000
0000
0001
0000
0000
0000
1000
0000
0100
0000
0000
0000
0000
0000
1000
0000
0000
0000
0001
0000
0100
0000
0000
0000
0000
0000
0000
0000
0000
0000
0000
0000
0110
0000
0000
0000
0000
0000
0000
0000
0000
0001
0000
0000
,
0000
0001
0010
0000
0100
0000
0000
1000
0000
1000
0010
0000
0100
0000
0000
0001
,
0000
0001
0010
0000
0200
0000
0010
0000
2300
0000
0010
0000
3001
0000
0000
1000
,
0000
1000
0010
0000
0100
0000
0000
0001
0000
0001
0010
0000
0100
0000
0000
1000
,
0000
1000
0010
0000
0202
0303
0000
0000
2020
3030
0000
0000
0001
0000
0000
1000
,
0000
0001
0020
0000
0100
0000
0000
0031
0000
1000
0020
0000
0100
0000
0000
1030
,
0000
0001
0010
0000
0200
0000
0010
0000
2300
0000
0010
0000
3001
0000
0000
1000
,
0000
0001
0020
0000
0100
0000
0000
0031
0000
1000
0020
0000
0100
0000
0000
1030
,
0000
0001
0010
0000
2200
3300
0000
0000
0022
0033
0000
0000
1000
0000
0001
1000
,
0000
1000
0010
0000
1000
0000
0001
1000
0000
1000
0010
0000
1000
0000
0001
1000
,
0000
1000
0010
0000
0200
0000
0010
0000
0302
0000
0010
0000
1003
0000
0100
1000
,
0000
1000
0001
0000
1000
0000
0100
1000
0000
1000
0001
0000
1000
0000
0100
1000
,
0000
1000
0001
0000
0202
0303
0000
0000
2020
3030
0000
0000
0001
0000
1000
0001
,
0000
0001
0010
0000
0001
0000
1000
0001
0000
0001
0010
0000
0001
0000
1000
0001
,
0000
0001
0010
0000
0200
0000
0010
0000
2300
0000
0010
0000
3002
0000
0000
0100
,
0000
0000
0100
0000
0000
0000
0000
0100
0000
0000
0103
0000
0001
0000
1000
0000
,
0100
1000
0100
0010
0001
1000
0100
0010
0001
0000
0000
0000
1000
0000
0001
1000
,
0001
0000
0020
0000
0000
0000
0100
0000
0030
0000
0110
0000
0001
0000
1000
0001
,
1000
0000
0020
0000
0000
0000
0100
0000
0030
0000
0101
0000
0001
0000
0010
0001
,
0010
0000
0200
0000
0000
0000
0010
0000
0300
0000
1100
0000
1000
0000
0001
1000
,
0010
0000
0010
0100
0010
1000
0010
0100
0001
0000
1000
0000
0001
0000
1000
0001
,
1000
0000
0020
0000
0000
0000
0100
0000
0030
0000
0110
0000
1000
0000
0001
1000
,
0001
0000
0020
0000
0000
0000
0100
0000
0030
0000
1100
0000
1000
0000
0010
1000
,
0010
0000
0200
0000
0000
0000
0010
0000
0300
0000
0101
0000
0001
0000
1000
0001
,
0010
0000
0010
1000
0010
0001
0010
0100
1000
0000
0001
0000
0200
0000
0010
0000
,
0300
1001
0000
0011
0000
0010
0200
0010
,
0300
1001
0000
1010
0000
0010
0200
0010
,
0300
0000
0101
0000
0000
0000
1001
0000
0000
0000
1100
0000
0001
0000
0100
0001
,
0010
0000
0010
0100
0010
0001
1000
0001
0100
0001
1000
0000
0200
0000
0010
0000
,
0300
1100
0000
1010
0000
0010
0200
0010
,
0300
0000
1001
0000
0000
0000
0011
0000
0000
0000
0010
0000
0200
0000
0310
0100
,
1000
0000
0000
0000
0000
0000
0001
0000
0000
0000
0000
0000
1000
0000
0000
0001
0000
0000
1000
0000
0000
0001
0000
0000
1000
0000
0000
0000
0000
0000
0010
0000
0000
0000
0000
0000
0100
0000
0000
0000
0001
0000
0000
0000
0010
0000
0000
0000
,
0100
0000
0000
0000
1000
0000
0000
0000
0010
0000
0000
0000
0100
0000
0000
0000
0001
0000
0000
0000
0010
0000
0000
0000
0100
0000
0000
0000
0000
0000
0000
0000
0000
0000
0000
0000
0020
0000
0000
0000
0000
0000
0000
0000
0000
0030
0000
0000
,
1001
0000
0000
1001
0000
0000
1001
0000
0020
0000
0000
0030
1001
0000
0000
1001
,
0000
0000
1001
0000
0020
0000
0000
0030
1100
0000
0000
0101
0000
0000
1100
0000
,
0020
0000
0000
0030
0101
0000
0000
1100
0000
0000
0101
0000
0011
0000
0001
0000
,
0010
0000
0100
0000
2100
0000
0000
0001
3000
0000
1000
0000
1010
0000
1000
0000
,
0010
0000
0100
0000
0102
0000
0000
1000
0003
0000
0001
0000
0010
0000
0100
0000
,
0001
0000
0000
1000
0000
0000
0010
0000
0000
0100
0000
0000
0001
0000
0000
0100
0000
0000
1000
0000
0001
0000
0100
0000
,
0001
1000
0100
0010
0100
1000
0020
0000
0000
M030
0000
0000
,
0M00
00M0
000M
0000
;

//---------------dance-single - Telperion----------------
#NOTES:
     dance-single:
     :
     Medium:
     7:
     0.493,0.568,0.107,0.149,0.120,387.000,13.000,18.000,45.000,0.000,0.000,0.493,0.568,0.107,0.149,0.120,387.000,13.000,18.000,45.000,0.000,0.000:
0000
0000
0000
0000
,
0000
0000
M000
00M0
0000
0000
0000
0000
,
0000
0000
0000
0000
,
0000
0000
M000
00M0
M000
0000
00M0
0000
,
0000
0000
0000
0000
,
0000
0000
0000
0000
M000
0000
00M0
0000
M000
0000
0000
0000
00M0
0000
0000
0M00
,
0000
000M
0M00
0000
0000
0000
0000
0000
,
0000
0000
0000
0000
1000
0000
0001
0000
1000
0000
0000
0000
0010
0000
0000
0100
,
0000
0001
0100
0000
0100
0000
0100
0000
,
0100
0000
0000
0000
0001
0000
1000
0000
0001
0000
0000
0000
0010
0000
0000
0100
,
0000
1000
0100
0000
0100
0000
0100
0000
,
0100
0000
1000
0001
1000
0000
1000
0010
,
1000
0001
0100
0000
0100
0000
0100
0000
,
0100
2001
0000
0010
,
0001
0100
3001
0110
,
0001
1000
0100
0000
1000
0001
0100
0000
,
0001
1000
0001
0010
1000
0010
0001
0000
,
1000
0001
0100
0000
0001
1000
0100
0000
,
1000
0001
0100
0010
0100
0010
1000
0000
,
1000
0100
0010
0000
0010
0001
0100
0000
,
0100
0010
1000
0010
0001
0010
1000
0000
,
1000
0010
0100
0000
0100
0001
0010
0000
,
0010
0100
1000
0001
1000
0001
01M0
0000
,
0001
1000
01M0
0000
1000
0001
01M0
0000
,
0001
1000
0002
00M0
M000
00M0
0000
0000
,
M000
0M00
0000
0000
,
0000
0000
0003
0010
1000
0010
0M01
0000
,
1000
0001
01M0
0000
0001
1000
01M0
0000
,
1000
0001
0200
00M0
0000
00M0
M000
0000
,
M000
00M0
0000
0000
,
0000
0000
0300
0010
0100
0010
100M
0000
,
1000
0100
M010
0000
0010
0001
01M0
0000
,
0100
0010
2000
00M0
000M
00M0
0000
0000
,
0000
00M0
0M00
0000
0000
0000
0000
0000
,
0000
0000
3000
0010
0001
0010
100M
0000
,
1000
0010
M100
0000
0100
0001
0M10
0000
,
0010
0000
0100
0000
10M0
0000
0001
0000
1000
0000
0000
0000
0010
0000
0000
0100
,
0000
0000
0001
0000
1000
0000
0000
0100
0000
0000
0010
0000
0001
0000
0000
1000
,
0000
0000
0010
0000
0100
0000
1000
0000
0100
0000
0001
0000
0010
0000
0000
0001
,
0000
0000
1000
0000
0010
0000
0000
0100
0000
0000
0010
0000
1000
0000
0000
0001
,
0000
0000
0010
0000
0200
0300
0000
0000
0200
0300
0000
0000
0010
0000
0000
0100
,
0000
0000
1000
0000
0001
0000
0000
0100
0000
0000
0010
0000
1000
0000
0000
0001
,
0000
0000
0010
0000
0100
0000
0001
0000
0100
0000
1000
0000
0010
0000
0000
1000
,
0000
0000
0001
0000
0010
0000
0000
0100
0000
0000
0010
0000
0001
0000
0000
1000
,
0000
0000
0010
0000
0200
0300
0000
0000
0200
0300
0000
0000
0010
0000
0100
0000
,
0001
0000
0010
0100
0001
0000
0010
0100
,
0001
0000
1000
0100
0001
0000
0010
0100
,
1000
0000
0010
0100
1000
0000
0010
0100
,
1000
0000
0000
0000
0020
0030
0000
0000
0020
0030
0000
0000
0100
0000
0010
0000
,
1000
0000
0100
0010
1000
0000
0100
0010
,
1000
0000
0001
0010
1000
0000
0100
0010
,
0001
0000
0100
0010
0001
0000
1000
0001
,
0010
0100
0010
0100
1000
0000
0001
1000
,
0010
0100
0000
0100
0000
0110
1000
0001
,
0010
0100
0000
0100
0000
0110
0001
1000
,
0010
0100
0000
0100
0000
0110
1000
0001
,
0010
0010
0001
0100
0001
1000
0001
1000
,
0001
0010
0000
0010
0000
0110
1000
0001
,
1000
0010
0000
0010
0000
0110
0001
1000
,
0001
0010
0000
0010
0000
0110
1000
0001
,
0010
0010
0001
1000
0001
0100
0001
1000
,
0010
0100
0000
0100
0000
0110
1000
0001
,
0010
0100
0000
0100
0000
0110
0001
1000
,
0010
0100
0000
0100
0000
0110
1000
0001
,
0010
0010
0001
0100
0001
1000
0001
1000
,
0001
0010
0000
0010
0000
0110
1000
0001
,
1000
0010
0000
0010
0000
0110
0001
1000
,
0001
0000
0000
0000
0000
0000
0001
0000
0000
0000
0000
0000
1000
0000
0000
0001
0000
0000
1000
0000
0000
0001
0000
0000
1000
0000
0000
0000
0000
0000
0001
0000
0000
0000
0000
0000
0010
0000
0000
0000
0001
0000
0000
0000
0010
0000
0000
0000
,
0001
1000
0100
1000
0001
0100
0010
0000
0000
0200
0000
0000
,
0010
0000
0000
1000
0000
0000
0010
0000
0302
0000
0000
0000
0100
0000
0000
1000
,
0000
0000
0010
0000
2003
0000
0000
0000
0001
0000
0000
0010
0000
0000
0001
0000
,
3200
0000
0000
0000
0010
0000
0000
0001
0000
0000
0010
0000
1300
0000
0001
0000
,
1000
0000
0100
0000
0010
0000
0000
0010
0000
0000
0010
0000
0001
0000
1000
0000
,
0001
0000
0100
0000
0010
0000
0000
0010
0000
0000
0010
0000
1000
0000
0001
0000
,
0100
0010
1000
0001
0100
0010
2000
0000
,
3002
0203
0320
M030
,
0M00
00M0
000M
0000
;
