#TITLE:Sa.Yo.Na.Ra Superstar;
#SUBTITLE:;
#ARTIST:Super Star Mitsuru;
#TITLETRANSLIT:;
#SUBTITLETRANSLIT:;
#ARTISTTRANSLIT:;
#GENRE:;
#CREDIT:;
#BANNER:SSS bn.png;
#BACKGROUND:sss bg.png;
#LYRICSPATH:;
#CDTITLE:;
#MUSIC:SAYONARA SUPER STAR.ogg;
#OFFSET:-1.460;
#SAMPLESTART:22.636;
#SAMPLELENGTH:12.000;
#SELECTABLE:YES;
#BPMS:0.000=170.000
,152.000=85.000
,178.000=170.000
;
#STOPS:178.000=1.060
;
#BGCHANGES:;
#KEYSOUNDS:;
#ATTACKS:;

//---------------dance-single - Blank----------------
#NOTES:
     dance-single:
     :
     Hard:
     9:
     0.527,0.584,0.199,0.152,0.081,352.000,21.000,16.000,0.000,0.000,0.000,0.527,0.584,0.199,0.152,0.081,352.000,21.000,16.000,0.000,0.000,0.000: // measure 0
0000
0000
0000
0000
,  // measure 1
0000
0000
0000
0000
,  // measure 2
0000
0000
0000
0000
,  // measure 3
0000
0000
0000
0000
,  // measure 4
2000
0000
0000
0000
,  // measure 5
3200
0000
0000
0000
,  // measure 6
0302
0000
0000
0000
,  // measure 7
0023
0000
0000
0000
0000
0000
0000
0000
0000
0000
0000
0000
1030
0100
1000
0100
,  // measure 8
1000
0010
0000
0010
1000
0100
0000
0100
,  // measure 9
0010
0001
0000
0001
1000
0010
0000
0010
,  // measure 10
1000
0100
0000
0100
1000
0001
0000
0001
,  // measure 11
0010
0000
1000
0000
0000
0000
1000
0000
0010
0000
0000
0010
0001
0000
0100
0000
,  // measure 12
0110
0010
1000
0100
0010
0001
0100
0000
,  // measure 13
1010
1000
0100
0010
0001
0100
0010
0000
,  // measure 14
0101
0001
1000
0000
1100
1000
0001
0000
,  // measure 15
1010
0010
0100
0010
1000
0100
0010
0001
,  // measure 16
0100
0000
0001
0100
1000
0100
0001
0010
,  // measure 17
0100
0000
1000
0010
0001
0010
1000
0100
,  // measure 18
0010
0001
0100
1000
,  // measure 19
0010
0000
0001
0000
0100
0000
0010
0000
1000
0000
0000
1000
0010
0000
0100
0000
,  // measure 20
0001
0000
0010
0100
1000
0100
0001
0100
,  // measure 21
1000
0100
0001
0010
,  // measure 22
1000
0100
0010
0001
1000
0010
0100
0001
,  // measure 23
1000
1100
0000
0110
0000
0011
0000
0101
,  // measure 24
0100
0010
1000
0100
0001
0100
1000
0010
,  // measure 25
0100
0001
0010
1000
0010
0001
0100
0010
,  // measure 26
1000
0010
0001
0100
,  // measure 27
1000
0000
0100
0000
0010
0000
0001
0000
0100
0000
0000
0100
0001
0000
0010
0000
,  // measure 28
0011
0001
0100
0010
0100
0001
1000
0000
,  // measure 29
1010
1000
0100
0010
0001
0100
0010
0000
,  // measure 30
1010
1000
0001
0000
0011
0001
1000
0000
,  // measure 31
1100
0000
0000
1010
0000
0000
0011
0000
,  // measure 32
2000
0000
0000
0000
,  // measure 33
0020
0000
0000
3000
,  // measure 34
0002
0000
0000
0000
,  // measure 35
0000
0030
2000
0003
,  // measure 36
0200
0000
0000
3000
,  // measure 37
0002
0000
0000
0303
,  // measure 38
1000
0010
0100
0010
0001
1000
0100
0010
,  // measure 39
1000
0000
0100
0000
0001
0100
1000
0010
,  // measure 40
0100
1000
0001
0010
0001
1000
0100
0010
,  // measure 41
0001
0100
0001
0010
1000
0100
0001
0010
,  // measure 42
0001
0000
0100
0000
1000
0010
0001
1000
,  // measure 43
0100
0001
2002
0000
0000
0000
0000
0000
,  // measure 44
0000
0000
3003
1000
,  // measure 45
0000
0000
0001
0100
0001
0000
0010
0000
0100
0000
1000
0000
0010
0000
0000
0100
,  // measure 46
0000
0000
0102
0000
0000
0000
1003
0000
0100
0000
1000
0001
1000
0000
0010
0000
,  // measure 47
0100
0001
0010
1000
0010
0001
0100
0010
,  // measure 48
1000
0000
0001
0000
0010
0000
0000
0010
0100
0000
1000
0000
0001
0000
0100
0000
,  // measure 49
1000
0000
0000
0000
1000
0000
0100
0000
0001
0100
0001
0100
0001
0000
0000
0010
,  // measure 50
0000
0000
2100
0000
0000
0000
3001
0000
0010
0000
0001
1000
0001
0000
0100
0000
,  // measure 51
0010
0000
0100
0000
0001
0000
0010
0000
0100
1000
0100
1000
0100
0000
1000
0000
,  // measure 52
0000
0000
0010
0000
0000
0000
0100
0000
0001
0000
0010
0001
0010
0000
0100
0000
,  // measure 53
0010
0100
1000
0100
0010
0001
0100
0010
,  // measure 54
1000
0100
0001
0100
1000
1000
1000
0010
,  // measure 55
0100
0001
0010
0100
1000
0100
0010
0001
,  // measure 56
1000
0000
0010
0000
0100
0000
0000
0100
0001
0000
0010
0000
0100
0000
1000
0000
,  // measure 57
0010
0001
0010
1000
0100
0010
0001
0100
,  // measure 58
1000
0100
0001
0010
0100
0100
0100
1000
,  // measure 59
0010
0100
0010
1000
0100
0010
0001
0100
,  // measure 60
0010
0100
0001
0010
0100
1000
0001
0100
,  // measure 61
1000
0100
0001
0010
1000
0010
0001
0100
,  // measure 62
0010
1000
0100
0001
0100
1000
2020
0000
,  // measure 63
0000
0000
0000
0000
,  // measure 64
0000
0000
3030
1001
;

//---------------dance-single - Blank----------------
#NOTES:
     dance-single:
     :
     Medium:
     6:
     0.407,0.399,0.180,0.161,0.009,264.000,19.000,17.000,0.000,0.000,0.000,0.407,0.399,0.180,0.161,0.009,264.000,19.000,17.000,0.000,0.000,0.000:
0000
0000
0000
0000
,
0000
0000
0000
0000
,
0000
0000
0000
0000
,
0000
0000
0000
0000
,
2000
0000
0000
0000
,
3200
0000
0000
0000
,
0320
0000
0000
0000
,
0032
0000
0000
0000
0000
0000
1003
0100
,
1000
0010
0000
0010
0000
0100
0000
0100
,
0000
0001
0000
0001
0000
0010
0000
0010
,
0000
0100
0000
0100
0000
0001
0000
0001
,
0000
1000
0000
1000
0010
0000
0001
0100
,
0010
0100
0001
0000
0010
0001
0100
0000
,
0010
1000
0100
0000
1000
0100
0010
0000
,
0001
0001
1000
0000
1000
1000
0001
0000
,
1000
0100
1000
0010
,
0100
0000
0101
0000
1000
0000
0001
0010
,
0100
0000
1100
0000
0001
0000
1000
0100
,
0010
0001
0100
1000
,
0010
0001
0000
0010
0000
1000
0010
0000
,
0001
0000
0011
0000
1000
0000
0001
0100
,
1000
0100
0001
0010
,
1000
0100
0010
0000
0001
0010
0100
0000
,
1000
0010
0000
0100
0000
0001
0000
0100
,
0100
0000
1100
0000
0001
0000
1000
0010
,
0100
0000
0101
0000
0010
0000
0100
0010
,
1000
0010
0001
0100
,
1000
0100
0000
0001
0000
0100
0001
0000
,
0010
0001
0100
0000
0100
0001
1000
0000
,
0010
1000
0100
0000
0001
0100
0010
0000
,
1000
1000
0001
0000
0001
0001
1000
0000
,
1010
0000
0000
0110
0000
0000
0101
0000
,
0002
0000
0000
0000
,
0023
0000
0000
0000
,
0230
0000
0000
0000
,
0000
0000
2300
0000
,
0020
0000
0000
3000
,
0230
0000
0000
0000
,
0301
0010
0100
1000
0010
0100
0001
0000
,
1000
0000
0100
0000
0001
0100
1000
0010
,
0100
0001
1000
0000
0010
0000
0100
0000
,
1000
0100
0010
0100
1000
0001
0100
0000
,
0001
0000
0100
0000
1000
0100
0001
1000
,
0100
0010
0022
0000
0000
0000
0000
0000
,
0000
0000
0033
2000
,
0000
0000
0000
0000
0001
0000
0001
0000
3001
0000
0000
0000
0010
0000
0000
0100
,
0000
0002
0000
1003
0100
1000
1000
0000
,
0100
0001
0010
0000
0010
0001
0100
0000
,
1000
0001
0010
0000
0100
1000
0001
0000
,
1000
0000
0000
0000
0100
0000
0000
0000
0001
0000
0001
0000
0001
0000
0000
0010
,
0000
2000
0000
3001
0010
0001
0001
0000
,
0010
0100
1000
0000
0100
0100
0100
1000
,
0000
0010
0000
0100
0000
0001
0010
0100
,
1000
0010
0100
0000
0001
1000
0100
0000
,
1000
0010
0100
0000
0001
0010
0100
0000
,
1000
0010
1000
0000
0001
0100
0001
0000
,
0010
0100
1000
0000
0010
0100
0001
0000
,
1000
0100
1000
0000
0010
0100
0010
0000
,
0001
0010
0001
0000
0100
0010
0100
0000
,
0001
0011
1100
0010
,
0100
1001
0110
0001
,
0100
1010
0101
1000
,
0100
0011
1100
2002
,
0000
0000
0000
0000
,
0000
0000
3003
0110
;

//---------------dance-single - Blank----------------
#NOTES:
     dance-single:
     :
     Easy:
     4:
     0.278,0.369,0.114,0.199,0.000,172.000,12.000,21.000,0.000,0.000,0.000,0.278,0.369,0.114,0.199,0.000,172.000,12.000,21.000,0.000,0.000,0.000:
0000
0000
0000
0000
,
0000
0000
0000
0000
,
0000
0000
0000
0000
,
0000
0000
0000
0000
,
2000
0000
0000
0000
,
3002
0000
0000
0000
,
0203
0000
0000
0000
,
0320
0000
0000
0000
,
1030
0000
0100
0000
,
1000
0000
0001
0000
,
0010
0000
0001
0000
,
0100
0000
0010
0000
,
0100
0001
0010
0000
,
0100
1000
0010
0000
,
0100
0001
1000
0010
,
0100
0010
0100
0100
,
0001
0010
0100
0000
,
1000
0010
0100
0000
,
0001
0010
1000
0100
,
1000
0010
0001
0000
,
1000
0010
0100
0000
,
0001
0010
1000
0100
,
0001
0100
1000
0010
,
0001
0000
0110
0000
,
1000
0001
0100
0000
,
0001
1000
0010
0000
,
1000
0010
0001
0100
,
0001
0010
1000
0000
,
0010
1000
0100
0100
,
1000
0001
0010
0010
,
0001
0100
0010
0100
,
0001
0010
0100
1000
,
0002
0000
0000
0000
,
0203
0000
0000
0000
,
0320
0000
0000
0000
,
0000
0000
2030
0000
,
3002
0000
0000
0000
,
0023
0000
0000
0000
,
0130
1000
0010
0110
,
0101
0011
1001
1000
,
0010
0100
0001
0010
,
0100
1000
0001
0101
,
0110
1010
1001
0100
,
0010
2002
0000
0000
,
0000
0000
3003
0200
,
0000
0001
0310
1000
,
0001
0200
0000
0302
,
0000
0010
0103
2000
,
0001
0200
3300
0020
,
0000
0100
1030
0001
,
0010
0200
0000
1300
,
0010
0100
0000
0001
,
1000
0100
0000
1000
,
0010
0100
0010
1000
,
0001
0100
0000
0001
,
0010
0100
1000
0010
,
0100
0010
0000
1000
,
0001
0100
0010
0100
,
0001
0010
0000
0100
,
1000
0010
0100
0010
,
1000
0100
0010
0001
,
0100
0010
0100
0001
,
0010
0100
1000
2002
,
0000
0000
0000
0000
,
0000
0000
3003
0110
;

//---------------dance-single - Blank----------------
#NOTES:
     dance-single:
     :
     Beginner:
     2:
     0.183,0.276,0.038,0.133,0.000,117.000,4.000,14.000,0.000,0.000,0.000,0.183,0.276,0.038,0.133,0.000,117.000,4.000,14.000,0.000,0.000,0.000:
0000
0000
0000
0000
,
0000
0000
0000
0000
,
0000
0000
0000
0000
,
0000
0000
0000
0000
,
2000
0000
0000
3000
,
0002
0000
0000
0003
,
0200
0000
0000
0300
,
0020
0000
0000
0030
,
1000
0000
0100
0000
,
1000
0000
0001
0000
,
0010
0000
0001
0000
,
0100
0000
0010
0000
,
1000
0000
0010
0000
,
0100
0000
0001
0000
,
0100
0000
1000
0000
,
0100
0000
0001
0001
,
0001
0000
0100
0000
,
1000
0000
0100
0000
,
0001
0000
1000
0000
,
1000
0000
0001
0000
,
1000
0000
0100
0000
,
0001
0000
0100
0000
,
0010
0000
1000
0000
,
0001
0000
0010
0000
,
1000
0000
0100
0000
,
0001
0000
0010
0000
,
1000
0000
0001
0000
,
0001
0000
1000
0000
,
0010
0010
0010
0000
,
1000
1000
1000
0000
,
0001
0001
0001
0000
,
0010
0010
0010
0000
,
0002
0000
0000
0003
,
0200
0000
0000
0300
,
0020
0000
0000
0000
,
0000
0030
2000
3000
,
0002
0000
0000
0003
,
0020
0000
0000
0030
,
0100
0100
0000
0010
,
0010
0010
0010
0000
,
1000
1000
0000
0000
,
0100
0100
0000
0001
,
0001
0001
0001
0000
,
1001
2002
0000
0000
,
0000
0000
3003
0100
,
0000
0001
0000
1000
,
0000
0100
0000
0001
,
0000
0010
0000
1000
,
0000
0100
0000
0010
,
0000
0100
0000
0001
,
0000
0100
0000
1000
,
0000
0100
0000
0001
,
0000
0100
0000
1000
,
0000
0010
0000
1000
,
0000
0100
0000
0001
,
0000
0010
0000
1000
,
0000
0010
0000
1000
,
0000
0100
0000
0100
,
0000
0010
0000
0100
,
0000
0010
0000
0010
,
0000
0100
0000
0001
,
0000
0010
0000
0001
,
0000
0100
0000
2002
,
0000
0000
0000
0000
,
0000
0000
3003
1001
;
