#TITLE:流砂の嵐;
#SUBTITLE:;
#ARTIST:劇団レコード;
#TITLETRANSLIT:Ryuusha no Arashi;
#SUBTITLETRANSLIT:;
#ARTISTTRANSLIT:Gekidan Records;
#GENRE:;
#CREDIT:;
#MENUCOLOR:;
#METERTYPE:DDR;
#BANNER:[Speed Changes] - Ryuusha no Arashi.png;
#BACKGROUND:[Speed Changes] - Ryuusha no Arashi-bg.png;
#LYRICSPATH:;
#CDTITLE:cdtitle.png;
#MUSIC:[Speed Changes] - Ryuusha no Arashi.mp3;
#OFFSET:-0.840;
#SAMPLESTART:72.040;
#SAMPLELENGTH:13.000;
#SELECTABLE:YES;
#LISTSORT:;
#DISPLAYBPM:140.000:146.000;
#BPMS:0.000=140.000,32.000=146.000,236.000=151.000,237.000=145.000,238.000=140.000,239.000=148.000,240.000=140.000;
#STOPS:;
#BGCHANGES:;
#ATTACKS:;

//---------------dance-single - ----------------
#NOTES:
     dance-single:
     :
     Hard:
     7:
     0.505,0.521,0.359,0.136,0.060:
0000
0000
0000
0000
,
0000
0000
0000
0000
,
0000
0000
0000
0000
,
0000
0000
0000
0000
,
0001
0100
0000
0001
0010
0100
1000
0001
,
0200
0000
0000
0010
0310
0000
1000
0001
,
1000
0000
0000
0000
0010
0000
0000
0000
0100
0000
0000
0001
0000
0000
0100
0000
,
0010
1000
0100
0001
,
0010
0001
1000
0001
0010
0001
1000
0001
,
0010
0100
1000
0100
0010
0100
1000
0001
,
0200
0000
0310
0000
1000
0001
0100
0010
,
2000
0000
0000
0100
3100
0000
1000
0100
,
0010
0000
0000
0001
0000
0000
0100
0000
0020
0000
0000
0000
1030
0000
0000
0000
,
0100
0100
1001
1001
,
0010
0000
0000
1000
0000
0000
0010
0000
0100
0000
0001
0000
0000
0000
0010
0000
,
0100
1000
0001
0100
0010
0000
0001
0100
,
0020
0000
1030
0000
2000
0000
3001
1000
,
0100
0010
0100
0010
0001
1000
0001
1000
,
0200
0000
0310
0000
0001
1000
0100
0010
,
0002
0000
0000
0100
0103
0000
0001
0100
,
0010
0000
0000
1000
0000
0000
0100
0000
0010
0000
0000
0001
0000
0000
1000
0000
,
0010
0000
0000
0100
0000
0000
0000
0000
1001
0000
0000
0000
1001
0000
0000
0000
,
0010
1000
0100
1000
0010
0000
0100
0001
,
1000
0001
0100
0010
1000
0000
0001
0010
,
0200
0000
1300
0000
0001
0000
1000
0100
,
0001
0000
0100
0000
1000
0001
1000
0001
,
0200
0000
0000
0300
,
1010
0000
1010
0000
1010
0000
0001
1000
,
1100
0000
1100
0000
1100
0000
0001
0100
,
0101
0000
0101
0000
0101
0000
1000
0001
,
0011
0000
0011
0000
0011
0000
0100
1000
,
1001
0000
1001
0000
1001
0000
0010
0100
,
0110
0000
0110
0000
0110
0000
0100
0010
,
1010
0000
1010
0000
1010
0000
0010
1000
,
0000
2002
0000
3003
0110
0000
0110
0000
,
0001
0010
0100
1000
0001
0010
0100
0000
,
1000
0100
0010
0001
1000
0100
0010
0000
,
0001
0100
0010
1000
0001
0100
0010
0000
,
1000
0010
0100
0001
1000
0010
0100
0000
,
0001
0010
0100
1000
0001
0100
1000
0000
,
1000
0000
0100
0000
0001
0000
0010
0000
0100
0000
0000
1000
0000
0000
0001
0000
,
0000
1100
0000
0000
0101
0000
1100
0000
,
0001
0000
0000
1000
0000
0000
0010
0000
0110
0000
0000
0000
1001
0000
0000
0000
,
0001
0010
0100
0010
0001
0010
0100
1000
,
0001
0100
0002
0000
0000
0000
0000
0000
1003
0000
0000
0000
0001
0000
1000
0000
,
0100
0000
1000
0001
0100
0001
1000
0000
,
0100
0000
0010
0001
0100
0000
0010
0000
,
1000
0100
1000
0100
0010
0000
1001
0000
,
0001
0100
0001
0100
0010
0000
1001
0100
,
0010
0000
0000
0000
1000
0000
0001
0000
0100
0000
0000
0010
0000
0000
0100
0000
,
0001
0000
0000
1000
0000
0000
0001
0000
0100
0000
0000
0000
0110
0000
0000
0000
,
1000
0100
0010
0100
1000
0100
0010
0001
,
1000
0010
2000
0000
0000
0000
0000
0000
3001
0000
0000
0000
1000
0000
0001
0000
,
0010
0000
0001
1000
0010
1000
0001
0000
,
0010
0000
0100
1000
0010
0000
0100
0000
,
0001
0010
0001
0010
0100
0000
1001
0000
,
1010
0000
0110
0000
0101
0000
1001
0010
,
0100
0000
0000
0000
0001
0000
1000
0000
0010
0100
0010
0000
0100
0000
0001
0000
,
1000
0000
0100
1000
1001
0000
0110
0000
,
0020
0000
0000
0030
,
1000
0100
0000
0001
0010
0100
1000
0010
,
0001
0000
1000
0100
0001
0000
1000
0100
,
0001
0000
0000
0000
0100
0000
0000
0000
1000
0000
0000
0001
0000
0000
0100
0000
,
1000
0000
0100
0001
0010
0000
0100
0000
,
1000
0001
0000
0010
1000
0010
0001
0100
,
0010
0000
1000
0100
0010
0000
0001
0100
,
0010
0000
0000
0000
1001
0000
0000
0000
0001
0000
0000
1000
0000
0000
0100
0000
,
0001
0100
1000
0010
,
1000
0100
0100
0100
0010
0001
0001
0001
,
1000
0010
0010
0010
1000
0100
0001
0100
,
1000
0001
2002
0000
,
0000
0000
0000
0000
,
0000
0000
3003
0000
;

//---------------dance-single - ----------------
#NOTES:
     dance-single:
     :
     Medium:
     5:
     0.378,0.376,0.064,0.072,0.004:
0000
0000
0000
0000
,
0000
0000
0000
0000
,
0000
0000
0000
0000
,
0000
0000
0000
0000
,
0001
0000
1000
0000
,
0001
0000
0010
0000
0100
0000
1000
0010
,
0100
0001
1000
0001
,
0100
0010
0010
0010
,
1000
0100
1000
0000
0001
0100
0001
0000
,
1000
0000
0001
0000
0100
0000
0010
1000
,
0010
0000
0100
0000
0001
0010
0100
1000
,
0002
1000
2000
3003
,
0010
0000
1000
0010
0100
0000
0001
0000
,
1000
0000
0001
0010
0100
0000
1000
0000
,
0001
0100
0001
0000
1000
0100
1000
0000
,
0001
0000
0010
0100
1000
0000
0001
0000
,
0100
0100
0010
0010
,
1000
0000
1001
0000
0001
0000
0010
0001
,
0010
0000
0100
0000
1000
0010
0100
0001
,
2000
0001
0002
3003
,
0010
0000
0001
0010
0100
0000
1000
0000
,
0001
0000
1000
0010
0100
0000
0001
0000
,
1000
0100
1000
0000
0001
0100
0001
0000
,
1000
0000
0010
0100
0001
0000
1000
0000
,
0100
0100
0010
0010
,
0001
1001
1000
1001
,
0020
0000
0000
0030
,
1000
0000
1000
0000
1000
0000
1000
0001
,
0100
0000
0100
0000
0100
0000
0100
0010
,
1000
0000
1000
0000
1000
0000
1000
0100
,
0001
0000
0001
0000
0001
0000
0001
0010
,
1000
0000
1000
0000
1000
0000
1000
0010
,
0100
0000
0100
0000
0100
0000
0100
0010
,
0001
0000
0001
0000
0001
0000
0001
1000
,
0100
0010
0000
0000
1100
0000
0101
0000
,
0001
0100
0001
0000
1000
0000
1000
0000
,
0001
0100
0001
0000
0010
0000
0010
0000
,
1000
0100
1000
0000
0001
0000
0001
0000
,
1000
0100
1000
0000
0010
0000
0010
0000
,
0100
0001
0010
0000
1000
0001
0100
0000
,
0010
1000
0100
0000
0001
0100
0010
1000
,
0000
0001
0000
0000
1001
0000
1001
0000
,
0010
0000
0000
0010
0000
0000
0010
0000
0200
0000
0000
0000
0300
0000
0000
0000
,
0001
0000
1000
0000
0001
0010
0100
0000
,
1000
0000
0001
0000
1000
0000
0001
0100
,
0010
0000
1000
0000
0001
0010
0100
0000
,
1000
0001
0100
0100
,
0010
1000
0010
0000
0100
0000
0100
0000
,
0001
0010
0001
0000
0100
0000
0001
0010
,
0100
1000
0001
1000
,
0010
0100
0001
0000
0010
0000
0100
0000
,
1000
0000
0001
0000
1000
0010
0100
0000
,
0001
0000
1000
0000
0001
0000
1000
0100
,
0010
0000
0001
0000
1000
0010
0100
0000
,
0001
1000
0100
0100
,
0010
0001
0010
0000
0100
0000
0100
0000
,
1000
0010
1000
0000
0100
0000
1000
0010
,
0100
0001
1000
0001
,
0010
0000
0100
1000
0010
0000
0100
0000
,
0002
0000
0000
0003
,
1000
0000
0001
0000
1000
0100
0010
0000
,
0001
0000
0010
0100
1000
0000
0001
0100
,
0010
1000
0010
0100
,
0001
1000
0100
0010
,
0001
0000
1000
0000
0001
0100
0010
0000
,
1000
0000
0010
0100
0001
0000
1000
0100
,
0010
0001
0010
0100
,
1000
0001
0100
0010
,
1000
0100
1000
0000
0100
0001
0100
0000
,
0001
0010
0001
0000
0010
1000
0010
0000
,
1000
0001
2002
0000
,
0000
0000
0000
0000
,
0000
0000
3003
0000
;

//---------------dance-single - ----------------
#NOTES:
     dance-single:
     :
     Easy:
     3:
     0.212,0.253,0.088,0.016,0.000:
0000
0000
0000
0000
,
0000
0000
0000
0000
,
0000
0000
0000
0000
,
0000
0000
0000
0000
,
0001
0000
1000
0000
,
0100
0100
0100
0000
,
1000
0000
0001
0000
,
0100
0000
0100
0000
,
0010
1000
0010
0000
,
0100
0001
0100
0000
,
0001
0000
0010
0000
,
0100
1000
0001
0000
,
0100
0001
1000
0100
,
0010
0001
0100
0000
,
0010
1000
0010
0000
,
0100
0001
0100
0000
,
0001
0010
0100
1000
,
0001
0100
0100
0100
,
0010
0000
1000
0000
,
0001
0010
0100
0000
,
1000
0000
0001
0000
,
1000
0010
0100
0000
,
0001
0010
0100
1000
,
0100
0010
0001
0000
,
1000
0010
0100
0001
,
0100
0010
1000
0000
,
0200
0000
0000
0300
,
1000
0000
1100
0000
,
0001
0000
0101
0000
,
1000
0000
1010
0000
,
0001
0000
0011
0000
,
1000
0000
1001
0000
,
0010
0000
0110
0000
,
1000
0000
1100
0000
,
0001
0000
1000
0010
,
0100
0010
0100
0000
,
0001
0100
1000
0000
,
0100
0001
0010
0000
,
1000
0010
0001
0000
,
0100
0010
1000
0000
,
0100
0010
0001
1000
,
0000
0000
0100
0010
,
0001
0000
1000
0000
,
0010
0000
0010
0000
,
0100
0001
0100
0000
,
0010
0000
0010
0000
,
1000
0100
1000
0000
,
0001
0000
0010
0000
,
0100
1000
0001
0000
,
1000
0000
0100
0000
,
0010
0001
1000
0000
,
0001
0000
0001
0000
,
0100
0010
1000
0000
,
0010
0000
0010
0000
,
0100
0001
1000
0000
,
0100
0010
0001
0000
,
1000
0100
0010
0000
,
0001
0000
0010
0000
,
1000
0000
0100
0000
,
0020
0000
0000
0030
,
0010
0000
0010
0000
,
0100
0001
0010
0000
,
0100
0000
0100
0000
,
0010
0001
0100
0000
,
0010
0000
0010
0000
,
1000
0100
0010
0000
,
0100
0000
0100
0000
,
1000
0010
0100
0000
,
0001
0000
1100
0000
,
1000
0000
0101
0000
,
0110
0000
1001
0000
;

//---------------dance-single - ----------------
#NOTES:
     dance-single:
     :
     Beginner:
     1:
     0.092,0.141,0.000,0.000,0.000:
0000
0000
0000
0000
,
0000
0000
0000
0000
,
0000
0000
0000
0000
,
0000
0000
0000
0000
,
0100
0000
0000
0000
,
0100
0000
0000
0000
,
0100
0000
0000
0000
,
0100
0000
0000
0000
,
0001
0000
0000
0000
,
1000
0000
0000
0000
,
0001
0000
0000
0000
,
1000
0000
0000
0000
,
0001
0000
0000
0000
,
1000
0000
0000
0000
,
0100
0000
0100
0000
,
0100
0000
0000
0000
,
1000
0000
1000
0000
,
1000
0000
0000
0000
,
0001
0000
0000
0000
,
0100
0000
0000
0000
,
1000
0000
0000
0000
,
0100
0000
0000
0000
,
0001
0000
0001
0000
,
0001
0000
0000
0000
,
1000
0000
1000
0000
,
1000
0000
0000
0000
,
0100
0000
0000
0000
,
0010
0000
0000
0000
,
0010
0000
0000
0000
,
0010
0000
0000
0000
,
0010
0000
0000
0000
,
0100
0000
0000
0000
,
0100
0000
0000
0000
,
0100
0000
0000
0000
,
0100
0000
0000
0000
,
0001
0000
0000
0000
,
1000
0000
0000
0000
,
0001
0000
0000
0000
,
1000
0000
0000
0000
,
0100
0000
0000
0000
,
0100
0000
0000
0000
,
0000
0000
0000
0000
,
0100
0000
0000
0000
,
0001
0000
0001
0000
,
0001
0000
0000
0000
,
1000
0000
1000
0000
,
1000
0000
0000
0000
,
0100
0000
0100
0000
,
0100
0000
0000
0000
,
1000
0000
1000
0000
,
1000
0000
0000
0000
,
0001
0000
0001
0000
,
0001
0000
0000
0000
,
1000
0000
1000
0000
,
1000
0000
0000
0000
,
0100
0000
0100
0000
,
0100
0000
0000
0000
,
1000
0000
1000
0000
,
1000
0000
0000
0000
,
0100
0000
0000
0000
,
0010
0000
0000
0000
,
0010
0000
0000
0000
,
0010
0000
0000
0000
,
0010
0000
0000
0000
,
0100
0000
0000
0000
,
0100
0000
0000
0000
,
0100
0000
0000
0000
,
0100
0000
0000
0000
,
1000
0000
1000
0000
,
1000
0000
1000
0000
,
1000
0000
1000
0000
;

//---------------dance-double - ----------------
#NOTES:
     dance-double:
     :
     Hard:
     9:
     0.545,0.550,0.152,0.223,0.223:
00000000
00000000
00000000
00000000
,
00000000
00000000
00000000
00000000
,
00000000
00000000
00000000
00000000
,
00000000
00000000
00000000
00000000
,
00000001
00000100
00000000
00000010
00010000
00001000
01000000
00010000
,
00200000
00000000
00000000
00000000
00000000
00000000
01300000
10000000
01000000
00000000
00000000
00000000
00100000
00000000
00010000
00000000
,
01000000
00000000
00000000
00000000
00011000
00000000
00000000
00000000
00010000
00000000
00000000
00001000
00000000
00000000
00000010
00000000
,
00000001
00000010
00000100
00010000
,
00001000
00000100
00000010
00010000
00001000
00000100
00100000
00010000
,
00001000
01000000
00100000
00010000
00100000
10000000
01000000
00100000
,
00020000
00000000
10030000
00000000
00010000
01000000
00001000
00010000
,
02000000
00000000
00000000
00000000
00000000
00000000
03010000
00001000
00010000
00000000
00000000
00000000
00001000
00000000
00010000
00000000
,
00000100
00000000
00000000
00000010
00000000
00000000
00000001
00000000
00000200
00000000
00000000
00000000
00000310
00000000
00000000
00000000
,
00001010
00000000
00010100
00000000
00000100
00010000
00002000
00000000
,
00013000
01000000
10000000
00100000
00010000
00001000
00000100
00000001
,
00000010
00000100
00001000
00000001
00000100
00000000
00000001
00000100
,
00001000
00000000
00010000
00000000
10000000
00000000
00010000
00001000
,
02000000
00000000
03020000
00000000
00230000
00000000
10300000
00100000
,
00010000
00000000
00001000
00000000
00000100
00010000
00001000
01000000
,
00200000
00000000
00000000
00000000
00000000
00000000
10300000
01000000
10000000
00000000
00000000
00000000
00010000
00000000
01000000
00000000
,
00001000
00000000
00000000
00000010
00000000
00000000
00000001
00000000
00000100
00000000
00000000
00001000
00000000
00000000
00010000
00000000
,
00000010
00000000
00000000
00001000
00000000
00000000
00000000
00000000
00101000
00000000
00000000
00000000
00010100
00000000
00000000
00000000
,
01000000
00001000
00010000
00000100
00010000
00000000
00000010
00010000
,
00001000
00100000
00010000
10000000
01000000
00000000
00010000
00001000
,
00000020
00000000
00000031
00000000
00001000
00000100
00010000
00001000
,
00100000
00010000
00100000
00010000
01000000
10000000
01000000
10000000
,
00020000
00000000
00130000
00010000
00001000
00000100
00000001
00000000
,
00000010
00000000
00000000
00000010
00000100
00000000
00000000
00000100
00001000
00000000
00000000
00001000
00000001
00000000
00000100
00000000
,
00001000
00000000
00000000
00001000
00010000
00000000
00000000
00010000
01000000
00000000
00000000
01000000
10000000
00000000
00100000
00000000
,
00010000
00000000
00000000
00010000
10000000
00000000
00000000
10000000
01000000
00000000
00000000
01000000
00001000
00000000
00010000
00000000
,
00000100
00000000
00000000
00000100
00000010
00000000
00000000
00000010
00000001
00000000
00000000
00000001
00001000
00000000
00000010
00000000
,
00000100
00000000
00000000
00000100
00001000
00000000
00000000
00001000
00000001
00000000
00000000
00000001
00000010
00000000
00000100
00000000
,
00000001
00000000
00000000
00000001
00000100
00000000
00000000
00000100
00010000
00000000
00000000
00010000
00001000
00000000
00100000
00000000
,
00010000
00000000
00000000
00010000
00100000
00000000
00000000
00100000
10000000
00000000
00000000
10000000
01000000
00000000
00100000
00000000
,
00000000
02020000
00000000
03030000
00011000
00000000
00001001
00000000
,
00000001
00000000
00000100
00000000
00001000
00000000
00010000
00000000
00100000
10000000
00100000
00000000
01000000
00000000
00000000
00000000
,
00010000
00000000
10000000
00000000
01000000
00000000
00010000
00000000
00001000
00100000
00001000
00000000
00000010
00000000
00000000
00000000
,
00000001
00000000
00000100
00000000
00010000
00000000
00001000
00000000
00100000
01000000
00100000
00000000
10000000
00000000
00000000
00000000
,
10000000
00000000
01000000
00000000
00001000
00000000
00010000
00000000
00000010
00000100
00000010
00000000
00000001
00000000
00000000
00000000
,
00000001
00000010
00001000
00000000
00010000
00000000
01000000
00000000
,
10000000
00000000
00100000
00000000
00010000
00000000
00000000
00000000
00001000
00000000
00000000
00000100
00000000
00000000
00000001
00000000
,
00000000
00001100
00000000
00000000
00011000
00000000
10010000
00000000
,
10000000
00000000
00000000
00010000
00000000
00000000
00001000
00000000
00010000
00000000
00000000
00000000
00011000
00000000
00000000
00000000
,
00010000
00100000
10000000
01000000
00010000
00001000
00000010
00000001
,
00000100
00000001
00000200
00000000
00000000
00000000
00000000
00000000
00000320
00000000
00000000
00000000
00010030
00000000
00001000
00000100
,
00002000
00000000
00000000
00000000
00013000
00000000
01000000
00000000
10000000
00000000
00100000
00010000
00100000
00000000
01000000
00000000
,
00020000
00000000
00000000
00000000
00000000
00000000
10030000
01000000
10000000
00000000
00000000
00000000
00110000
00000000
00000000
00000000
,
00100000
00000000
01000000
10000000
01000000
00000000
00100000
00000000
00001000
00000000
00010000
00000000
00000100
00000000
00001000
00000000
,
00000010
00000000
00000100
00000001
00000100
00000000
00000010
00000000
00002000
00000000
00000000
00000000
00003001
00000000
00000100
00000000
,
00001000
00000000
00000000
00000000
00010000
00000000
00100000
00000000
10000000
00000000
00000000
01000000
00000000
00000000
10000000
00000000
,
01000000
00000000
00000000
00001000
00000000
00000000
00000100
00000000
00010000
00000000
00000000
00000000
00011000
00000000
00000000
00000000
,
00001000
00000100
00000001
00000010
00001000
00010000
01000000
10000000
,
00100000
10000000
00200000
00000000
00000000
00000000
00000000
00000000
02300000
00000000
00000000
00000000
03001000
00000000
00010000
00100000
,
00020000
00000000
00000000
00000000
00031000
00000000
00000010
00000000
00000001
00000000
00000100
00001000
00000100
00000000
00000010
00000000
,
00002000
00000000
00000000
00000000
00000000
00000000
00003001
00000010
00000001
00000000
00000000
00000000
00001100
00000000
00000000
00000000
,
00000100
00000000
00000010
00000001
00000010
00000000
00000100
00000000
00010000
00000000
00001000
00000000
00100000
00000000
00010000
00000000
,
01000000
00000000
00100000
10000000
00100000
00000000
01000000
00000000
00020000
00000000
00000000
00000000
10030000
00000000
00100000
00000000
,
00010000
00000000
00000000
00000000
00001000
00000000
00000100
00000000
00000001
00000010
00000001
00000010
00000001
00000000
00000100
00000000
,
00010000
00000000
00000000
00000000
00100000
00000000
00001000
00010000
00001000
00000000
00000000
00000000
00011000
00000000
00000000
00000000
,
00000200
00000000
00000000
00000300
,
00000001
00000100
00000000
00000010
00010000
00001000
01000000
00010000
,
00200000
00000000
00000000
00000000
00000000
00000000
01300000
10000000
01000000
00000000
00000000
00000000
00100000
00000000
00010000
00000000
,
01000000
00000000
00000000
00000000
00011000
00000000
00000000
00000000
00001000
00000000
00000000
00000010
00000000
00000000
00000001
00000000
,
00000100
00001000
00010000
00100000
,
10000000
00100000
00000000
01000000
00001000
00010000
00000010
00001000
,
00000200
00000000
00000000
00000000
00000000
00000000
00000310
00000001
00000010
00000000
00000000
00000000
00000100
00000000
00001000
00000000
,
00000010
00000000
00000000
00000000
00011000
00000000
00000000
00000000
00001000
00000000
00000000
00010000
00000000
00000000
01000000
00000000
,
10000000
01000000
00100000
00001000
,
00010000
00001000
00000100
00000010
00100000
00010000
00001000
00000100
,
01000000
00100000
00010000
00001000
10000000
01000000
00100000
00010000
,
00001000
00010000
00022000
00000000
,
00000000
00000000
00000000
00000000
,
00000000
00000000
00033000
00000000
;

//---------------dance-double - ----------------
#NOTES:
     dance-double:
     :
     Medium:
     5:
     0.326,0.376,0.072,0.056,0.008: // measure 1
00000000
00000000
00000000
00000000
,  // measure 2
00000000
00000000
00000000
00000000
,  // measure 3
00000000
00000000
00000000
00000000
,  // measure 4
00000000
00000000
00000000
00000000
,  // measure 5
10000000
00010000
01000000
00001000
,  // measure 6
00010000
00010000
00000100
00001000
,  // measure 7
00000010
00000000
00000110
00000000
,  // measure 8
00000001
00000010
00000100
00000000
,  // measure 9
00001000
00000100
00010000
00001000
,  // measure 10
00100000
00010000
01000000
00100000
,  // measure 11
20000000
01000000
31000000
00000000
,  // measure 12
00200000
00010000
00310000
00000000
,  // measure 13
00002000
00000100
00003100
00000000
,  // measure 14
00000020
00000001
00000031
00000001
,  // measure 15
00000100
00000000
00000001
00000000
00001000
00000100
00010000
00000000
,  // measure 16
00001000
01000000
00010000
00000000
,  // measure 17
10000000
00000000
01000000
00000000
00100000
00000000
00001000
00010000
,  // measure 18
00000100
00000010
00000001
00000000
,  // measure 19
00000100
00000010
00001000
00000000
,  // measure 20
00000100
00010000
00001000
00000000
,  // measure 21
00100000
00010000
01000000
00100000
,  // measure 22
10000000
01000000
00100000
00010000
,  // measure 23
01000000
00001000
01000000
00000000
00001000
00000000
00010000
00000000
,  // measure 24
00000100
00010000
00000100
00000000
00001000
00000000
00000010
00000000
,  // measure 25
00000100
00000100
00000001
00000010
,  // measure 26
00000100
00000100
00010000
00001000
,  // measure 27
00011000
00000000
00000000
00000000
,  // measure 28
00001000
00010000
00100000
10000000
,  // measure 29
01000000
00010000
00001000
00000010
,  // measure 30
00000001
00000100
00001000
00010000
,  // measure 31
00100000
10000000
01000000
00010000
,  // measure 32
00001000
00000010
00000001
00000100
,  // measure 33
00001000
00010000
00100000
10000000
,  // measure 34
01000000
00000000
00010000
00000000
00001000
00000000
00000010
00000001
,  // measure 35
00000000
00000100
00000000
00000000
00001001
00000000
00001001
00000000
,  // measure 36
00000010
00001000
00000010
00000000
00001000
00000000
00000100
00000000
,  // measure 37
00010000
00001000
00010000
00000000
00001000
00000000
01000000
00000000
,  // measure 38
00010000
00100000
00010000
00000000
01000000
00000000
00100000
00000000
,  // measure 39
10000000
01000000
10000000
00000000
00010000
00000000
01000000
00000000
,  // measure 40
00001000
00010000
00000100
00001000
,  // measure 41
00000010
00000000
00000000
00000000
00000010
00000000
00000000
00000000
00000100
00000000
00000000
00000100
00000000
00000000
00000100
00000000
,  // measure 42
00000000
00000001
00000000
00000000
00001100
00000000
00011000
00000000
,  // measure 43
00001000
00000000
00000000
00010000
00000000
00000000
00001000
00000000
00010000
00000000
00000000
00000000
00001000
00000000
00000000
00000000
,  // measure 44
01000000
00010000
00100000
00000000
00010000
00000000
01000000
00000000
,  // measure 45
00001000
00000000
00010000
00000000
00000010
00000000
00001000
00000100
,  // measure 46
00000010
00000000
00000001
00000000
00000100
00000000
00000010
00001000
,  // measure 47
00000100
00010000
00001000
01000000
,  // measure 48
00010000
10000000
00010000
10000000
01000000
00000000
00100000
00000000
,  // measure 49
00001000
00010000
00001000
00010000
00000100
00000000
00001000
00000000
,  // measure 50
00000010
00000100
00000001
00000010
,  // measure 51
00001000
00010000
01000000
10000000
,  // measure 52
00010000
01000000
00100000
00000000
01000000
00000000
00001000
00000000
,  // measure 53
00010000
00001000
00000010
00000000
00001000
00000000
00010000
00000000
,  // measure 54
00000010
00000000
00000100
00000001
00001000
00000000
00000100
00000000
,  // measure 55
00000010
00000100
00010000
00001000
,  // measure 56
01000000
00010000
01000000
00010000
00100000
00000000
00001000
00000000
,  // measure 57
00010000
00000100
00010000
00000100
00001000
00000000
00000010
00000100
,  // measure 58
00000001
00000000
00000010
00000000
00000100
00001000
00000100
00000000
,  // measure 59
00010000
00001000
00100000
00000000
,  // measure 60
02000000
00000000
00000000
03000000
,  // measure 61
10000000
00010000
01000000
00001000
,  // measure 62
00010000
00010000
00000100
00001000
,  // measure 63
00000010
00000000
00000110
00000000
,  // measure 64
00000001
00000010
00000100
00001000
,  // measure 65
00000001
00001000
00000010
00010000
,  // measure 66
00001000
00001000
00100000
00010000
,  // measure 67
01000000
00000000
01100000
00000000
,  // measure 68
10000000
01000000
00100000
00010000
,  // measure 69
10000000
00100000
01000000
00010000
,  // measure 70
00100000
00001000
00010000
00000100
,  // measure 71
00001000
00000000
00002002
00000000
,  // measure 72
00000000
00000000
00000000
00000000
,  // measure 73
00000000
00000000
00003003
00000000
;

//---------------dance-double - ----------------
#NOTES:
     dance-double:
     :
     Easy:
     3:
     0.203,0.253,0.088,0.048,0.000: // measure 1
00000000
00000000
00000000
00000000
,  // measure 2
00000000
00000000
00000000
00000000
,  // measure 3
00000000
00000000
00000000
00000000
,  // measure 4
00000000
00000000
00000000
00000000
,  // measure 5
10000000
00000000
01000000
00000000
,  // measure 6
00100000
00100000
00100000
00000000
,  // measure 7
00001000
00000000
00010000
00000000
,  // measure 8
00000100
00000000
00001000
00000000
,  // measure 9
00000001
00000100
00000001
00000000
,  // measure 10
00001000
00000100
00001000
00000000
,  // measure 11
00000100
00000000
00010000
00000000
,  // measure 12
00001000
00010000
00001000
00000000
,  // measure 13
01000000
00001000
00100000
00001000
,  // measure 14
01000000
00000000
00010000
00000000
,  // measure 15
01000000
00010000
01000000
00000000
,  // measure 16
00001000
01000000
00001000
00000000
,  // measure 17
00010000
00000000
00000100
00000000
,  // measure 18
00001000
00000100
00000010
00000001
,  // measure 19
00000010
00000000
00000100
00000000
,  // measure 20
00001000
00000100
00010000
00000000
,  // measure 21
00001000
00000000
01000000
00000000
,  // measure 22
00010000
00100000
00001000
00000000
,  // measure 23
00010000
00000000
00001000
00000000
,  // measure 24
00010000
00000100
00001000
00000000
,  // measure 25
00000001
00000000
00000100
00000000
,  // measure 26
00001000
00010000
00100000
00000000
,  // measure 27
20000000
00000000
00000000
30000000
,  // measure 28
10000000
00000000
10010000
00000000
,  // measure 29
00010000
00000000
00011000
00000000
,  // measure 30
00001000
00000000
00001001
00000000
,  // measure 31
00000001
00000000
00001001
00000000
,  // measure 32
00001000
00000000
00011000
00000000
,  // measure 33
00010000
00000000
10010000
00000000
,  // measure 34
10000000
00000000
10010000
00000000
,  // measure 35
00010000
00000000
10000000
00100000
,  // measure 36
01000000
00000000
00010000
00000000
,  // measure 37
00100000
00001000
00010000
00000000
,  // measure 38
00000100
00000000
00010000
00000000
,  // measure 39
00000010
00001000
00000100
00000000
,  // measure 40
00000001
00000100
00001000
00000000
,  // measure 41
00000100
00000000
00010000
00000000
,  // measure 42
00000000
00000000
00001000
00001000
,  // measure 43
00001000
00000000
01000000
00000000
,  // measure 44
00001000
00000000
00010000
00000000
,  // measure 45
00000100
00001000
00000100
00000000
,  // measure 46
00000010
00000000
00000010
00000000
,  // measure 47
00000001
00000100
00001000
00000000
,  // measure 48
00010000
00000000
00010000
00000000
,  // measure 49
00001000
01000000
00001000
00000000
,  // measure 50
00010000
00000000
01000000
00000000
,  // measure 51
10000000
00010000
10000000
00000000
,  // measure 52
00001000
00000000
00010000
00000000
,  // measure 53
00000100
00010000
00001000
00000000
,  // measure 54
00000010
00000000
00000010
00000000
,  // measure 55
00000001
00000100
00001000
00000000
,  // measure 56
00010000
00001000
01000000
00000000
,  // measure 57
01100000
01100000
01100000
00000000
,  // measure 58
10000000
00000000
01000000
00000000
,  // measure 59
00100000
00000000
00001000
00000000
,  // measure 60
00020000
00000000
00000000
00030000
,  // measure 61
00001000
00000000
00010000
00000000
,  // measure 62
00000100
00001000
00000010
00000000
,  // measure 63
00000001
00000000
00000001
00000000
,  // measure 64
00000100
00000000
00000100
00000000
,  // measure 65
00000010
00000000
00000010
00000000
,  // measure 66
00010000
00001000
00010000
00000000
,  // measure 67
01000000
00000000
01000000
00000000
,  // measure 68
10000000
00100000
01000000
00000000
,  // measure 69
00020000
00000000
02030000
00000000
,  // measure 70
03002000
00000000
00203000
00000000
,  // measure 71
00301000
00000000
00011000
00000000
;
