#TITLE:Oil Spill;
#SUBTITLE:;
#ARTIST:Tabitha Johansson;
#TITLETRANSLIT:;
#SUBTITLETRANSLIT:;
#ARTISTTRANSLIT:;
#CREDIT:Chewperion;
#BANNER:;
#BACKGROUND:;
#LYRICSPATH:;
#CDTITLE:;
#MUSIC:[Speed Changes] - Oil Spill.ogg;
#OFFSET:-0.471;
#SAMPLESTART:23.176;
#SAMPLELENGTH:17.538;
#SELECTABLE:YES;
#DISPLAYBPM:*;
#BPMS:0.000=66.000,5.000=53.000,6.000=46.000,7.000=97.000,8.000=66.000,22.000=74.000,23.000=31.000,23.500=50.000,24.000=130.000,62.000=52.000,63.000=69.000,64.000=62.000,65.000=80.000,66.000=122.000,67.000=130.000,110.000=128.000,113.000=130.000,121.000=100.000;
#STOPS:;
#BGCHANGES:0.042=[Speed Changes] - Oil Spill.avi=1.000=0=0=1,
99999=-nosongbg-=1.000=0=0=0 // don't automatically add -songbackground-
;

//---------------dance-single - ----------------
#NOTES:
     dance-single:
     :
     Beginner:
     1:
     0.167,0.272,0.177,0.286,0.034: // measure 1
0000
1000
0001
0000
,  // measure 2
0000
0000
0MM0
0001
,  // measure 3
2000
0000
3000
0002
,  // measure 4
2000
0000
0000
0000
0000
0000
0000
0000
0000
0000
0000
0000
0000
0000
0000
0000
0000
0000
0000
0000
0000
0000
0000
0000
0000
0000
0000
0000
0000
0000
0000
0000
0000
0000
0000
0000
0000
0000
0000
0000
0000
0000
0000
0000
0000
0000
0000
0000
0000
0000
0000
0000
0000
0000
0000
0000
0000
0000
0000
0000
0000
0000
0000
0000
0000
0000
0000
0000
0000
0000
0000
0000
0000
0000
0000
0000
0000
0000
0000
0000
3003
0000
0000
0000
0000
0000
0000
0000
0000
0000
0000
0000
0000
0000
0000
0000
0000
0000
0000
0000
0000
0000
0M00
0000
0000
0000
0000
0000
0000
0000
0000
0000
0000
0000
0000
0000
0000
0000
0000
0000
0000
0000
0000
0000
0000
0000
0000
0000
0000
0000
0000
0000
0000
0000
0000
0000
0000
0000
0000
0000
0000
0000
0000
0000
0000
0000
0000
0000
0000
0000
0000
0000
0000
0000
0000
0000
0000
0000
0000
0000
0000
0000
0000
0000
0000
0000
0000
0000
0000
0000
0000
0000
0000
0000
0000
0000
0000
0000
0000
0000
0000
0000
0000
0000
0000
0000
0000
0000
0000
0000
0000
0000
,  // measure 5
0010
0000
0000
0000
0000
0000
0000
0000
0000
0000
0000
0000
0000
0000
0000
0000
0000
0100
0000
0000
0000
0000
0100
0000
0000
0000
0000
0000
0000
0000
0000
0100
0000
0000
0000
0000
0000
0000
0000
0000
0000
0000
0000
0000
0000
0000
0000
0000
,  // measure 6
2002
0000
3003
0000
0000
00M0
0000
0000
0000
0000
0000
0000
0000
0000
0000
0000
0000
0000
0000
0000
0000
0000
0000
0000
0220
0000
0000
0000
0330
0000
0000
0000
,  // measure 7
0100
0000
0100
0000
,  // measure 8
0100
0100
0100
0000
,  // measure 9
0010
0000
0010
0000
,  // measure 10
0010
0010
0010
0000
,  // measure 11
2002
0000
3003
0000
,  // measure 12
0000
0000
0000
0000
,  // measure 13
2002
0000
3003
0000
,  // measure 14
0000
0000
0000
0000
,  // measure 15
2002
0000
0000
3003
,  // measure 16
0000
0000
0000
0MM0
0000
0000
0001
1000
,  // measure 17
0001
00M0
0000
0000
0100
0000
0100
0000
,  // measure 18
0100
0000
0010
0000
,  // measure 19
0110
0000
0010
0010
,  // measure 20
0010
0000
1000
0000
,  // measure 21
1001
0000
0220
0000
,  // measure 22
0330
0000
0000
0000
,  // measure 23
0000
1000
1000
1000
,  // measure 24
0000
0001
0000
1001
,  // measure 25
0000
0001
0001
0001
,  // measure 26
0000
1000
0000
1001
,  // measure 27
0000
0220
0000
0330
,  // measure 28
0000
0000
0000
0000
,  // measure 29
0000
0220
0000
0000
,  // measure 30
0330
0000
0000
0000
,  // measure 31
0000
2002
0000
3003
;

//---------------dance-single - ----------------
#NOTES:
     dance-single:
     :
     Easy:
     3:
     0.214,0.272,0.095,0.272,0.048: // measure 1
0000
0000
0000
0000
0000
0000
0000
0000
0000
0000
0000
0000
1000
0000
0000
0000
0000
0000
0000
0000
0000
0000
0000
0000
0001
0000
0000
0000
0000
0000
0000
0000
0000
0000
0000
0000
0100
0000
0000
0000
0000
0000
0000
0001
0000
0000
0000
0000
,  // measure 2
1000
0020
0030
0000
00M0
0000
0010
0000
,  // measure 3
2000
0000
0000
0000
3000
1000
0001
0010
,  // measure 4
0100
0000
0000
0000
0000
0000
0000
0000
0000
0000
0000
0000
0000
0000
0000
0000
2000
0000
0000
0000
0000
0000
0000
0000
0000
0000
0000
0000
0000
0000
0000
0000
0000
0000
0000
0000
0000
0000
0000
0000
0000
0000
0000
0000
0000
0000
0000
0000
0000
0000
0000
0000
0000
0000
0000
0000
0000
0000
0000
0000
0000
0000
0000
0000
0000
0000
0000
0000
0000
0000
0000
0000
0000
0000
0000
0000
0000
0000
0000
0000
3000
0000
0000
0000
0000
0000
0000
0000
0000
0000
0000
0000
0000
0000
0000
0000
0000
0000
0000
0000
0000
0000
M000
0000
0000
0000
0000
0000
0000
0000
0000
0000
0000
0000
0000
0000
0000
0000
0000
0000
0000
0000
0000
0000
0000
0000
0000
0000
0000
0000
0000
0000
0000
0000
0000
0000
0000
0000
0000
0000
0000
0000
0000
0000
0000
0000
0000
0000
0000
0000
0000
0000
0000
0000
0000
0000
0000
0000
0000
0000
0000
0000
0000
0000
0000
0000
0000
0000
0000
0000
0000
0000
0000
0000
0000
0000
0000
0000
0000
0000
0000
0000
0000
0000
0000
0000
0000
0000
0000
0000
0000
0000
,  // measure 5
0010
0000
0000
0000
0000
0000
0000
0000
0000
0000
0000
0000
0000
0000
0000
0000
0000
0100
0000
0000
0000
0000
0100
0000
0000
0000
0000
0000
0000
0000
0000
0010
0000
0000
0000
0000
1000
0000
0000
0000
0000
0000
0000
0000
0000
0000
0000
0000
,  // measure 6
0002
0000
0003
0000
0000
M00M
0000
0000
0000
0000
0000
0000
0000
0000
0000
0000
0000
0000
0000
0000
0010
0000
0000
0000
0220
0000
0000
0000
0330
0000
0000
0000
,  // measure 7
0100
0100
0010
0010
,  // measure 8
1000
1000
0002
0000
,  // measure 9
0013
0010
0100
0100
,  // measure 10
0010
0010
0002
0000
,  // measure 11
1003
0100
1001
0000
,  // measure 12
0000
0000
0000
0000
,  // measure 13
0001
0010
1001
0000
,  // measure 14
0000
0000
0000
0000
,  // measure 15
1000
0010
0000
0001
,  // measure 16
0000
0000
0000
M00M
0000
0000
0100
0010
,  // measure 17
0100
M00M
0000
0000
0010
0000
0010
0000
,  // measure 18
1000
1000
0020
2030
,  // measure 19
3002
0000
1003
1000
,  // measure 20
0100
0100
0020
0230
,  // measure 21
2300
0000
3001
0000
,  // measure 22
1001
0000
0000
0000
,  // measure 23
0000
0100
0100
0010
,  // measure 24
0010
2000
3020
2030
,  // measure 25
0000
3100
0100
0010
,  // measure 26
0010
0002
0203
0320
,  // measure 27
0000
1030
0000
1001
,  // measure 28
0000
0000
0000
0000
,  // measure 29
0000
0001
0000
1001
,  // measure 30
0000
0000
0000
0000
,  // measure 31
0000
0100
0000
0110
;

//---------------dance-single - ----------------
#NOTES:
     dance-single:
     :
     Medium:
     4:
     0.247,0.335,0.286,0.122,0.102: // measure 1
0000
0000
0000
0000
0000
0000
0000
0000
0000
0000
0000
0000
1000
0000
0000
0000
0000
0000
0000
0000
0001
0000
0000
0000
0100
0000
0000
0000
0000
0000
0000
0000
0000
0000
0000
0000
0001
0000
0000
0000
0000
0000
0000
0010
0000
0000
0000
0000
,  // measure 2
0010
0000
0000
0200
0000
0000
0300
0000
0000
0000
0000
0000
0MM0
0000
0000
0000
0000
0000
0100
0000
0100
0000
0000
0000
,  // measure 3
1000
0000
0000
0000
0000
0000
0000
0000
0000
0000
0000
0000
0000
0000
0000
0000
0000
0000
0000
0000
0000
0000
0000
0000
0000
0000
0000
0000
0000
0000
0000
0000
0000
0000
0001
0000
0000
0000
0000
0000
0000
0000
0000
0000
0000
0000
0000
0000
0000
0000
0000
0000
0000
0000
0000
0000
0000
0000
0000
0000
0000
0000
0000
0000
0000
0000
0000
0000
0000
0000
0000
0000
0000
0000
0000
0000
0000
0000
1000
0000
0000
0000
0000
0000
0000
0000
0000
0000
0000
0000
0000
0000
0000
0000
0000
0000
0010
0000
0000
0000
0000
0000
0000
0000
0000
0000
0000
0000
0000
0000
0000
0000
0000
0000
0000
0000
0000
0000
0000
0000
0100
0000
0000
0000
0000
0000
0000
0000
0000
0000
0000
0000
0000
0000
0000
0000
0000
0000
0000
0000
0000
0000
0000
0000
0010
0000
0000
0000
0000
0000
0000
0000
0000
0000
0000
0000
0000
0000
0000
0000
0000
0000
0000
0000
0000
0000
0000
0000
1000
0000
0000
0000
0000
0000
0000
0000
0000
0000
0000
0000
0000
0000
0000
0000
0010
0000
0000
0000
0000
0000
0000
0000
,  // measure 4
0100
0000
0000
0000
0000
0000
0000
0000
0000
0000
0000
0000
0000
0000
0000
0000
0100
0000
0000
0000
0000
0000
0000
0000
0002
0000
0000
0000
0000
0000
0000
0000
0000
0000
0000
0000
0000
0000
0000
0000
0000
0000
0000
0000
0000
0000
0000
0000
0000
0000
0000
0000
0000
0000
0000
0000
0000
0000
0000
0000
0000
0000
0000
0000
0000
0000
0000
0000
0000
0000
0000
0000
0000
0000
0000
0000
0000
0000
0000
0000
0003
0000
0000
0000
0000
0000
0000
0000
0000
0000
0000
0000
0000
0000
0000
0000
0000
0000
0000
0000
0000
0000
000M
0000
0000
0000
0000
0000
0000
0000
0000
0000
0000
0000
0000
0000
0000
0000
0000
0000
0000
0000
0000
0000
0000
0000
0000
0000
0000
0000
0000
0000
0000
0000
0000
0000
0000
0000
0000
0000
0000
0000
0000
0000
0000
0000
0000
0000
0000
0000
0000
0000
0000
0000
0000
0000
0000
0000
0000
0000
0000
0000
0000
0000
0000
0000
0000
0000
0000
0000
0000
0000
0000
0000
0000
0000
0000
0000
0000
0000
0000
0000
0000
0000
0000
0000
0000
0000
0000
0000
0000
0000
,  // measure 5
0010
0000
0000
0001
0000
0000
0010
0000
0000
0001
0000
0000
0000
0000
0000
0000
0000
1000
0000
0000
0000
0000
1000
0000
0000
0000
0000
0000
0000
0000
0000
0010
0000
0000
0000
0000
0100
0000
0000
0000
0000
0000
0000
0000
0000
0000
0000
0000
,  // measure 6
2000
0000
3000
0000
0000
00MM
0000
0000
0000
0000
0000
0000
0000
0000
0000
0000
0000
0000
0000
0000
0100
0000
0000
0000
0220
0000
0000
0000
0330
0000
0000
0000
,  // measure 7
0010
0001
0010
0001
,  // measure 8
1000
0100
1000
0000
1100
0000
0000
0000
,  // measure 9
1000
0001
0100
0010
,  // measure 10
0100
0001
0100
0000
0101
0000
0000
0000
,  // measure 11
1001
0000
1001
0000
,  // measure 12
0000
0000
0000
0000
,  // measure 13
0110
0000
0110
0000
,  // measure 14
0000
0000
0000
0000
,  // measure 15
1010
0000
0000
1010
,  // measure 16
0000
0000
0000
0000
0000
0000
0000
0000
0000
0000
0000
0000
0000
0000
0000
0000
0000
0000
M00M
0000
0000
0000
0000
0000
0000
0000
0000
0000
0000
0000
0000
0010
0000
0000
0000
0000
1000
0000
0000
0000
0000
0000
0001
0000
0000
0000
0000
0000
,  // measure 17
0100
M0M0
0000
0000
0010
0000
1000
0000
,  // measure 18
0010
0000
0001
0000
0010
1000
0100
0000
,  // measure 19
1100
0000
1000
0100
,  // measure 20
0010
0000
0100
0000
1000
0001
0100
0000
,  // measure 21
0101
0000
0110
0000
,  // measure 22
0110
0000
0000
0000
,  // measure 23
0000
0000
1000
0010
1000
0000
0002
0000
,  // measure 24
0013
0200
1300
1100
,  // measure 25
0000
0000
1000
0100
0001
0000
0200
0000
,  // measure 26
1300
2000
3010
0101
,  // measure 27
0000
1001
0000
0011
,  // measure 28
0000
0000
0000
0000
,  // measure 29
0000
1001
0000
1010
,  // measure 30
0000
0000
0000
0000
,  // measure 31
0000
0110
0000
0110
;

//---------------dance-single - ----------------
#NOTES:
     dance-single:
     :
     Hard:
     7:
     0.340,0.418,0.299,0.272,0.204: // measure 1
0000
0000
0000
0000
0000
0000
0000
0000
0000
0000
0000
0000
1000
0000
0000
0000
0000
0000
0000
0000
0001
0000
0000
0000
0100
0000
0000
0000
0010
0000
0000
0000
0000
0000
0000
0000
0100
0000
0000
0000
0000
0000
0000
0001
0000
0000
0000
0000
,  // measure 2
1000
0000
0000
0001
0000
0000
0020
0000
0000
0000
0000
0000
0030
0000
0000
0000
0000
0000
0000
0000
0000
0000
0000
0000
0MM0
0000
0000
0000
0000
0000
0000
0000
0000
0000
0000
0000
0010
0000
0100
0000
0010
0000
0000
0000
0000
0000
0000
0000
,  // measure 3
0001
0000
0000
0000
0000
0000
0000
0000
0000
0000
0000
0000
0000
0000
0000
0000
0000
0000
0000
0000
0000
0000
0000
0000
0000
0000
0000
0000
0000
0000
0000
0000
0000
0000
1000
0000
0000
0000
0000
0000
0000
0000
0000
0000
0000
0000
0000
0000
0000
0000
0000
0000
0000
0000
0000
0000
0000
0000
0000
0000
0000
0000
0000
0000
0000
0000
0000
0000
0000
0000
0000
0000
0000
0000
0000
0000
0000
0000
0001
0000
0000
0000
0000
0000
0000
0000
0000
0000
0000
0000
0000
0000
0000
0000
0000
0000
0100
0000
0000
0000
0000
0000
0000
0000
0000
0000
0000
0000
0000
0000
0000
0000
0000
0000
0000
0000
0000
0000
0000
0000
0010
0000
0000
0000
0000
0000
0000
0000
0000
0000
0000
0000
0100
0000
0000
0000
0000
0000
0000
0000
0000
0000
0000
0000
0010
0000
0000
0000
0000
0000
1000
0000
0000
0000
0000
0000
0010
0000
0000
0000
0000
0000
1000
0000
0000
0000
0000
0000
0001
0000
0000
0000
0000
0000
0000
0000
0100
0000
0000
0000
0000
0000
0000
0000
0001
0000
0000
0000
0000
0000
0000
0000
,  // measure 4
1000
0000
0000
0000
0000
0000
0000
0000
0100
0000
0000
0000
0000
0000
0000
0000
0010
0000
0000
0000
0000
0000
0000
0000
0001
0000
0000
0000
0000
0000
0000
0000
0200
0000
0000
0000
0000
0000
0000
0000
0000
0000
0000
0000
0000
0000
0000
0000
0000
0000
0000
0000
0000
0000
0000
0000
0000
0000
0000
0000
0000
0000
0000
0000
0000
0000
0000
0000
0000
0000
0000
0000
0000
0000
0000
0000
0000
0000
0000
0000
0300
0000
0000
0000
0000
0000
0000
0000
0000
0000
0000
0000
0000
0000
0000
0000
0000
0000
0000
0000
0000
0000
0M00
0000
0000
0000
0000
0000
0000
0000
0000
0000
0000
0000
0000
0000
0000
0000
0000
0000
0000
0000
0000
0000
0000
0000
0000
0000
0000
0000
0000
0000
0000
0000
0000
0000
0000
0000
0000
0000
0000
0000
0000
0000
0000
0000
0000
0000
0000
0000
0000
0000
0000
0000
0000
0000
0000
0000
0000
0000
0000
0000
0000
0000
0000
0000
0000
0000
0000
0000
0000
0000
0000
0000
0000
0000
0000
0000
0000
0000
0000
0000
0000
0000
0000
0000
0000
0000
0000
0000
0000
0000
,  // measure 5
0010
0000
0000
0000
0000
0000
0000
0000
0000
0000
0000
0000
0100
0000
0000
0000
0000
0000
0000
0000
0000
0000
0000
0000
0001
0000
0000
0000
0000
0000
0000
0000
0000
0000
0000
0000
1000
0000
0000
0000
0000
0000
0000
0000
0000
0000
0000
0000
0000
0000
0000
0000
0000
0000
0000
0000
0000
0000
0000
0000
0000
0000
0000
0000
0000
0000
0000
0000
0010
0000
0000
0000
0000
0000
0000
0000
0000
0000
0000
0000
0000
0000
0000
0000
0000
0000
0000
0000
0010
0000
0000
0000
0000
0000
0000
0000
0000
0000
0000
0000
0000
0000
0000
0000
0000
0000
0000
0000
0000
0000
0000
0000
0000
0000
0000
0000
0000
0000
0000
0000
0000
0000
0000
0000
0010
0000
0000
0000
0000
0000
0000
0000
0000
0000
0000
0000
0000
0000
0000
0000
0000
0000
0000
0000
1000
0000
0000
0000
0000
0000
0010
0000
0000
0000
0000
0000
1000
0000
0000
0000
0000
0000
0010
0000
0000
0000
0000
0000
0000
0000
0000
0000
0000
0000
0000
0000
0000
0000
0000
0000
0000
0000
0000
0000
0000
0000
0000
0000
0000
0000
0000
0000
,  // measure 6
0002
0000
0003
0000
0000
M0MM
0000
0000
0000
0000
0000
0000
0000
0000
0000
0000
0000
0000
0000
0000
0010
0000
0000
0000
0220
0000
0000
0000
0330
0000
0000
0000
,  // measure 7
0010
1000
0100
0010
,  // measure 8
0010
0100
1100
0000
,  // measure 9
0100
0000
1000
0000
0001
1000
0100
0010
,  // measure 10
0100
0010
0110
0000
,  // measure 11
0012
0103
2002
0000
,  // measure 12
0000
0000
3003
0000
0000
0000
0000
2010
,  // measure 13
0000
3100
2002
0000
,  // measure 14
0000
0000
3003
0000
,  // measure 15
0110
0000
0000
0000
0000
0000
0000
0000
0000
0000
0000
0000
0000
1001
0000
0000
,  // measure 16
0000
0000
0000
0000
0000
0000
0000
0000
0000
0000
0000
0000
0000
0000
0000
0000
0000
0000
M00M
0000
0000
0000
0000
0000
0000
0000
0000
0000
0000
0000
0000
0110
0000
0000
0000
0000
0001
0000
0000
0000
0000
0000
1000
0000
0000
0000
0000
0000
,  // measure 17
0100
M0MM
0000
0000
0010
0001
0010
0100
,  // measure 18
0010
0001
0100
0000
0001
1000
0100
0000
,  // measure 19
1100
0000
0000
0000
1000
0100
0010
0001
,  // measure 20
0100
0010
0100
0001
0010
0100
1000
0001
,  // measure 21
1001
0000
1002
0013
,  // measure 22
0220
0000
0000
0330
,  // measure 23
0000
0000
0010
1000
0010
0001
0010
1000
,  // measure 24
0010
0001
0010
1000
0100
0010
0011
0000
,  // measure 25
0000
0000
0001
0100
0001
0010
0001
0100
,  // measure 26
0001
0010
0100
1000
0010
1000
1010
0000
,  // measure 27
0000
1002
0013
0202
,  // measure 28
0000
0000
0303
0000
,  // measure 29
0000
2010
3001
2002
,  // measure 30
0000
0000
3003
0000
,  // measure 31
0000
0000
0000
0110
0000
0000
0000
0000
0000
0000
0000
0000
0110
0000
0000
0000
;
