#TITLE:LiGHT;
#SUBTITLE:;
#ARTIST:Sanxion7;
#TITLETRANSLIT:;
#SUBTITLETRANSLIT:;
#ARTISTTRANSLIT:;
#CREDIT:;
#BANNER:light-ban.png;
#BACKGROUND:light-bg.png;
#LYRICSPATH:;
#CDTITLE:;
#MUSIC:LiGHT.mp3;
#OFFSET:-0.081;
#SAMPLESTART:37.810;
#SAMPLELENGTH:15.000;
#SELECTABLE:YES;
#BPMS:0.000=24.483,1.000=24.406,2.000=24.328,3.000=44.382,4.000=110.002,8.000=110.000,32.000=55.000,34.000=110.000,38.000=110.000,116.000=55.000,118.000=110.000,122.000=110.000,182.000=106.599,183.000=106.198,184.000=103.311,185.000=96.629,186.000=96.183,187.000=91.497,188.000=90.301,189.000=86.882,190.000=83.718,191.000=80.772,192.000=77.177,193.000=73.066,194.000=72.065,195.000=67.588,196.000=51.959,197.000=55.000;
#STOPS:66.500=0.270
,67.500=0.275
,68.500=0.275
,69.500=0.275
,70.500=0.270
,71.500=0.275
,72.500=0.275
,73.500=0.275
,74.500=0.270
,75.500=0.275
,77.500=0.275
,78.500=0.275
,79.500=0.270
,80.500=0.270
,81.500=0.275
,82.500=0.275
,83.500=0.270
,84.500=0.275
,85.500=0.275
,86.500=0.255
;
#BGCHANGES:;

//---------------dance-single - ----------------
#NOTES:
     dance-single:
     :
     Challenge:
     9:
     0.539,0.543,0.173,0.118,0.433:
0000
0000
0000
0000
,
1001
1000
0001
1000
0100
0010
0001
0001
,
0100
0010
1000
0100
0010
0001
0100
0100
,
0010
0000
1000
0000
0001
0000
1000
0100
0000
0000
0020
0000
0000
0000
0031
0000
,
1000
0000
1000
0000
0010
0100
0000
0100
0002
0000
0000
1000
0000
0000
1003
0000
,
0010
0000
1000
0000
0010
0000
1000
0001
1000
0000
0001
0100
0001
0000
0010
0000
,
0001
0000
0001
0000
0100
0000
0010
1000
0010
0000
1000
0100
1000
0000
0001
0000
,
0100
0000
0010
0000
1000
0000
0010
1000
0000
0010
1000
0000
0000
0000
0001
0000
,
1000
0000
0010
0000
0100
0001
0000
0100
0010
0000
0000
1000
0000
0000
0010
0000
1000
0000
0000
0000
0100
0000
0000
0000
1100
0000
0000
0000
1000
0000
0001
0000
,
1000
0000
0010
0000
0110
0000
0100
0001
0100
0000
0010
0000
1010
0000
1000
0001
,
1000
0000
0010
0000
1010
0000
1000
0000
0001
0000
1000
0000
0001
0000
1000
0010
,
0000
0010
1000
0000
0001
0100
0001
0000
1000
0000
0010
0000
1000
0010
0000
1000
,
0010
0000
0000
0010
0000
0000
1000
0001
0100
0000
0010
0000
1001
0000
0010
1000
,
0010
0000
1000
0001
1000
0000
0001
0100
0001
0000
1000
0010
0100
0000
0001
0100
,
0001
0000
1000
0010
1000
0000
0001
0100
0010
0000
1000
0000
1010
0000
1000
0001
,
0000
0001
0200
0000
0000
0000
0310
0000
1000
0000
0001
0000
1000
0001
0000
0001
,
1000
0010
1010
1001
1000
1000
0100
0100
,
0001
0001
0100
0100
0010
0010
0001
0001
,
0100
0100
1000
1000
0100
0100
0001
0001
,
1000
0010
1010
0100
0001
0010
0100
1000
,
0100
0010
0001
0100
0010
1000
0001
0100
,
0010
0000
1000
0000
0100
0000
0010
0000
0001
0000
1000
0000
0001
0000
1000
0010
,
1000
0000
0001
0010
0000
0010
0100
0000
0000
0000
2000
0000
0000
0010
0000
0000
,
3010
0000
0100
0001
0000
0100
0020
0000
0000
0000
1030
0000
0100
0000
0010
0001
,
0010
0000
0100
1000
0000
0100
1000
0000
0000
0000
0002
0000
0000
2003
0000
0000
,
3001
0000
0100
0010
0000
0100
0010
0000
1000
0000
0001
0010
0001
0000
1000
0100
,
1000
0000
0001
0100
0000
0001
0100
0000
0000
0000
0020
0000
0000
2030
0000
0000
,
3001
0000
1000
0010
0000
1000
0010
0000
0100
0000
0001
0000
1000
0000
0010
0100
,
0010
0000
1000
0010
0000
1000
0001
0000
0000
0000
0002
0000
0000
0023
0000
0000
,
0031
0000
1000
0010
0000
1000
0010
0000
0000
0000
0100
0000
0001
0000
1000
0000
0001
0000
0010
0000
0001
0000
0000
0000
1000
0000
0000
0000
0001
0000
0100
0000
,
0001
0000
0100
0001
0100
0000
0010
0000
1000
0000
1000
0000
1000
0000
0001
0100
,
0001
0000
0100
0010
0100
0000
0001
0000
0010
0000
0010
0000
0010
0000
0100
1000
,
0000
0100
2000
0000
0000
0000
3001
0000
1000
0000
0010
0000
1000
0010
0000
0010
,
2000
0000
0000
0001
0000
0000
3001
0000
1000
0000
0010
0000
1010
0000
0100
0000
,
0001
0100
0101
0001
0010
0001
0011
0001
,
1000
0000
0001
0000
1001
0000
1000
0000
0010
0000
1000
0000
1010
0000
0100
0001
,
0000
0001
0200
0000
0000
0000
0310
0000
1000
0000
0001
0000
1000
0001
0000
0001
,
1000
0000
0010
0000
0100
0000
0001
0000
1000
0010
1000
0000
1001
0000
0001
0100
,
0001
0000
1000
0010
1000
0010
0100
0001
0100
0010
1000
0000
1001
0000
0001
0100
,
0010
0000
1000
0100
0010
0001
0010
0100
1000
0001
1000
0000
1001
0000
0001
0100
,
0000
0001
0100
0000
0110
0000
0010
0000
1000
0000
0001
0000
1000
0010
0000
1000
,
0010
0000
0100
0000
0100
0000
0001
0000
1000
0010
1000
0000
1001
0000
0001
0100
,
0001
0000
1000
0100
0010
0001
0010
0100
1000
0001
1000
0000
0101
0000
0001
0100
,
0010
0000
1000
0100
0010
0100
1000
0001
1000
0000
0001
0000
0100
0000
0010
1000
,
0000
0010
1000
0000
0100
0010
0001
0000
1000
0000
0001
0000
0100
0010
0000
0010
,
1000
0000
0000
0001
0000
0000
1000
0000
1001
0000
0001
0000
0100
0000
0010
0000
,
1000
0100
0010
0001
0100
0010
1000
0100
,
1000
0001
0100
0010
1000
0100
0010
0001
,
0100
0010
1000
0100
0010
0001
2000
0000
,
0000
3000
0000
0000
;

//---------------dance-single - ----------------
#NOTES:
     dance-single:
     :
     Hard:
     7:
     0.422,0.369,0.158,0.102,0.146: // measure 1
0000
0001
1000
0010
,  // measure 2
1001
0001
1000
0010
0100
0001
1000
0010
,  // measure 3
1000
1000
0010
0000
0100
0100
0001
0000
,  // measure 4
1000
0000
0001
0000
1000
0000
0000
0100
0000
0000
0020
0000
0000
0000
0031
0000
,  // measure 5
1000
0000
1000
0000
0010
0000
0000
0010
0100
0000
0000
0001
0000
0000
1000
0000
,  // measure 6
0001
0100
0010
1000
0001
0010
0100
0000
,  // measure 7
0100
1000
0010
0100
0001
0010
0100
0000
,  // measure 8
1000
0000
0010
0000
1000
0000
0010
1000
0000
0010
1000
0000
0000
0000
0001
0000
,  // measure 9
1000
0000
0010
0000
0100
0000
0000
0000
0001
0000
0000
1000
0000
0000
0001
0000
1000
0000
0000
0000
0010
0000
0000
0000
1010
0000
0000
0000
0000
0000
0000
0000
,  // measure 10
0100
0001
0101
0000
0001
0010
0011
0000
,  // measure 11
0001
0000
1000
0000
1001
0000
0000
0000
0010
0000
1000
0000
0001
0000
0000
0010
,  // measure 12
0000
0100
0010
0100
0010
0001
2000
0000
,  // measure 13
3001
0100
0010
1000
0001
0100
0101
0000
,  // measure 14
0010
1000
1010
0000
1000
0100
0011
0000
,  // measure 15
0001
0000
0010
0000
1100
0000
0000
0000
0010
0000
1000
0000
0001
0000
0000
1000
,  // measure 16
0000
0200
0000
0310
0001
0010
0100
0000
,  // measure 17
1000
0100
0010
0010
0001
1000
0001
1000
,  // measure 18
0010
0100
0010
0100
0001
0010
0001
0010
,  // measure 19
0100
1000
0100
1000
0001
1000
0001
1000
,  // measure 20
0001
1000
0001
1000
0010
0100
0010
0100
,  // measure 21
0001
1000
0010
1000
0001
0100
0010
1000
,  // measure 22
0001
0100
0010
1000
0001
1000
0001
1000
,  // measure 23
0001
0000
1000
0010
0000
1000
0010
0000
0000
0000
1000
0000
0000
0010
0000
0000
,  // measure 24
0100
0000
0001
0100
0000
0100
0001
0000
0000
0000
1000
0000
0100
0000
0010
0000
,  // measure 25
0001
0000
1000
0010
0000
1000
0010
0000
0000
0000
0100
0000
0000
0001
0000
0000
,  // measure 26
1000
0000
0100
0010
0000
0100
0010
0000
0001
0000
0100
0000
0010
0000
1000
0000
,  // measure 27
1010
0000
0000
0100
0000
0000
0002
0000
0000
0000
1003
0000
0000
0010
0000
0000
,  // measure 28
1000
0000
0010
1000
0000
0010
1000
0000
0100
0000
0010
0000
0001
0000
0010
0000
,  // measure 29
0100
0000
1000
0010
0000
1000
0001
0000
0000
0000
0001
0000
0000
0100
0000
0000
,  // measure 30
0002
0000
0000
0000
0003
1000
0010
1000
0001
0000
0001
0000
0001
0000
0000
0000
,  // measure 31
1000
0010
1000
0000
0001
0001
0001
0000
,  // measure 32
0100
0000
0010
0000
0100
0000
0000
0000
0001
0000
0010
0000
0100
0000
0000
1000
,  // measure 33
0000
0020
0000
0130
0001
1000
0020
0000
,  // measure 34
2030
0001
0001
3001
1000
0010
0101
0000
,  // measure 35
0001
0010
1100
0000
0001
0010
1100
0000
,  // measure 36
0001
0000
0100
0000
0110
0000
0000
0000
0001
0000
0100
0000
1010
0000
0000
0100
,  // measure 37
0000
0002
0000
0013
0100
1000
0002
0000
,  // measure 38
1003
0000
0010
0000
0100
0000
0001
0000
1000
0010
1000
0000
0001
0000
0000
0000
,  // measure 39
0100
0000
0010
0000
0110
0000
0000
0000
0001
0010
0001
0000
0010
0000
0000
0000
,  // measure 40
0001
0000
1000
0000
0110
0000
0000
0000
1000
0000
0001
0000
1000
0000
0000
0001
,  // measure 41
0000
0100
0010
1000
0001
1000
0020
0000
,  // measure 42
1030
0000
0100
0000
0010
0000
0000
0000
0001
1000
0001
0000
1000
0000
0000
0000
,  // measure 43
0010
0000
1000
0000
1010
0000
0000
0000
0001
0100
0001
0000
1000
0000
0000
0000
,  // measure 44
0001
1000
1001
0000
1000
0001
0100
0010
,  // measure 45
0000
1000
0100
0000
0010
0000
0001
0000
1000
0000
0001
0000
0200
0000
0000
0000
,  // measure 46
0310
1000
1000
0001
1001
0001
0100
0010
,  // measure 47
1000
0100
0010
0001
0100
0010
1000
0100
,  // measure 48
1000
0001
0100
0010
1000
0100
0010
0001
,  // measure 49
0100
0010
1000
0100
0010
0001
2000
0000
,  // measure 50
0000
3000
0000
0000
;

//---------------dance-single - ----------------
#NOTES:
     dance-single:
     :
     Medium:
     5:
     0.334,0.330,0.236,0.102,0.000:
0000
0001
1000
0001
,
1001
1000
0010
0100
,
0001
1000
0001
0000
1000
0000
0010
0000
,
1000
0001
1000
0000
0010
0000
1000
0000
,
0001
0100
0001
0000
1000
0000
0010
0000
,
1010
0000
1000
0000
0001
0100
0001
0000
,
1000
0010
1000
0000
0001
0000
1000
0000
,
0001
1000
0010
0000
1000
0000
0001
0000
,
2000
3001
1000
1010
,
0010
0000
0110
0000
0100
0001
0100
0000
,
0010
0000
1010
0000
1000
0001
0100
0000
,
0010
0000
1000
0000
0100
0010
0001
0000
,
1000
0000
0001
0000
1000
0001
1001
0000
,
0010
0000
1000
0000
0001
0100
0101
0000
,
0010
1000
0001
1001
,
0010
0000
0110
0000
0001
0010
0001
0000
,
1000
0001
0001
0001
1000
0010
1000
0010
,
0100
0001
0100
0001
1000
0010
1000
0010
,
0100
0001
0100
0001
1000
0001
1000
0001
,
0000
0000
1001
0001
1000
0010
0100
0001
,
1000
0010
0100
0001
1000
0100
0010
0001
,
1000
0001
0100
0001
1000
0001
1000
0000
,
1001
0002
1000
0000
0100
0000
1003
0000
,
2010
0010
0001
3010
,
0102
1000
0100
1003
,
0120
1000
0100
1030
,
0210
0001
0010
0301
,
1002
0100
1000
0103
,
2010
0001
0010
3001
,
2000
0000
3010
0100
1001
0000
0010
0000
,
1000
0001
0101
0000
0010
0000
1001
0000
,
1000
0100
0011
0000
0001
0000
1001
0000
,
1000
0000
0011
0000
1000
0001
1001
0000
,
0020
0000
1030
0000
0001
0100
0001
0000
,
1000
0000
1001
0000
0010
1000
0010
0000
,
1000
0000
1001
0000
0001
0010
0001
0000
,
1000
0000
1001
0000
0010
1000
0010
0000
,
2000
0000
3001
0000
0001
0100
0001
0100
,
0001
0000
1001
0000
1000
0010
0100
0001
,
1000
0000
1001
0000
0001
0100
0001
0000
,
1000
0000
0010
0000
1000
0001
1000
0000
,
0002
0000
1003
0000
0001
0010
0001
0010
,
0100
1000
0100
0000
0010
0010
0001
0000
,
1000
0010
0100
0000
0001
0010
0001
0000
,
1000
0000
0010
0000
0100
0100
0001
0000
,
1000
0000
0001
0000
1001
0000
1000
0010
,
1000
0000
0001
0100
0001
0000
1000
0010
,
0000
1000
0010
0000
0100
0001
0000
0010
,
0100
0000
1000
0001
2000
0000
0000
0000
,
0000
3000
0000
0000
;

//---------------dance-single - ----------------
#NOTES:
     dance-single:
     :
     Easy:
     4:
     0.243,0.272,0.142,0.126,0.000:
0000
0010
0100
1000
,
1001
0010
1000
0001
,
1000
0001
1000
0010
,
0200
0001
0301
0000
,
0020
1000
1030
0000
,
1001
0010
1000
0001
,
0100
0100
0010
0010
,
2000
0000
0001
3001
,
2002
3003
0001
1001
,
1000
1010
1000
1001
,
0001
0101
0200
0000
,
0010
0310
2000
0001
,
0001
3001
0100
0100
,
0010
0010
1000
1000
,
0001
0001
2000
0000
,
0010
3010
0200
0000
,
0001
0301
1000
0001
,
1000
0001
1000
0010
,
0100
0001
1000
0010
,
1000
0000
0001
1000
,
0010
1000
0001
0100
,
0010
1000
0001
0000
,
1001
1000
0001
1000
,
0010
0100
0001
1000
,
1001
0010
1000
0001
,
0010
0010
0100
0100
,
1001
0010
1000
0010
,
0100
0001
0100
0001
,
1001
0010
1000
0010
,
2000
0000
3000
1001
,
0001
1000
0001
0000
1000
0000
0010
0000
,
1000
0001
1000
0000
0001
0000
0100
0000
,
0001
1000
0020
1000
,
1030
0000
0000
0000
1000
0001
1000
0000
,
0010
0000
1000
0000
0001
0100
0001
0000
,
1000
0010
1000
0001
,
1000
0001
0200
0010
,
0310
0000
0000
0000
1000
0100
1000
0000
,
0000
0000
1001
0000
0001
0100
0001
0000
,
0000
1001
1000
0001
,
0100
0100
0010
0010
,
1000
0000
1000
0000
0001
1000
0001
0000
,
0000
0000
1001
0000
0010
0100
0010
0000
,
0000
1001
2000
0001
,
3001
0000
0002
0100
,
0103
0000
1001
0001
,
0010
0100
0001
1000
,
1000
0001
0001
1000
,
0010
2002
0000
0000
,
0000
3003
0000
0000
;

//---------------dance-single - ----------------
#NOTES:
     dance-single:
     :
     Beginner:
     1:
     0.090,0.113,0.087,0.000,0.000:
0000
1000
0000
1000
,
0000
0001
0000
1000
,
0000
0010
0000
1000
,
0000
0001
0000
0000
,
0000
1000
0000
0000
,
0000
0100
0000
0000
,
0000
0010
0000
0000
,
0000
1000
0000
0000
,
0001
0000
0001
0000
,
0000
1001
0000
0000
,
0000
1001
0000
0000
,
0000
0110
0000
0000
,
0000
0110
0000
1000
,
0000
0000
0000
0001
,
0000
0000
0000
1000
,
0000
0000
0000
0001
,
0000
0000
1000
0000
,
0001
0000
1000
0000
,
0010
0000
0100
0000
,
0001
0000
1000
0000
,
0001
0000
0010
0000
,
0100
0000
0001
0000
,
1001
0000
0000
0000
,
1000
0000
0000
0000
,
1001
0000
0000
0000
,
0010
0000
0000
0000
,
0110
0000
0000
0000
,
0001
0000
0000
0000
,
1000
0000
0000
0000
,
0001
0000
1000
0000
,
0000
1001
0000
0001
,
0000
1000
0000
0010
,
0000
0100
0000
0001
,
0000
0000
0000
1001
,
0000
0000
0000
1001
,
0000
0000
0000
0001
,
0000
0000
0000
1000
,
0000
0000
0000
0010
,
0000
0010
0000
0100
,
0000
0100
0000
0001
,
0000
0001
0000
1000
,
0000
1000
0000
0001
,
0000
0001
0000
1000
,
0000
1000
0000
0010
,
0000
0000
0000
0100
,
0000
0000
1001
0000
,
1000
0000
0000
0000
,
0001
0000
0000
0000
,
0100
0000
0000
0000
;
